osu file format v14

[General]
AudioFilename: audio.mp3
AudioLeadIn: 0
PreviewTime: 67225
Countdown: 0
SampleSet: Normal
StackLeniency: 0.7
Mode: 0
LetterboxInBreaks: 0
WidescreenStoryboard: 0

[Editor]
Bookmarks: 53487,75216
DistanceSpacing: 0.1
BeatDivisor: 4
GridSize: 4
TimelineZoom: 2.299999

[Metadata]
Title:Using You
TitleUnicode:Using You
Artist:Mars Argo
ArtistUnicode:Mars Argo
Creator:Bakari
Version:Delusion
Source:
Tags:Corey Mixter Brittany Sheets Liuth Linden Place EP alternative rock dream pop grocerybag indie titanic sinclair
BeatmapID:1126236
BeatmapSetID:531433

[Difficulty]
HPDrainRate:6
CircleSize:5
OverallDifficulty:7
ApproachRate:7
SliderMultiplier:1.6
SliderTickRate:2

[Events]
//Background and Video events
0,0,"6857538-macro-flower.jpg",0,0
Video,0,"Mars Argo best girl.avi"
//Break Periods
2,146210,160811
//Storyboard Layer 0 (Background)
//Storyboard Layer 1 (Fail)
//Storyboard Layer 2 (Pass)
//Storyboard Layer 3 (Foreground)
//Storyboard Sound Samples

[TimingPoints]
13674,560.747663551402,4,2,0,55,1,0
49561,-100,4,3,0,46,0,0
65262,-100,4,2,0,42,0,0
67505,-100,4,1,0,45,0,1
85449,-100,4,2,0,50,0,0
103393,-133.333333333333,4,2,0,50,0,0
103403,-133.333333333333,4,2,0,15,0,0
105636,-100,4,3,0,45,0,0
107879,-100,4,1,0,45,0,1
125543,-100,4,2,0,50,0,0
125823,-100,4,1,0,37,0,1
126103,-100,4,1,0,37,0,0
143767,-100,4,3,0,46,0,0
163954,-100,4,1,0,45,0,1
181617,-100,4,1,0,45,0,0
181898,-100,4,1,0,45,0,1
208814,-100,4,1,0,45,0,0
209094,-100,4,2,0,10,0,0

[Colours]
Combo1 : 92,147,148
Combo2 : 155,199,227
Combo3 : 153,181,179

[HitObjects]
398,327,31617,6,0,L|390:231,1,80,4|0,0:0|0:0,0:0:0:0:
326,187,32178,1,2,0:0:0:0:
362,107,32459,1,2,3:0:0:0:
272,15,32739,2,0,P|216:11|136:99,1,160,0|2,3:0|0:0,0:0:0:0:
168,160,33580,1,0,0:0:0:0:
85,265,33860,6,0,L|1:253,1,80,2|0,0:0|0:0,0:0:0:0:
60,184,34421,1,2,0:0:0:0:
150,294,34702,2,0,P|212:296|280:200,1,160,2|0,3:0|0:0,0:0:0:0:
232,156,35543,1,2,0:0:0:0:
316,132,35823,1,0,0:0:0:0:
271,24,36103,5,4,0:0:0:0:
316,272,36664,2,0,P|348:248|400:232,1,80,2|2,0:0|0:3,0:0:0:0:
464,276,37225,2,0,P|432:300|380:316,1,80,0|0,3:0|0:0,0:0:0:0:
316,272,37786,1,2,0:0:0:0:
288,188,38066,1,0,0:0:0:0:
204,270,38346,6,0,P|148:279|79:193,1,160,2|2,0:0|0:0,0:0:0:0:
65,313,39188,1,2,2:3:0:0:
201,354,39468,2,0,P|237:342|289:334,1,80,0|0,3:0|0:0,0:0:0:0:
250,223,40029,2,0,L|242:143,1,80,2|0,0:0|0:0,0:0:0:0:
323,12,40589,5,4,0:0:0:0:
386,231,41150,2,0,P|430:219|482:227,1,80,2|2,0:0|0:3,0:0:0:0:
319,194,41711,2,0,P|280:164|168:152,1,160,0|2,3:0|0:0,0:0:0:0:
401,310,42832,6,0,P|389:270|389:214,1,80,2|0,0:0|0:0,0:0:0:0:
311,287,43393,2,0,P|283:311|235:331,1,80,2|2,0:0|3:0,0:0:0:0:
344,375,43954,1,0,3:0:0:0:
328,120,44515,1,2,0:0:0:0:
188,228,45075,6,0,L|96:216,1,80,4|0,0:0|0:0,0:0:0:0:
32,176,45636,1,2,0:0:0:0:
40,264,45916,1,2,3:0:0:0:
52,352,46197,1,0,3:0:0:0:
188,228,46758,2,0,L|96:216,1,80,2|0,0:0|0:0,0:0:0:0:
36,268,47318,6,0,L|24:180,1,80,2|0,0:0|0:0,0:0:0:0:
4,104,47879,1,2,0:0:0:0:
88,128,48159,1,2,2:3:0:0:
168,160,48440,1,0,3:0:0:0:
140,48,48720,1,8,0:3:0:0:
276,92,49001,2,0,P|300:72|316:16,1,80,2|0,3:2|0:0,0:0:0:0:
279,183,49561,6,0,P|264:224|284:340,1,160,4|8,2:0|0:0,0:0:0:0:
355,228,50402,1,0,0:0:0:0:
279,183,50683,2,0,L|179:195,1,80,2|0,0:2|0:0,0:0:0:0:
328,116,51244,2,0,P|360:132|428:140,1,80,8|0,0:0|0:0,0:0:0:0:
289,38,51804,5,4,0:0:0:0:
364,288,52365,1,8,0:0:0:0:
276,212,52645,1,0,0:0:0:0:
195,274,52926,2,0,P|183:302|175:358,1,80,2|0,0:2|0:0,0:0:0:0:
260,328,53487,1,8,0:0:0:0:
256,321,53767,1,0,0:0:0:0:
209,196,54047,6,0,P|216:152|212:104,1,80,4|0,0:0|0:0,0:0:0:0:
176,36,54608,1,8,0:0:0:0:
264,44,54888,1,0,0:0:0:0:
352,52,55169,1,2,0:2:0:0:
148,124,55730,2,0,P|120:108|44:96,1,80,8|0,0:0|0:0,0:0:0:0:
170,211,56290,6,0,P|224:180|332:168,1,160,4|8,0:0|0:0,0:0:0:0:
396,208,57131,1,0,0:0:0:0:
384,120,57412,1,2,0:2:0:0:
472,192,57692,1,0,0:0:0:0:
350,269,57973,2,0,P|336:312|336:356,1,80,8|0,0:0|0:0,0:0:0:0:
264,205,58533,6,0,P|275:157|268:108,1,80,4|0,0:0|0:0,0:0:0:0:
220,56,59094,1,8,0:0:0:0:
188,136,59374,1,0,0:0:0:0:
152,216,59655,2,0,L|48:208,1,80,2|0,0:2|0:0,0:0:0:0:
157,288,60216,1,8,0:0:0:0:
277,106,60776,6,0,P|320:96|368:96,1,80,4|0,0:0|0:0,0:0:0:0:
433,173,61337,1,8,0:0:0:0:
468,92,61617,1,0,0:0:0:0:
508,12,61898,1,2,0:2:0:0:
509,159,62459,1,8,0:0:0:0:
380,40,63019,6,0,P|352:32|292:28,1,80,4|0,0:0|0:0,0:0:0:0:
236,84,63580,1,8,0:0:0:0:
152,64,63860,1,0,0:0:0:0:
68,44,64141,1,2,0:2:0:0:
198,163,64702,1,8,0:0:0:0:
236,84,64982,1,0,0:0:0:0:
280,8,65262,6,0,P|336:0|416:96,1,160,2|0,0:0|3:0,0:0:0:0:
256,176,66384,1,0,0:0:0:0:
256,88,66664,1,0,3:0:0:0:
256,8,66945,1,2,3:2:0:0:
412,216,67505,5,4,0:0:0:0:
356,284,67786,1,0,0:0:0:0:
240,188,68066,2,2,P|208:176|140:168,1,80,8|0,0:0|0:0,0:0:0:0:
312,236,68627,1,4,0:3:0:0:
317,229,68907,1,0,0:0:0:0:
242,319,69188,2,2,P|276:328|340:332,1,80,8|0,0:0|0:0,0:0:0:0:
172,275,69748,6,2,P|128:288|40:368,1,160,4|8,0:0|0:0,0:0:0:0:
218,356,70589,1,0,0:0:0:0:
224,364,70870,1,6,0:3:0:0:
240,248,71150,1,2,3:1:0:0:
264,98,71431,1,8,0:0:0:0:
326,196,71711,1,2,3:1:0:0:
170,167,71991,6,2,P|128:152|80:144,1,80,4|0,0:0|0:0,0:0:0:0:
209,239,72552,1,8,0:0:0:0:
212,229,72832,1,0,0:0:0:0:
283,296,73113,2,2,P|271:352|271:392,1,80,4|0,0:3|0:0,0:0:0:0:
342,265,73674,2,2,P|332:230|324:174,1,80,8|0,0:0|0:0,0:0:0:0:
378,52,74234,6,2,P|418:76|514:16,1,160,4|8,0:0|0:0,0:0:0:0:
403,139,75075,1,0,3:0:0:0:
404,140,75216,1,0,3:0:0:0:
408,144,75356,1,4,3:0:0:0:
319,96,75636,1,2,0:0:0:0:
253,198,75916,2,2,P|200:211|148:207,1,80,8|0,0:0|0:0,0:0:0:0:
36,162,76477,5,4,0:0:0:0:
283,284,77038,2,2,P|291:324|291:364,1,80,8|0,0:0|0:0,0:0:0:0:
153,312,77599,2,2,P|151:265|159:217,1,80,4|0,3:0|0:0,0:0:0:0:
239,96,78159,1,8,0:0:0:0:
274,197,78440,1,0,0:0:0:0:
385,109,78720,6,2,P|457:113|517:193,1,160,4|8,0:0|0:0,0:0:0:0:
342,164,79561,1,0,0:0:0:0:
393,68,79842,1,4,0:3:0:0:
401,215,80122,1,2,0:0:0:0:
330,52,80402,1,8,0:0:0:0:
419,149,80683,1,2,0:0:0:0:
235,233,80963,6,2,P|204:228|144:112,1,160,4|8,0:0|0:0,0:0:0:0:
196,68,81804,1,0,0:0:0:0:
58,99,82085,2,2,P|64:56|60:8,1,80,4|0,0:3|0:0,0:0:0:0:
10,169,82645,2,2,P|8:196|24:264,1,80,8|0,0:0|0:0,0:0:0:0:
118,118,83206,5,4,0:0:0:0:
37,359,83767,1,8,0:0:0:0:
143,280,84047,1,0,3:0:0:0:
140,276,84188,1,0,3:0:0:0:
136,272,84328,1,4,3:0:0:0:
204,350,84608,1,2,0:0:0:0:
252,262,84888,2,0,P|240:220|236:176,1,80,8|2,0:0|0:3,0:0:0:0:
299,90,85449,6,0,P|336:112|464:72,1,160,6|2,0:0|3:0,0:0:0:0:
464,16,86290,1,0,0:0:0:0:
472,20,86571,1,2,0:0:0:0:
388,36,86851,1,0,0:0:0:0:
464,128,87131,2,0,P|467:162|467:217,1,80,0|0,3:0|0:0,0:0:0:0:
404,256,87692,6,0,P|352:240|256:304,1,160,2|2,0:0|3:0,0:0:0:0:
244,372,88533,1,0,3:2:0:0:
162,340,88814,2,0,L|80:344,1,80,2|0,0:0|0:0,0:0:0:0:
40,276,89374,1,0,3:0:0:0:
124,188,89655,1,0,0:0:0:0:
27,64,89935,6,0,P|64:24|184:32,1,160,6|2,0:0|3:3,0:0:0:0:
208,84,90776,1,0,3:0:0:0:
276,44,91057,2,0,L|368:40,1,80,2|0,0:0|0:0,0:0:0:0:
474,68,91617,1,0,0:3:0:0:
418,124,91898,1,0,0:0:0:0:
414,272,92178,6,0,P|435:317|443:361,1,80,2|0,0:0|0:0,0:0:0:0:
339,288,92739,1,2,3:0:0:0:
358,170,93019,1,0,3:0:0:0:
279,223,93300,2,0,P|241:230|193:230,2,80,2|0|0,0:0|0:0|3:0,0:0:0:0:
256,136,94141,1,0,0:0:0:0:
128,178,94421,6,0,L|25:172,1,80,6|0,0:0|0:0,0:0:0:0:
203,137,94982,1,2,3:0:0:0:
207,147,95262,1,0,3:0:0:0:
149,274,95543,2,0,P|176:253|204:213,1,80,2|0,0:0|0:0,0:0:0:0:
124,286,96103,2,0,P|164:281|204:261,1,80,2|0,0:2|0:3,0:0:0:0:
94,302,96664,6,0,P|140:317|184:317,1,80,2|0,0:0|0:0,0:0:0:0:
117,176,97225,1,2,0:3:0:0:
88,311,97505,1,0,3:0:0:0:
52,221,97786,1,2,0:0:0:0:
170,88,98346,2,0,L|172:4,1,80,0|0,0:3|0:0,0:0:0:0:
110,141,98907,5,6,0:0:0:0:
307,59,99468,1,2,0:3:0:0:
312,64,99748,1,0,3:0:0:0:
248,136,100029,2,0,P|220:116|184:0,1,160,2|2,0:0|0:3,0:3:0:0:
280,0,100870,1,0,0:3:0:0:
203,92,101150,6,0,P|153:83|113:83,1,80,2|0,0:0|0:0,0:0:0:0:
52,144,101711,1,2,3:0:0:0:
56,152,101991,1,0,3:0:0:0:
96,228,102272,1,2,0:0:0:0:
168,164,102552,1,2,0:3:0:0:
112,46,102832,1,10,0:3:0:0:
116,52,103113,1,2,0:3:0:0:
239,94,103393,6,0,P|292:104|420:12,1,220.000008392334,6|2,0:0|0:0,0:0:0:0:
399,92,105636,5,2,0:0:0:0:
368,0,105916,1,4,0:0:0:0:
302,165,106197,2,0,P|296:116|296:80,1,80,6|2,0:0|0:0,0:0:0:0:
294,171,106758,1,0,0:0:0:0:
408,280,107038,1,2,0:0:0:0:
428,188,107318,1,6,0:0:0:0:
452,96,107599,1,0,0:0:0:0:
337,194,107879,6,2,P|308:196|248:192,1,80,6|0,0:0|0:0,0:0:0:0:
168,80,108440,1,8,0:0:0:0:
168,72,108720,1,0,0:0:0:0:
130,203,109001,2,2,L|40:196,1,80,4|0,3:0|0:0,0:0:0:0:
138,210,109561,1,8,0:0:0:0:
112,92,109842,1,0,0:0:0:0:
116,100,110122,6,2,P|156:105|204:93,1,80,4|0,0:0|0:0,0:0:0:0:
252,20,110683,1,8,0:0:0:0:
292,124,110963,1,0,0:0:0:0:
296,132,111244,1,4,3:0:0:0:
300,139,111524,1,2,3:1:0:0:
365,39,111804,1,8,0:0:0:0:
437,128,112085,1,2,3:1:0:0:
296,132,112365,6,2,L|322:301,1,160,4|8,0:0|0:0,0:0:0:0:
228,240,113206,1,0,0:0:0:0:
385,245,113487,1,4,3:0:0:0:
361,347,113767,1,0,0:0:0:0:
246,307,114047,1,8,0:0:0:0:
324,199,114328,1,0,0:0:0:0:
180,107,114608,6,2,P|176:69|288:21,1,160,4|8,0:0|0:0,0:0:0:0:
405,82,115449,1,0,3:3:0:0:
410,79,115589,1,0,3:3:0:0:
415,76,115730,1,4,3:3:0:0:
337,161,116010,1,2,3:1:0:0:
266,94,116290,1,8,3:1:0:0:
261,92,116431,1,0,3:1:0:0:
257,91,116571,1,0,3:1:0:0:
376,9,116851,5,4,0:0:0:0:
244,287,117412,2,2,P|252:336|268:368,1,80,8|0,0:0|0:0,0:0:0:0:
282,215,117973,1,4,0:3:0:0:
169,282,118253,1,0,0:0:0:0:
200,130,118533,1,8,0:0:0:0:
216,224,118814,1,0,0:0:0:0:
115,115,119094,6,2,P|153:57|267:68,1,160,4|8,0:0|0:0,0:0:0:0:
346,126,119935,1,0,0:0:0:0:
469,96,120216,2,0,P|469:136|457:176,1,80,4|2,0:3|3:1,0:0:0:0:
405,44,120776,1,8,0:0:0:0:
248,62,121057,1,2,3:1:0:0:
351,179,121337,6,2,L|322:17,1,160,4|8,0:0|0:0,0:0:0:0:
257,121,122178,1,0,0:0:0:0:
402,71,122459,1,4,3:0:0:0:
322,21,122739,1,2,3:1:0:0:
462,17,123019,1,8,0:0:0:0:
355,132,123300,1,2,3:1:0:0:
476,262,123580,6,2,P|492:303|408:379,1,160,4|8,0:0|0:0,0:0:0:0:
336,336,124421,1,0,0:0:0:0:
209,348,124702,2,0,L|112:332,1,80,4|0,3:0|3:0,0:0:0:0:
279,296,125262,1,8,0:0:0:0:
207,361,125543,1,2,3:0:0:0:
261,190,125823,6,0,P|223:169|167:169,1,80,4|0,0:0|0:0,0:0:0:0:
70,218,126384,1,8,0:0:0:0:
148,268,126664,1,0,0:0:0:0:
146,119,126945,1,4,3:0:0:0:
197,227,127225,1,0,0:0:0:0:
246,81,127505,1,8,0:0:0:0:
252,194,127786,1,0,0:0:0:0:
141,59,128066,6,0,P|103:45|51:39,1,80,4|0,0:0|0:0,0:0:0:0:
177,122,128627,1,8,0:0:0:0:
240,60,128907,1,0,0:0:0:0:
216,208,129188,2,2,P|224:232|252:284,1,80,4|0,3:0|0:0,0:0:0:0:
436,296,129748,2,2,P|424:259|396:207,1,80,8|0,0:0|0:0,0:0:0:0:
271,111,130309,5,4,0:0:0:0:
269,119,130589,1,2,0:0:0:0:
384,20,130870,1,8,0:0:0:0:
352,112,131150,1,2,0:0:0:0:
232,28,131431,1,4,3:0:0:0:
264,116,131711,1,2,0:0:0:0:
248,240,131991,1,8,0:0:0:0:
340,268,132272,1,2,0:0:0:0:
178,302,132552,6,2,P|204:336|336:368,1,160,4|8,0:0|0:0,0:0:0:0:
401,309,133393,1,0,0:0:0:0:
340,176,133674,2,2,P|307:174|243:186,1,80,4|0,1:0|0:0,0:0:0:0:
418,229,134234,1,8,0:0:0:0:
401,94,134515,1,0,0:0:0:0:
320,268,134795,6,2,P|365:326|457:335,1,160,4|8,0:0|0:0,0:0:0:0:
338,203,135636,1,0,0:0:0:0:
250,351,135916,2,2,P|212:344|168:340,1,80,4|0,3:0|0:0,0:0:0:0:
329,279,136477,2,2,P|368:276|420:280,1,80,8|0,0:0|0:0,0:0:0:0:
242,189,137038,6,2,P|235:152|239:100,1,80,4|0,0:0|0:0,0:0:0:0:
352,18,137599,1,8,0:0:0:0:
384,100,137879,1,2,0:0:0:0:
228,114,138159,2,2,P|186:102|126:98,1,80,4|2,3:0|0:0,0:0:0:0:
285,189,138720,1,8,0:0:0:0:
275,32,139001,1,2,0:0:0:0:
280,36,139281,6,2,P|354:24|442:32,1,160,4|8,0:0|0:0,0:0:0:0:
499,145,140122,1,0,3:0:0:0:
500,140,140262,1,0,3:0:0:0:
501,135,140402,1,4,3:0:0:0:
387,194,140683,1,0,0:3:0:0:
492,287,140963,2,2,P|504:320|512:368,1,80,8|0,0:0|0:0,0:0:0:0:
425,255,141524,5,4,0:0:0:0:
456,136,141804,1,0,0:0:0:0:
492,287,142085,1,8,0:0:0:0:
347,346,142365,1,0,3:0:0:0:
349,341,142505,1,0,3:0:0:0:
350,336,142645,1,4,3:0:0:0:
296,256,142926,1,0,3:0:0:0:
386,152,143206,2,0,P|378:120|374:52,1,80,8|0,0:0|0:0,0:0:0:0:
470,201,143767,6,0,L|464:260,1,40,4|0,0:0|0:0,0:0:0:0:
332,294,144188,1,2,0:0:0:0:
296,320,144328,2,0,L|292:361,1,40,4|0,0:0|0:0,0:0:0:0:
193,249,144748,1,2,0:0:0:0:
104,288,145029,1,2,0:0:0:0:
16,328,145309,1,2,0:0:0:0:
24,288,145449,1,4,0:0:0:0:
124,368,145730,1,2,0:0:0:0:
144,216,146010,5,6,0:0:0:0:
300,248,161711,5,4,0:0:0:0:
340,160,161991,1,0,0:0:0:0:
371,277,162272,5,4,0:0:0:0:
246,203,162552,1,0,0:0:0:0:
251,195,162832,5,4,0:0:0:0:
286,331,163113,1,12,0:0:0:0:
325,133,163393,2,0,P|316:92|316:48,1,80,4|0,0:0|0:0,0:0:0:0:
398,172,163954,5,6,0:0:0:0:
328,236,164234,1,0,0:0:0:0:
210,189,164515,2,0,P|192:148|184:104,1,80
174,264,165075,1,4,3:0:0:0:
274,194,165356,1,2,0:0:0:0:
308,284,165636,2,2,P|296:324|296:364,1,80,8|0,0:0|0:0,0:0:0:0:
372,231,166197,6,2,P|408:224|508:296,1,160,4|8,0:0|0:0,0:0:0:0:
448,368,167038,1,0,0:0:0:0:
272,320,167318,1,4,3:0:0:0:
176,340,167599,1,2,3:1:0:0:
84,368,167879,1,8,0:0:0:0:
160,272,168159,1,2,3:1:0:0:
316,368,168440,6,2,L|348:196,1,160,4|8,0:0|0:0,0:0:0:0:
354,63,169281,1,2,0:0:0:0:
266,129,169561,2,2,P|234:133|174:125,1,80,4|0,0:3|0:0,0:0:0:0:
324,202,170122,1,8,3:0:0:0:
350,59,170402,1,2,0:0:0:0:
512,143,170683,6,2,P|472:138|433:143,1,80,4|0,0:0|0:0,0:0:0:0:
320,212,171244,1,8,0:0:0:0:
352,68,171524,1,2,0:0:0:0:
255,140,171804,1,4,3:0:0:0:
188,32,172085,1,2,0:0:0:0:
163,224,172365,1,8,3:1:0:0:
162,229,172505,1,0,3:0:0:0:
161,234,172645,1,0,3:0:0:0:
292,61,172926,6,2,P|325:111|313:223,1,160,4|8,0:0|0:0,0:0:0:0:
228,284,173767,1,2,0:0:0:0:
216,188,174047,1,4,3:0:0:0:
152,260,174328,1,2,0:0:0:0:
296,236,174608,1,8,0:0:0:0:
236,124,174888,1,2,0:0:0:0:
229,348,175169,6,2,P|284:340|416:356,1,160,4|8,0:0|0:0,0:0:0:0:
488,275,176010,1,2,0:0:0:0:
388,166,176290,2,2,P|380:132|380:84,1,80,4|0,3:0|0:0,0:0:0:0:
318,228,176851,2,2,L|220:215,1,80,8|0,0:0|0:0,0:0:0:0:
388,274,177412,5,4,0:0:0:0:
139,91,177973,1,8,0:0:0:0:
164,210,178253,1,0,0:0:0:0:
267,129,178533,2,2,P|279:97|283:33,1,80,4|0,3:0|0:0,0:0:0:0:
304,218,179094,2,2,P|296:252|296:308,1,80,8|0,0:0|0:0,0:0:0:0:
360,162,179655,5,4,0:0:0:0:
448,252,179935,1,2,3:0:0:0:
489,133,180216,1,8,0:0:0:0:
338,151,180496,1,0,3:0:0:0:
336,147,180636,1,0,3:0:0:0:
334,143,180776,1,4,3:0:0:0:
340,259,181057,1,2,0:0:0:0:
432,107,181337,2,2,P|424:72|420:20,1,80,8|2,0:0|0:3,0:0:0:0:
490,176,181898,6,2,P|464:224|456:332,1,160,4|8,0:0|0:0,0:0:0:0:
348,232,182739,1,0,0:0:0:0:
225,351,183019,2,2,P|200:340|144:336,1,80,4|0,3:0|0:0,0:0:0:0:
256,278,183580,1,8,0:0:0:0:
255,287,183860,1,2,0:3:0:0:
378,354,184141,6,2,P|338:352|300:338,1,80,4|0,0:0|0:0,0:0:0:0:
428,245,184702,2,2,P|397:263|349:275,1,80,8|2,0:0|0:0,0:0:0:0:
184,196,185262,1,4,3:0:0:0:
232,284,185543,1,2,0:0:0:0:
368,176,185823,1,8,0:0:0:0:
354,274,186103,1,2,0:0:0:0:
283,118,186384,6,2,P|290:81|294:37,1,80,4|0,0:0|0:0,0:0:0:0:
237,193,186945,1,8,0:0:0:0:
332,172,187225,1,0,0:0:0:0:
210,101,187505,2,2,P|176:112|121:109,1,80,4|0,3:0|0:0,0:0:0:0:
158,19,188066,2,2,P|192:8|247:11,1,80,8|0,3:0|0:0,0:0:0:0:
283,146,188627,6,2,P|328:136|424:56,1,160,4|8,0:0|0:0,0:0:0:0:
246,69,189468,1,0,3:0:0:0:
245,65,189608,1,0,3:0:0:0:
244,61,189748,1,4,3:0:0:0:
213,170,190029,1,2,0:0:0:0:
89,146,190309,1,8,3:1:0:0:
90,142,190449,1,0,3:0:0:0:
91,138,190589,1,0,3:0:0:0:
124,273,190870,6,2,P|92:284|36:284,1,80,4|0,0:0|0:0,0:0:0:0:
165,206,191431,1,8,0:0:0:0:
204,328,191711,1,2,0:0:0:0:
222,157,191991,1,4,3:0:0:0:
103,151,192272,1,2,0:0:0:0:
205,256,192552,2,0,P|237:245|285:237,1,80,8|2,0:0|0:0,0:0:0:0:
447,169,193113,6,2,P|407:157|331:61,1,160,4|8,0:0|0:0,0:0:0:0:
460,103,193954,1,0,3:0:0:0:
461,99,194094,1,0,3:0:0:0:
462,95,194234,1,4,3:0:0:0:
380,212,194515,1,2,0:0:0:0:
433,325,194795,2,2,P|457:317|517:309,1,80,8|0,0:0|0:0,0:0:0:0:
355,375,195356,6,2,P|300:360|176:360,1,160,4|8,0:0|0:0,0:0:0:0:
73,267,196197,1,2,0:0:0:0:
80,272,196477,2,2,P|131:265|171:265,1,80,4|0,3:0|0:0,0:0:0:0:
292,178,197038,2,2,P|247:180|195:176,1,80,8|0,0:0|0:0,0:0:0:0:
142,59,197599,5,4,0:0:0:0:
195,361,198159,1,8,0:0:0:0:
125,293,198440,1,0,3:0:0:0:
126,290,198580,1,0,3:0:0:0:
127,287,198720,1,4,3:0:0:0:
27,331,199001,1,2,3:0:0:0:
100,212,199281,1,8,0:0:0:0:
183,89,199561,1,2,3:0:0:0:
190,265,199842,6,2,P|198:316|195:357,1,80,4|0,2:0|2:0,1:0:0:0:
234,199,200402,1,8,2:0:0:0:
131,150,200683,1,0,0:0:0:0:
212,96,200963,2,2,P|224:64|228:16,1,80,4|0,3:0|0:0,0:0:0:0:
131,150,201524,1,8,0:0:0:0:
160,264,201804,1,2,0:0:0:0:
288,132,202085,6,2,P|332:124|376:124,1,80,4|0,0:0|0:0,0:0:0:0:
236,180,202645,1,8,0:0:0:0:
303,53,202926,1,0,3:0:0:0:
301,48,203066,1,0,3:0:0:0:
298,42,203206,1,4,3:0:0:0:
380,190,203487,1,2,0:0:0:0:
423,62,203767,2,2,P|451:54|511:50,1,80,10|0,0:0|0:0,0:0:0:0:
332,123,204328,6,2,L|152:108,1,160,6|8,0:0|0:0,0:0:0:0:
257,53,205169,1,2,0:0:0:0:
353,193,205449,2,0,P|320:188|272:188,1,80,4|0,3:0|0:0,0:0:0:0:
176,244,206010,1,8,0:0:0:0:
160,108,206290,1,2,0:0:0:0:
9,185,206571,6,2,P|42:190|90:190,1,80,4|0,0:0|0:0,0:0:0:0:
162,102,207131,1,8,0:0:0:0:
160,96,207412,1,2,3:0:0:0:
176,248,207692,1,4,3:0:0:0:
179,240,207973,1,2,3:0:0:0:
7,179,208253,1,8,0:0:0:0:
11,171,208533,1,2,3:0:0:0:
30,350,208814,5,4,0:0:0:0:
256,192,209094,12,0,211057,0:0:0:0:
