osu file format v14

[General]
AudioFilename: audio.mp3
AudioLeadIn: 0
PreviewTime: 67225
Countdown: 0
SampleSet: Normal
StackLeniency: 0.7
Mode: 0
LetterboxInBreaks: 0
WidescreenStoryboard: 0

[Editor]
Bookmarks: 31623,49567,67651,107885,125829,181904
DistanceSpacing: 0.1
BeatDivisor: 4
GridSize: 4
TimelineZoom: 1

[Metadata]
Title:Using You
TitleUnicode:Using You
Artist:Mars Argo
ArtistUnicode:Mars Argo
Creator:Bakari
Version:Average
Source:
Tags:Corey Mixter Brittany Sheets Liuth Linden Place EP alternative rock dream pop grocerybag indie titanic sinclair
BeatmapID:1174060
BeatmapSetID:531433

[Difficulty]
HPDrainRate:4
CircleSize:4
OverallDifficulty:4
ApproachRate:5
SliderMultiplier:1.3
SliderTickRate:1

[Events]
//Background and Video events
0,0,"6857538-macro-flower.jpg",0,0
Video,0,"Mars Argo best girl.avi"
//Break Periods
2,146210,160511
//Storyboard Layer 0 (Background)
//Storyboard Layer 1 (Fail)
//Storyboard Layer 2 (Pass)
//Storyboard Layer 3 (Foreground)
//Storyboard Sound Samples

[TimingPoints]
13674,560.747663551402,4,2,0,55,1,0
49561,-100,4,3,0,46,0,0
65262,-100,4,2,0,42,0,0
67505,-100,4,1,0,45,0,1
85449,-100,4,2,0,50,0,0
103393,-100,4,2,0,50,0,0
103403,-100,4,2,0,15,0,0
105636,-100,4,3,0,45,0,0
107879,-100,4,1,0,45,0,1
125543,-100,4,2,0,50,0,0
125823,-100,4,1,0,37,0,1
126103,-100,4,1,0,37,0,0
143767,-100,4,3,0,46,0,0
163954,-100,4,1,0,45,0,1
181617,-100,4,1,0,45,0,0
181898,-100,4,1,0,45,0,1
208814,-100,4,1,0,45,0,0
209094,-100,4,2,0,10,0,0

[Colours]
Combo1 : 92,147,148
Combo2 : 155,199,227
Combo3 : 153,181,179

[HitObjects]
76,344,31617,6,0,P|48:312|32:204,1,130,4|2,0:0|0:0,0:0:0:0:
76,164,32459,1,2,3:0:0:0:
140,208,32739,2,0,L|132:296,2,65,0|0|2,3:0|0:0|0:0,0:0:0:0:
288,152,33860,2,0,P|320:180|420:200,1,130,2|2,0:0|0:0,0:0:0:0:
416,280,34702,2,0,P|384:300|292:304,1,130,2|0,3:0|0:0,0:0:0:0:
220,272,35543,1,2,0:0:0:0:
84,352,36103,5,4,0:0:0:0:
4,216,36664,2,0,P|0:184|0:148,1,65,2|2,0:0|0:3,0:0:0:0:
40,84,37225,1,0,3:0:0:0:
148,200,37786,2,0,L|136:280,1,65,2|0,0:0|0:0,0:0:0:0:
168,336,38346,2,0,P|204:324|268:248,2,130,2|2|0,0:0|0:0|3:0,0:0:0:0:
32,256,40029,2,0,P|28:228|28:184,1,65,2|0,0:0|0:0,0:0:0:0:
60,124,40589,5,4,0:0:0:0:
188,216,41150,2,0,L|348:204,2,130,2|0|2,0:0|3:0|0:0,0:0:0:0:
144,64,42832,2,0,L|216:72,1,65,2|0,0:0|0:0,0:0:0:0:
248,140,43393,2,0,L|96:150,2,130,2|0|2,0:0|3:0|0:0,0:0:0:0:
368,40,45075,6,0,P|388:76|476:120,1,130,4|2,0:0|0:0,0:0:0:0:
428,188,45916,1,2,3:0:0:0:
468,256,46197,2,0,P|428:268|388:292,1,65,0|0,3:0|0:0,0:0:0:0:
376,352,46758,1,2,0:0:0:0:
260,248,47318,1,2,0:0:0:0:
112,304,47879,1,2,0:0:0:0:
4,188,48440,2,0,P|4:136|16:104,1,65,0|8,3:0|0:3,0:0:0:0:
52,60,49001,1,2,3:2:0:0:
140,188,49561,6,0,P|128:232|124:320,1,130,4|8,2:0|0:0,0:0:0:0:
188,360,50402,1,0,0:0:0:0:
240,300,50683,2,0,L|236:236,2,65,2|0|8,0:2|0:0|0:0,0:0:0:0:
292,360,51524,1,0,0:0:0:0:
344,300,51804,2,0,P|380:272|472:260,1,130,4|8,0:0|0:0,0:0:0:0:
512,200,52645,2,0,P|508:140|468:64,1,130,0|0,0:0|0:0,0:0:0:0:
408,44,53487,1,8,0:0:0:0:
312,164,54047,6,0,L|168:156,1,130,4|8,0:0|0:0,0:0:0:0:
71,267,55169,2,0,L|119:315,1,65,2|0,0:2|0:0,0:0:0:0:
192,284,55730,2,0,L|92:184,2,130,8|4|8,0:0|0:0|0:0,0:0:0:0:
272,280,57131,1,0,0:0:0:0:
352,276,57412,2,0,L|412:328,2,65,2|0|8,0:2|0:0|0:0,0:0:0:0:
304,128,58533,6,0,P|328:108|368:92,1,65,4|0,0:0|0:0,0:0:0:0:
424,140,59094,2,0,L|312:216,1,130,8|2,0:0|0:2,0:0:0:0:
252,100,60216,2,0,L|368:28,2,130,8|4|8,0:0|0:0|0:0,0:0:0:0:
128,152,61898,2,0,P|116:104|164:36,1,130,2|8,0:2|0:0,0:0:0:0:
216,184,63019,6,0,L|204:324,1,130,4|8,0:0|0:0,0:0:0:0:
264,368,63860,1,0,0:0:0:0:
308,304,64141,2,0,P|300:268|288:232,1,65,2|0,0:2|0:0,0:0:0:0:
344,184,64702,2,0,P|376:184|416:176,1,65,8|0,0:0|0:0,0:0:0:0:
460,116,65262,5,2,0:0:0:0:
96,208,67505,6,2,P|136:252|224:276,1,130,4|8,0:0|0:0,0:0:0:0:
260,220,68346,2,0,L|256:152,2,65,0|4|0,0:0|0:3|0:0,0:0:0:0:
312,280,69188,1,8,0:0:0:0:
456,212,69748,2,2,L|468:56,1,130,4|8,0:0|0:0,0:0:0:0:
420,20,70589,1,0,0:0:0:0:
368,76,70870,2,0,P|380:112|384:152,2,65,6|2|8,0:3|3:1|0:0,0:0:0:0:
296,44,71711,1,2,3:1:0:0:
232,92,71991,5,4,0:0:0:0:
80,44,72552,2,2,P|32:84|8:164,2,130,8|4|8,0:0|0:3|0:0,0:0:0:0:
156,56,73954,1,0,0:0:0:0:
172,132,74234,2,2,P|128:128|100:112,2,65,4|0|8,0:0|0:0|0:0,0:0:0:0:
300,48,75356,2,0,P|344:52|372:68,1,65,4|2,3:0|0:0,0:0:0:0:
392,132,75916,1,8,0:0:0:0:
248,196,76477,6,2,L|224:48,2,130,4|8|4,0:0|0:0|3:0,0:0:0:0:
92,212,78159,2,0,P|94:181|110:150,1,65,8|0,0:0|0:0,0:0:0:0:
168,200,78720,2,2,P|148:263|75:287,1,130,4|8,0:0|0:0,0:0:0:0:
24,256,79561,2,0,P|13:227|16:184,2,65,0|4|2,0:0|0:3|0:0,0:0:0:0:
92,212,80402,1,8,0:0:0:0:
71,135,80683,1,2,0:0:0:0:
56,60,80963,6,2,L|188:68,1,130,4|8,0:0|0:0,0:0:0:0:
304,172,82085,2,2,P|276:196|244:208,1,65,4|0,0:3|0:0,0:0:0:0:
180,168,82645,1,8,0:0:0:0:
32,232,83206,2,0,L|52:388,1,130,4|8,0:0|0:0,0:0:0:0:
124,376,84047,2,0,L|128:308,2,65,0|4|2,3:0|3:0|0:0,0:0:0:0:
200,352,84888,2,0,P|248:352|288:368,1,65,8|2,0:0|0:3,0:0:0:0:
332,316,85449,6,0,P|332:276|288:180,2,130,6|2|2,0:0|3:0|0:0,0:0:0:0:
176,292,87131,2,0,P|196:264|224:240,1,65,0|0,3:0|0:0,0:0:0:0:
204,168,87692,2,0,P|176:140|144:52,1,130,2|2,0:0|3:0,0:0:0:0:
212,16,88533,1,0,3:2:0:0:
280,56,88814,2,0,P|268:92|252:120,2,65,2|0|0,0:0|0:0|3:0,0:0:0:0:
364,192,89935,6,0,P|416:212|508:204,2,130,6|2|2,0:0|3:3|0:0,0:0:0:0:
320,128,91337,1,0,0:0:0:0:
248,160,91617,2,0,P|244:188|244:240,1,65,0|0,0:3|0:0,0:0:0:0:
296,284,92178,1,2,0:0:0:0:
320,128,92739,1,2,3:0:0:0:
208,236,93300,1,2,0:0:0:0:
52,204,93860,1,0,3:0:0:0:
104,352,94421,6,0,P|76:364|28:368,1,65,6|0,0:0|0:0,0:0:0:0:
52,292,94982,2,0,P|96:272|178:321,2,130,2|2|2,3:0|0:0|0:2,0:0:0:0:
0,148,96664,2,0,L|8:76,1,65,2|0,0:0|0:0,0:0:0:0:
76,44,97225,2,0,L|92:188,2,130,2|2|0,0:3|0:0|0:3,0:0:0:0:
232,12,98907,6,0,L|224:100,1,65,6|0,0:0|0:0,0:0:0:0:
288,128,99468,2,0,L|304:268,1,130,2|2,0:3|0:0,0:0:0:0:
196,372,100589,1,2,0:3:0:0:
144,224,101150,2,0,P|192:244|240:316,2,130,2|2|2,0:0|3:0|0:0,0:0:0:0:
12,140,102832,2,0,P|6:104|10:64,1,65,10|2,0:3|0:3,0:0:0:0:
76,40,103393,6,0,P|110:79|280:68,1,238.333333333333,6|2,0:0|0:0,0:0:0:0:
399,90,105636,5,2,0:0:0:0:
351,154,105916,2,0,P|323:170|263:186,2,65,4|6|2,0:0|0:0|0:0,0:0:0:0:
492,220,107038,2,0,P|504:260|508:308,2,65,2|6|0,0:0|0:0|0:0,0:0:0:0:
428,172,107879,5,6,0:0:0:0:
316,284,108440,2,2,P|288:280|164:288,1,130,8|4,0:0|3:0,0:0:0:0:
128,336,109281,1,0,0:0:0:0:
108,260,109561,2,0,P|112:232|112:192,1,65,8|0,0:0|0:0,0:0:0:0:
48,148,110122,2,2,P|32:96|24:8,1,130,4|8,0:0|0:0,0:0:0:0:
180,32,111244,2,0,P|180:56|168:112,1,65,4|2,3:0|3:1,0:0:0:0:
128,160,111804,1,8,0:0:0:0:
208,168,112085,1,2,3:1:0:0:
264,224,112365,5,4,0:0:0:0:
128,304,112926,2,0,P|92:292|40:292,1,65,8|0,0:0|0:0,0:0:0:0:
16,228,113487,2,0,P|52:204|148:188,1,130,4|8,3:0|0:0,0:0:0:0:
188,248,114328,1,0,0:0:0:0:
212,172,114608,2,2,P|200:124|196:32,1,130,4|8,0:0|0:0,0:0:0:0:
348,16,115730,1,4,3:3:0:0:
316,88,116010,1,2,3:1:0:0:
376,140,116290,2,0,P|388:168|396:220,1,65,8|0,3:1|3:1,0:0:0:0:
352,268,116851,5,4,0:0:0:0:
236,164,117412,2,2,L|244:28,2,130,8|4|8,0:0|0:3|0:0,0:0:0:0:
84,204,119094,2,2,P|120:240|152:328,1,130,4|8,0:0|0:0,0:0:0:0:
80,352,119935,1,0,0:0:0:0:
12,316,120216,2,0,P|16:284|28:232,2,65,4|2|8,0:3|3:1|0:0,0:0:0:0:
152,240,121337,6,2,P|164:192|164:100,2,130,4|8|4,0:0|0:0|3:0,0:0:0:0:
96,296,122739,1,2,3:1:0:0:
160,344,123019,2,0,L|232:328,1,65,8|2,0:0|3:1,0:0:0:0:
292,372,123580,1,4,0:0:0:0:
300,216,124141,1,8,0:0:0:0:
444,148,124702,1,4,3:0:0:0:
432,304,125262,1,8,0:0:0:0:
376,248,125543,1,2,3:0:0:0:
316,296,125823,6,0,P|276:304|180:292,1,130,4|8,0:0|0:0,0:0:0:0:
160,220,126664,2,0,L|168:84,2,130,0|0|0,0:0|0:0|0:0,0:0:0:0:
80,220,128066,2,0,L|84:296,1,65,4|0,0:0|0:0,0:0:0:0:
88,364,128627,1,8,0:0:0:0:
236,316,129188,2,2,P|188:236|144:216,1,130,4|8,3:0|0:0,0:0:0:0:
80,220,130029,1,0,0:0:0:0:
24,164,130309,6,0,P|16:120|12:88,1,65,4|2,0:0|0:0,0:0:0:0:
60,36,130870,1,8,0:0:0:0:
216,56,131431,1,4,3:0:0:0:
372,84,131991,1,8,0:0:0:0:
248,180,132552,1,4,0:0:0:0:
104,248,133113,1,8,0:0:0:0:
180,272,133393,1,0,0:0:0:0:
256,300,133674,1,4,1:0:0:0:
168,168,134234,1,8,0:0:0:0:
20,220,134795,6,2,P|16:256|20:292,1,65,4|0,0:0|0:0,0:0:0:0:
88,324,135356,2,2,L|104:184,2,130,8|4|8,0:0|3:0|0:0,0:0:0:0:
232,384,137038,2,2,P|244:352|248:308,1,65,4|0,0:0|0:0,0:0:0:0:
212,252,137599,1,8,0:0:0:0:
100,364,138159,2,2,L|88:216,1,130,4|8,3:0|0:0,0:0:0:0:
56,164,139001,1,2,0:0:0:0:
88,92,139281,6,2,P|140:80|212:120,1,130,4|8,0:0|0:0,0:0:0:0:
184,268,140402,2,0,L|176:356,1,65,4|0,3:0|0:3,0:0:0:0:
108,368,140963,1,8,0:0:0:0:
40,328,141244,1,0,0:0:0:0:
84,264,141524,2,0,P|92:208|84:128,1,130,4|8,0:0|0:0,0:0:0:0:
204,32,142645,2,0,P|196:88|204:168,1,130,4|8,3:0|0:0,0:0:0:0:
264,212,143487,1,0,0:0:0:0:
276,136,143767,5,4,0:0:0:0:
256,192,144047,12,6,146010,0:0:0:0:
220,320,161711,5,4,0:0:0:0:
256,248,161991,2,0,L|248:176,2,65,0|4|0,0:0|0:0|0:0,0:0:0:0:
404,300,163113,2,0,L|424:212,2,65,12|4|0,0:0|0:0|0:0,0:0:0:0:
332,328,163954,6,0,L|324:172,1,130,6|0,0:0|0:0,0:0:0:0:
168,196,165075,2,2,L|176:352,1,130,4|8,3:0|0:0,0:0:0:0:
236,376,165916,1,0,0:0:0:0:
252,300,166197,2,2,P|256:264|260:156,1,130,4|8,0:0|0:0,0:0:0:0:
204,116,167038,1,0,0:0:0:0:
264,64,167318,2,0,L|332:56,2,65,4|2|8,3:0|3:1|0:0,0:0:0:0:
188,40,168159,1,2,3:1:0:0:
112,20,168440,6,2,P|96:80|96:176,1,130,4|8,0:0|0:0,0:0:0:0:
152,200,169281,1,2,0:0:0:0:
80,228,169561,2,2,L|12:224,2,65,4|0|8,0:3|0:0|3:0,0:0:0:0:
208,320,170683,2,2,P|248:296|340:276,1,130,4|8,0:0|0:0,0:0:0:0:
396,312,171524,1,2,0:0:0:0:
392,232,171804,2,0,P|388:196|388:168,1,65,4|2,3:0|0:0,0:0:0:0:
424,96,172365,1,8,3:1:0:0:
292,12,172926,5,4,0:0:0:0:
144,64,173487,2,0,L|4:52,2,130,8|4|8,0:0|3:0|0:0,0:0:0:0:
196,124,174888,1,2,0:0:0:0:
120,140,175169,2,2,P|96:196|88:272,1,130,4|8,0:0|0:0,0:0:0:0:
228,332,176290,2,2,P|252:276|260:200,1,130,4|8,3:0|0:0,0:0:0:0:
208,148,177131,1,0,0:0:0:0:
264,92,177412,6,0,L|396:84,1,130,4|8,0:0|0:0,0:0:0:0:
488,212,178533,2,2,P|452:228|420:236,1,65,4|0,3:0|0:0,0:0:0:0:
356,200,179094,1,8,0:0:0:0:
232,296,179655,2,0,L|160:288,1,65,4|2,0:0|3:0,0:0:0:0:
136,216,180216,2,2,L|276:208,2,130,8|4|8,0:0|3:0|0:0,0:0:0:0:
68,176,181617,1,2,0:3:0:0:
68,256,181898,6,2,P|76:288|76:336,1,65,4|0,0:0|0:0,0:0:0:0:
144,364,182459,2,2,L|160:224,2,130,8|4|8,0:0|3:0|0:0,0:0:0:0:
220,348,183860,1,2,0:3:0:0:
292,380,184141,2,2,P|332:356|432:352,1,130,4|8,0:0|0:0,0:0:0:0:
404,270,184982,1,2,0:0:0:0:
456,212,185262,2,0,P|428:192|396:152,1,65,4|2,3:0|0:0,0:0:0:0:
388,92,185823,1,8,0:0:0:0:
444,36,186103,1,2,0:0:0:0:
464,112,186384,5,4,0:0:0:0:
340,12,186945,1,8,0:0:0:0:
248,140,187505,2,2,P|208:152|112:144,1,130,4|8,3:0|3:0,0:0:0:0:
56,100,188346,1,0,0:0:0:0:
52,180,188627,2,2,P|60:236|48:312,1,130,4|8,0:0|0:0,0:0:0:0:
196,364,189748,2,0,P|228:348|280:344,1,65,4|2,3:0|0:0,0:0:0:0:
292,272,190309,2,0,P|248:264|208:244,1,65,8|0,3:1|3:0,0:0:0:0:
180,192,190870,5,4,0:0:0:0:
44,112,191431,2,0,L|52:252,1,130,8|4,0:0|3:0,0:0:0:0:
180,332,192552,2,0,P|216:320|244:316,1,65,8|2,0:0|0:0,0:0:0:0:
312,356,193113,1,4,0:0:0:0:
452,288,193674,1,8,0:0:0:0:
376,264,193954,1,0,3:0:0:0:
300,244,194234,2,0,L|292:176,1,65,4|2,3:0|0:0,0:0:0:0:
348,124,194795,1,8,0:0:0:0:
412,268,195356,6,2,P|388:320|308:352,1,130,4|8,0:0|0:0,0:0:0:0:
262,306,196197,1,2,0:0:0:0:
192,340,196477,2,2,L|56:332,1,130,4|8,3:0|0:0,0:0:0:0:
12,184,197599,2,0,L|154:177,1,130,4|8,0:0|0:0,0:0:0:0:
236,304,198720,2,0,P|204:324|164:336,1,65,4|2,3:0|3:0,0:0:0:0:
120,280,199281,1,8,0:0:0:0:
252,192,199842,6,2,L|400:204,2,130,4|8|4,2:0|2:0|3:0,0:0:0:0:
168,60,201524,2,0,P|196:48|228:24,1,65,8|2,0:0|0:0,0:0:0:0:
300,40,202085,2,2,P|328:84|348:172,2,130,4|8|4,0:0|0:0|3:0,0:0:0:0:
236,88,203487,1,2,0:0:0:0:
244,168,203767,1,10,0:0:0:0:
252,248,204047,1,0,0:0:0:0:
260,328,204328,5,6,0:0:0:0:
172,200,204888,1,8,0:0:0:0:
308,120,205449,2,0,P|316:100|320:52,1,65,4|0,3:0|0:0,0:0:0:0:
392,24,206010,2,0,P|432:36|464:40,1,65,8|2,0:0|0:0,0:0:0:0:
496,108,206571,2,2,P|500:144|496:248,1,130,4|8,0:0|0:0,0:0:0:0:
352,296,207692,1,4,3:0:0:0:
300,236,207973,1,2,3:0:0:0:
236,280,208253,1,8,0:0:0:0:
172,232,208533,1,2,3:0:0:0:
108,280,208814,5,4,0:0:0:0:
256,192,209094,12,0,211057,0:0:0:0:
