osu file format v14

[General]
AudioFilename: nobody-cares-about-mp3s-get-a-life.mp3
AudioLeadIn: 0
PreviewTime: 130938
Countdown: 0
SampleSet: Drum
StackLeniency: 0.3
Mode: 0
LetterboxInBreaks: 0
WidescreenStoryboard: 0

[Editor]
Bookmarks: 31203,95863,203048
DistanceSpacing: 1.2
BeatDivisor: 4
GridSize: 4
TimelineZoom: 1

[Metadata]
Title:Beauty is Empty
TitleUnicode:Beauty is Empty
Artist:Mars Argo
ArtistUnicode:Mars Argo
Creator:riffy
Version:Average
Source:
Tags:AnimeStyle english alternative rock dream pop grocerybag indie linden place
BeatmapID:1319431
BeatmapSetID:625924

[Difficulty]
HPDrainRate:4
CircleSize:4.5
OverallDifficulty:5
ApproachRate:4.5
SliderMultiplier:1.3
SliderTickRate:1

[Events]
//Background and Video events
0,0,"ars margo.jpeg",0,0
//Break Periods
2,86721,93416
//Storyboard Layer 0 (Background)
//Storyboard Layer 1 (Fail)
//Storyboard Layer 2 (Pass)
//Storyboard Layer 3 (Foreground)
//Storyboard Layer 4 (Overlay)
//Storyboard Sound Samples

[TimingPoints]
308,582.52427184466,4,3,0,50,1,0
2638,582.52427184466,4,3,0,60,1,0
11375,-100,4,3,0,50,0,0
11958,-100,4,3,0,80,0,0
30599,-100,4,3,0,90,0,0
86521,-100,4,3,0,60,0,0
95841,-100,4,3,0,90,0,0
133123,-83.3333333333333,4,3,0,90,0,1
196036,-100,4,3,0,60,0,0
203026,-100,4,3,0,100,0,0

[Colours]
Combo1 : 177,224,202
Combo2 : 67,115,135
Combo3 : 166,130,106

[HitObjects]
44,192,308,5,6,3:3:0:0:
120,72,890,1,2,3:3:0:0:
232,160,1473,1,2,3:3:0:0:
312,40,2055,1,2,3:3:0:0:
440,104,2638,6,0,P|456:136|460:248,1,130,4|2,0:3|0:3,0:3:0:0:
424,288,3511,1,0,0:3:0:0:
392,224,3803,1,4,0:3:0:0:
284,316,4385,1,2,0:3:0:0:
180,220,4968,6,0,L|28:232,1,130,4|2,0:3|0:3,0:0:0:0:
0,180,5841,1,0,0:3:0:0:
68,156,6133,1,4,0:3:0:0:
36,296,6715,1,2,0:3:0:0:
164,360,7298,6,0,P|216:344|304:344,1,130,4|2,0:3|0:3,0:0:0:0:
360,368,8171,1,0,0:3:0:0:
348,296,8463,1,4,0:3:0:0:
480,352,9045,1,2,0:3:0:0:
448,212,9628,6,0,P|468:160|468:64,1,130,4|2,0:3|0:3,0:0:0:0:
436,24,10502,1,0,0:3:0:0:
376,60,10793,2,0,P|344:68|304:68,1,65,4|0,3:3|3:3,0:0:0:0:
248,36,11375,2,0,P|216:28|184:27,1,65,2|2,2:2|2:2,0:0:0:0:
116,52,11958,5,4,0:3:0:0:
208,164,12540,2,0,P|212:200|204:236,1,65,10|0,1:3|0:3,0:0:0:0:
160,280,13123,1,4,0:3:0:0:
80,160,13705,1,10,1:3:0:0:
196,76,14288,6,0,P|252:88|328:76,1,130,4|10,0:3|1:3,0:0:0:0:
368,20,15162,1,0,0:3:0:0:
412,76,15453,2,0,L|404:156,1,65,8|0,0:3|0:3,0:0:0:0:
444,204,16036,1,6,1:3:0:0:
344,308,16618,5,4,0:3:0:0:
224,232,17201,2,0,L|152:236,1,65,10|0,1:3|0:3,0:0:0:0:
96,200,17783,1,4,0:3:0:0:
188,308,18366,1,10,1:3:0:0:
292,212,18948,6,0,P|272:164|264:80,1,130,4|10,0:3|1:3,0:0:0:0:
304,28,19822,1,0,0:3:0:0:
344,88,20113,2,0,P|348:120|340:160,1,65,4|0,0:3|0:3,0:0:0:0:
404,188,20696,2,0,P|417:166|454:134,1,65,10|0,1:3|0:3,0:0:0:0:
512,112,21278,5,4,0:3:0:0:
504,256,21861,2,0,L|512:324,1,65,10|0,1:3|0:3,0:0:0:0:
460,372,22443,1,4,0:3:0:0:
340,296,23026,1,10,1:3:0:0:
208,356,23608,6,0,P|164:368|72:348,1,130,4|10,0:3|1:3,0:0:0:0:
36,300,24482,1,0,0:3:0:0:
108,288,24773,2,0,L|180:296,1,65,8|0,0:3|0:3,0:0:0:0:
228,248,25356,1,6,1:3:0:0:
132,140,25938,5,4,0:3:0:0:
236,44,26521,2,0,P|272:36|320:36,1,65,10|0,1:3|0:3,0:0:0:0:
368,56,27104,1,4,0:3:0:0:
260,148,27686,1,10,1:3:0:0:
152,52,28269,6,0,L|4:36,1,130,4|10,0:3|1:3,0:0:0:0:
40,108,29142,1,0,0:3:0:0:
4,168,29434,2,0,P|0:204|4:240,1,65,4|0,0:3|0:3,0:0:0:0:
64,264,30016,2,0,P|68:300|64:336,1,65,10|0,1:3|0:3,0:0:0:0:
8,372,30599,5,4,0:3:0:0:
152,372,31181,2,0,L|224:368,1,65,10|0,1:3|0:3,0:0:0:0:
264,312,31764,2,0,P|228:300|168:200,1,130,4|10,0:3|1:3,0:0:0:0:
224,96,32929,5,4,0:3:0:0:
344,176,33511,1,10,1:3:0:0:
396,128,33803,2,0,L|392:56,2,65,0|8|0,0:3|0:3|0:3,0:0:0:0:
460,156,34676,1,6,1:3:0:0:
352,248,35259,5,4,0:3:0:0:
220,192,35841,2,0,P|184:180|144:176,1,65,10|0,1:3|0:3,0:0:0:0:
112,120,36424,2,0,P|144:88|228:64,1,130,4|10,0:3|1:3,0:0:0:0:
352,132,37589,5,4,0:3:0:0:
332,200,37880,1,0,0:3:0:0:
372,260,38171,1,10,1:3:0:0:
436,232,38463,2,0,P|424:196|420:164,2,65,0|4|0,0:3|0:3|0:3,0:0:0:0:
476,292,39337,2,0,P|464:320|444:356,1,65,10|0,1:3|0:3,0:0:0:0:
380,368,39919,5,4,0:3:0:0:
276,272,40502,1,10,1:3:0:0:
152,344,41084,2,0,P|128:352|64:352,1,65,4|0,0:3|0:3,0:0:0:0:
32,312,41667,1,10,1:3:0:0:
136,212,42249,6,0,L|280:232,1,130,4|10,0:3|1:3,0:0:0:0:
332,208,43123,2,0,L|416:200,2,65,0|8|0,0:3|0:3|0:3,0:0:0:0:
276,160,43997,1,6,1:3:0:0:
292,88,44288,1,0,0:3:0:0:
356,56,44579,5,4,0:3:0:0:
216,28,45162,2,0,P|184:16|148:16,1,65,10|0,1:3|0:3,0:0:0:0:
104,64,45744,2,0,P|124:88|244:104,1,130,4|10,0:3|1:3,0:0:0:0:
276,76,46618,1,0,0:3:0:0:
324,128,46909,6,0,L|312:276,1,130,4|10,0:3|1:3,0:0:0:0:
376,304,47783,1,0,0:3:0:0:
300,328,48074,1,4,0:3:0:0:
236,280,48366,2,0,P|228:252|224:208,2,65,0|10|0,0:3|1:3|0:3,0:0:0:0:
188,340,49239,6,0,P|160:352|100:360,1,65,4|0,0:3|0:0,0:3:0:0:
60,320,49822,1,10,1:3:0:0:
96,252,50113,1,0,0:3:0:0:
80,176,50404,1,4,0:3:0:0:
204,80,50987,2,0,P|212:112|212:148,1,65,10|0,1:3|0:3,0:0:0:0:
272,196,51570,6,0,P|328:164|400:164,1,130,4|10,0:3|1:3,0:0:0:0:
448,216,52443,2,0,P|444:248|432:288,2,65,0|8|0,0:3|0:3|0:3,0:0:0:0:
460,140,53317,2,0,P|464:108|476:68,1,65,6|0,1:3|0:3,0:0:0:0:
512,8,53900,5,4,0:3:0:0:
376,88,54482,2,0,P|342:77|312:60,1,65,10|0,1:3|0:3,0:0:0:0:
268,0,55065,1,4,0:3:0:0:
316,152,55647,1,10,1:3:0:0:
248,292,56230,6,0,P|216:304|104:300,1,130,4|10,0:3|1:3,0:0:0:0:
80,236,57104,2,0,L|224:220,1,130,0|0,0:3|0:3,0:0:0:0:
244,152,57977,1,10,1:3:0:0:
360,260,58560,5,4,0:3:0:0:
484,168,59142,2,0,P|492:136|484:92,1,65,10|0,1:3|0:3,0:0:0:0:
424,60,59725,2,0,L|408:208,1,130,4|10,0:3|1:3,0:0:0:0:
456,252,60599,1,0,0:3:0:0:
400,308,60890,6,0,P|344:304|292:372,1,130,4|10,0:3|1:3,0:0:0:0:
216,353,61764,2,0,P|175:306|112:308,1,130,0|0,0:3|0:3,0:0:0:0:
64,368,62637,1,6,1:3:0:0:
36,296,62929,1,0,0:3:0:0:
4,224,63220,5,4,0:3:0:0:
152,176,63803,2,0,P|168:144|176:108,1,65,10|0,1:3|0:3,0:0:0:0:
136,48,64385,1,4,0:3:0:0:
88,108,64676,1,0,0:3:0:0:
84,188,64968,1,10,1:3:0:0:
120,256,65259,1,0,0:3:0:0:
180,304,65550,5,4,0:3:0:0:
296,200,66133,2,0,P|304:172|308:124,1,65,8|0,1:3|0:3,0:0:0:0:
244,92,66715,2,0,L|216:240,1,130,4|10,3:2|1:3,0:0:0:0:
275,275,67589,1,0,0:3:0:0:
343,237,67880,6,0,L|371:89,1,130,4|10,0:3|1:3,0:3:0:0:
436,72,68754,1,0,0:3:0:0:
508,104,69045,2,0,L|480:252,1,130,4|10,0:3|1:3,0:0:0:0:
364,332,70210,5,4,0:3:0:0:
292,300,70502,1,0,0:3:0:0:
216,312,70793,1,10,1:3:0:0:
152,360,71084,1,0,0:3:0:0:
140,284,71375,2,0,P|112:256|16:256,1,130,8|6,0:3|1:3,0:0:0:0:
0,100,72540,6,0,P|28:128|124:128,1,130,4|10,0:3|1:3,0:0:0:0:
160,72,73414,1,0,0:3:0:0:
220,120,73705,2,0,L|212:192,1,65,4|0,0:3|0:3,0:0:0:0:
264,244,74288,1,10,1:3:0:0:
364,124,74871,5,4,0:3:0:0:
432,88,75162,1,0,0:3:0:0:
496,132,75453,1,10,1:3:0:0:
504,208,75744,1,0,0:3:0:0:
448,264,76036,2,0,P|416:264|344:196,1,130,4|10,0:3|1:3,0:0:0:0:
228,308,77201,6,0,P|260:308|332:376,1,130,4|10,0:3|1:3,0:0:0:0:
392,324,78074,1,0,0:3:0:0:
468,340,78366,1,4,0:3:0:0:
364,224,78948,1,10,1:3:0:0:
256,336,79531,5,4,0:3:0:0:
100,356,80113,2,0,P|80:320|72:292,1,65,10|0,1:3|0:3,0:0:0:0:
104,228,80696,2,0,P|144:216|208:152,1,130,8|6,0:3|1:3,0:0:0:0:
192,80,81570,1,0,0:3:0:0:
132,132,81861,5,4,0:3:0:0:
244,244,82443,2,0,P|280:228|324:220,1,65,10|0,1:3|0:3,0:0:0:0:
356,280,83026,2,0,P|304:312|220:320,1,130,4|10,0:3|1:3,0:0:0:0:
172,276,83900,1,0,0:3:0:0:
120,332,84191,6,0,P|88:320|44:316,1,65,4|0,0:3|0:3,0:0:0:0:
12,252,84773,2,0,P|45:246|85:227,1,65,10|0,1:3|0:3,0:0:0:0:
132,180,85356,2,0,P|100:168|56:164,1,65,8|0,0:3|0:3,0:0:0:0:
24,100,85938,2,0,P|57:94|97:75,1,65,6|0,1:3|0:3,0:0:0:0:
120,12,86521,5,4,3:3:0:0:
8,184,94676,5,12,1:3:0:0:
68,136,94968,2,0,L|60:64,2,65,0|2|0,3:3|3:3|3:3,0:0:0:0:
124,192,95841,5,4,0:3:0:0:
188,148,96133,1,0,0:0:0:0:
264,128,96424,2,0,P|296:140|328:168,1,65,10|0,1:3|0:3,0:0:0:0:
344,232,97006,1,4,0:3:0:0:
400,84,97589,1,10,1:3:0:0:
500,204,98171,6,0,P|484:240|472:352,1,130,4|10,0:3|1:3,0:0:0:0:
400,364,99045,2,0,P|392:336|368:296,1,65,0|8,0:3|0:3,0:0:0:0:
296,292,99628,2,0,P|268:312|176:340,1,130,0|0,0:3|0:3,0:0:0:0:
108,300,100502,5,4,0:3:0:0:
216,188,101084,1,10,1:3:0:0:
68,136,101667,2,0,P|56:108|48:68,1,65,4|0,0:3|0:3,0:0:0:0:
100,16,102249,1,10,1:3:0:0:
164,160,102832,6,0,P|140:216|136:296,1,130,4|10,0:3|1:3,0:0:0:0:
184,344,103705,1,0,0:3:0:0:
256,316,103997,1,4,0:3:0:0:
316,364,104288,1,0,0:3:0:0:
384,324,104579,1,10,1:3:0:0:
452,364,104871,1,0,0:3:0:0:
508,308,105162,5,4,0:3:0:0:
388,208,105744,1,10,1:3:0:0:
508,108,106327,2,0,P|512:144|508:180,1,65,4|0,0:3|0:3,0:0:0:0:
464,236,106909,1,10,1:3:0:0:
332,152,107492,6,0,P|292:136|196:132,1,130,4|10,0:3|1:3,0:0:0:0:
148,184,108366,1,0,0:3:0:0:
88,132,108657,2,0,P|76:100|72:64,2,65,8|0|6,0:3|0:3|1:3,0:0:0:0:
40,192,109531,1,0,0:3:0:0:
100,244,109822,6,0,P|120:296|120:376,1,130,4|10,0:3|1:3,0:0:0:0:
196,340,110696,1,0,0:3:0:0:
264,380,110987,2,0,P|272:348|292:308,1,65,4|0,0:3|0:3,0:0:0:0:
344,268,111570,1,10,1:3:0:0:
492,312,112152,6,0,P|500:344|504:384,1,65,4|0,0:3|0:3,0:0:0:0:
428,364,112735,2,0,L|408:224,1,130,10|4,1:3|0:3,0:0:0:0:
452,172,113608,1,0,0:3:0:0:
500,236,113900,2,0,P|496:272|488:304,1,65,10|0,1:3|0:3,0:0:0:0:
412,312,114482,6,0,P|344:276|276:272,1,130,4|10,0:3|1:3,0:3:0:0:
236,328,115356,1,0,0:3:0:0:
168,368,115647,2,0,P|104:358|48:326,1,130,4|10,0:3|1:3,0:0:0:0:
36,248,116521,1,0,0:3:0:0:
84,184,116812,6,0,L|68:36,1,130,4|10,0:3|1:3,0:0:0:0:
140,20,117686,1,0,0:3:0:0:
184,84,117977,2,0,P|172:112|140:152,1,65,8|0,0:3|0:3,0:0:0:0:
77,120,118560,1,6,1:3:0:0:
20,172,118851,1,0,0:3:0:0:
0,248,119142,6,0,P|8:296|76:368,1,130,4|10,0:3|1:3,0:0:0:0:
204,308,120307,1,4,0:3:0:0:
264,360,120599,1,0,0:3:0:0:
336,332,120890,2,0,P|380:324|416:324,1,65,10|0,1:3|0:3,0:0:0:0:
468,364,121472,5,4,0:3:0:0:
504,296,121764,1,0,0:3:0:0:
460,232,122055,1,10,1:3:0:0:
504,168,122346,1,0,0:3:0:0:
452,108,122637,2,0,P|412:116|316:96,1,130,4|10,0:3|1:3,0:0:0:0:
288,32,123511,1,0,0:3:0:0:
216,60,123803,6,0,P|200:92|200:192,1,130,4|10,0:3|1:3,0:0:0:0:
256,236,124676,2,0,L|400:224,1,130,0|0,0:3|0:3,0:0:0:0:
440,284,125550,1,10,1:3:0:0:
488,136,126133,5,4,0:3:0:0:
360,44,126715,2,0,P|332:48|284:48,1,65,10|0,1:3|0:3,0:0:0:0:
216,40,127298,2,0,L|80:28,1,130,8|6,0:3|1:3,0:0:0:0:
20,68,128171,1,0,0:3:0:0:
68,128,128463,6,0,P|80:168|88:208,1,65,4|0,0:3|0:3,0:0:0:0:
80,268,129045,1,10,1:3:0:0:
144,312,129337,2,0,L|296:296,1,130,0|0,0:3|0:3,0:0:0:0:
336,252,130210,1,10,1:3:0:0:
440,368,130793,5,4,0:3:0:0:
476,300,131084,1,0,0:3:0:0:
436,232,131375,1,10,1:3:0:0:
476,164,131667,1,0,1:3:0:0:
412,120,131958,2,0,P|372:104|292:20,1,130,4|4,1:3|1:2,0:0:0:0:
244,92,132832,1,0,0:3:0:0:
187,149,133123,6,2,P|131:93|60:59,1,155.999995239258,4|8,1:2|1:2,0:3:0:0:
4,136,133997,1,0,0:3:0:0:
24,228,134288,2,2,P|79:283|150:317,1,155.999995239258,4|8,0:3|1:2,0:0:0:0:
316,236,135453,5,4,0:3:0:0:
384,300,135744,2,0,L|392:384,2,77.999997619629,0|8|0,0:3|1:2|0:3,0:0:0:0:
476,292,136618,2,0,P|480:224|516:128,1,155.999995239258,8|8,0:3|1:2,0:0:0:0:
504,48,137492,1,0,0:3:0:0:
432,108,137783,6,2,B|416:160|352:128|352:128|288:224|256:68|256:68|224:224|160:128|160:128|96:160|80:108,1,545.999983337403,4|0,1:2|0:3,0:0:0:0:
16,176,140113,5,4,0:3:0:0:
56,260,140404,2,0,P|40:296|-8:344,2,77.999997619629,0|8|0,0:3|1:2|0:3,0:0:0:0:
120,192,141278,2,0,P|148:248|176:274,1,77.999997619629,8|4,0:3|0:3,0:0:0:0:
252,276,141861,1,8,1:2:0:0:
336,236,142152,1,4,0:3:0:0:
360,144,142443,6,2,P|348:104|228:28,1,155.999995239258,4|8,1:2|1:2,0:0:0:0:
172,48,143317,2,2,P|143:78|137:220,1,155.999995239258,0|0,0:3|0:3,0:0:0:0:
180,264,144191,1,8,1:2:0:0:
344,176,144773,1,4,0:3:0:0:
408,352,145356,6,0,P|368:356|324:348,1,77.999997619629,8|0,1:2|0:3,0:0:0:0:
260,292,145938,1,8,0:3:0:0:
264,200,146230,1,0,0:3:0:0:
212,124,146521,1,8,1:2:0:0:
120,128,146812,1,0,0:3:0:0:
56,196,147104,6,2,P|56:228|124:340,1,155.999995239258,4|8,1:2|1:2,0:0:0:0:
208,312,147977,2,2,P|244:300|360:316,1,155.999995239258,0|0,0:3|0:3,0:0:0:0:
428,376,148851,1,8,1:2:0:0:
512,212,149434,5,4,0:3:0:0:
436,160,149725,1,0,0:3:0:0:
408,72,150016,2,0,P|412:32|432:-4,1,77.999997619629,8|0,1:2|0:3,0:0:0:0:
501,56,150599,2,2,L|513:240,1,155.999995239258,4|12,3:3|1:2,0:0:0:0:
420,240,151472,1,4,0:3:0:0:
336,276,151764,6,2,L|324:92,1,155.999995239258,4|8,1:2|1:2,0:3:0:0:
236,100,152637,1,0,0:3:0:0:
144,80,152929,2,2,L|156:264,1,155.999995239258,4|8,0:3|1:2,0:0:0:0:
96,308,153803,1,0,0:3:0:0:
180,348,154094,6,0,P|216:316|268:304,1,77.999997619629,4|0,0:3|0:3,0:0:0:0:
332,340,154676,1,8,1:2:0:0:
424,360,154968,1,0,0:3:0:0:
496,304,155259,1,8,0:3:0:0:
488,212,155550,1,0,0:3:0:0:
424,144,155841,2,0,P|400:108|384:68,1,77.999997619629,12|0,1:2|0:3,0:0:0:0:
300,44,156424,6,2,P|288:88|216:172,1,155.999995239258,4|8,1:2|1:2,0:0:0:0:
128,144,157298,2,2,L|144:312,1,155.999995239258,0|0,0:3|0:3,0:0:0:0:
56,328,158171,2,0,L|60:244,1,77.999997619629,8|0,1:2|0:3,0:0:0:0:
16,168,158754,5,4,0:3:0:0:
188,92,159337,1,8,1:2:0:0:
376,100,159919,1,8,0:3:0:0:
504,236,160502,1,12,1:2:0:0:
364,360,161084,6,2,P|356:312|384:208,1,155.999995239258,4|8,1:2|1:2,0:0:0:0:
464,164,161958,1,0,0:3:0:0:
384,116,162249,2,2,L|228:88,1,155.999995239258,4|8,0:3|1:2,0:0:0:0:
152,36,163123,1,0,0:3:0:0:
64,72,163414,5,4,0:3:0:0:
28,256,163997,1,8,1:2:0:0:
180,368,164579,1,8,0:3:0:0:
368,360,165162,1,12,1:2:0:0:
504,232,165744,6,2,P|508:188|480:60,1,155.999995239258,4|8,1:2|1:2,0:0:0:0:
396,84,166618,2,2,L|372:260,1,155.999995239258,0|0,0:3|0:3,0:0:0:0:
280,240,167492,2,0,P|264:204|248:144,1,77.999997619629,8|0,1:2|0:3,0:0:0:0:
260,72,168074,5,4,0:3:0:0:
340,20,168366,1,8,1:1:0:0:
432,36,168657,1,8,1:1:0:0:
484,112,168948,1,0,0:3:0:0:
444,196,169239,1,4,3:3:0:0:
364,148,169531,1,8,1:1:0:0:
284,196,169822,1,8,1:1:0:0:
256,284,170113,1,8,0:3:0:0:
304,364,170404,5,4,1:2:0:0:
160,244,170987,1,8,1:2:0:0:
300,116,171570,2,0,P|316:156|320:196,1,77.999997619629,4|4,0:3|0:3,0:0:0:0:
292,280,172152,1,8,1:2:0:0:
228,212,172443,1,0,0:3:0:0:
320,190,172735,6,2,L|488:206,1,155.999995239258,4|8,0:3|1:2,0:0:0:0:
508,292,173608,1,0,0:3:0:0:
452,368,173900,1,4,0:3:0:0:
360,372,174191,1,4,0:3:0:0:
296,304,174482,2,0,P|264:280|216:264,1,77.999997619629,12|0,1:2|0:3,0:0:0:0:
136,288,175065,5,4,1:2:0:0:
108,104,175647,1,8,1:2:0:0:
268,4,176230,1,4,0:3:0:0:
444,68,176812,1,8,1:2:0:0:
460,256,177395,6,2,P|428:304|320:364,1,155.999995239258,4|12,1:2|1:2,0:0:0:0:
252,356,178269,1,0,0:3:0:0:
200,280,178560,1,4,0:3:0:0:
244,200,178851,1,4,0:3:0:0:
260,108,179142,2,0,P|240:76|208:40,1,77.999997619629,12|4,1:2|0:3,0:0:0:0:
120,64,179725,5,4,1:2:0:0:
304,20,180307,1,8,1:2:0:0:
248,200,180890,2,2,L|232:384,1,155.999995239258,4|12,0:3|1:2,0:0:0:0:
140,360,181764,1,0,0:3:0:0:
48,368,182055,6,2,L|64:184,1,155.999995239258,4|8,1:2|1:2,0:0:0:0:
12,132,182929,1,0,0:3:0:0:
84,72,183220,2,0,P|120:88|168:88,1,77.999997619629,4|4,0:3|0:3,0:0:0:0:
232,36,183803,1,12,1:2:0:0:
308,88,184094,1,4,0:3:0:0:
376,24,184385,6,2,P|448:32|508:112,1,155.999995239258,4|8,1:2|1:2,0:0:0:0:
452,168,185259,1,0,0:3:0:0:
492,252,185550,2,0,L|488:340,1,77.999997619629,4|4,0:3|0:3,0:0:0:0:
404,368,186133,1,12,1:2:0:0:
324,324,186424,1,0,0:3:0:0:
236,352,186715,6,2,L|68:368,1,155.999995239258,4|8,1:2|1:3,0:0:0:0:
44,280,187589,2,2,L|208:264,1,155.999995239258,0|4,0:3|0:3,0:0:0:0:
268,200,188463,1,12,1:2:0:0:
100,120,189045,5,4,1:2:0:0:
256,16,189628,1,8,1:2:0:0:
440,48,190210,1,4,0:3:0:0:
508,224,190793,1,12,1:2:0:0:
369,359,191375,6,2,B|300:368|167:312|208:160|293:114|359:115|407:184|412:244|340:256,1,467.999985717774,4|12,1:2|1:2,0:0:0:0:
164,288,193705,6,2,P|188:144|328:64,1,311.999990478516,4|4,1:2|0:3,0:0:0:0:
416,84,195162,1,4,0:3:0:0:
472,156,195453,2,0,P|480:192|480:244,1,77.999997619629,8|0,1:2|0:3,0:0:0:0:
440,300,196036,6,0,P|400:316|300:312,1,130,4|2,0:3|0:3,0:0:0:0:
268,252,196909,1,0,0:0:0:0:
200,292,197201,1,4,0:3:0:0:
68,208,197783,1,2,0:3:0:0:
124,60,198366,5,4,0:3:0:0:
268,120,198948,2,0,P|288:96|312:60,1,65,2|0,0:3|0:0,0:0:0:0:
384,52,199531,2,0,P|424:112|440:180,1,130,4|2,0:3|0:3,0:0:0:0:
404,236,200404,1,0,0:0:0:0:
332,268,200696,5,4,0:3:0:0:
180,232,201278,1,2,0:3:0:0:
136,84,201861,1,4,0:3:0:0:
288,116,202443,1,2,0:3:0:0:
400,8,203026,5,14,1:3:0:0:
