osu file format v14

[General]
AudioFilename: 05. Sugar.mp3
AudioLeadIn: 0
PreviewTime: 103291
Countdown: 0
SampleSet: Normal
StackLeniency: 0.7
Mode: 3
LetterboxInBreaks: 0
SpecialStyle: 0
WidescreenStoryboard: 0

[Editor]
DistanceSpacing: 2
BeatDivisor: 4
GridSize: 16
TimelineZoom: 1.2

[Metadata]
Title:Sugar
TitleUnicode:Sugar
Artist:Maroon 5
ArtistUnicode:Maroon 5
Creator:Jingshenbing
Version:Normal
Source:
Tags:Verniy_Chan V Adam Levine Pop English
BeatmapID:674776
BeatmapSetID:300898

[Difficulty]
HPDrainRate:8
CircleSize:4
OverallDifficulty:8
ApproachRate:5
SliderMultiplier:1.4
SliderTickRate:1

[Events]
//Background and Video events
0,0,"maxresdefault.jpg",0,0
//Break Periods
//Storyboard Layer 0 (Background)
//Storyboard Layer 1 (Fail)
//Storyboard Layer 2 (Pass)
//Storyboard Layer 3 (Foreground)
//Storyboard Layer 4 (Overlay)
//Storyboard Sound Samples

[TimingPoints]
291,500,4,1,1,67,1,0
40291,-100,4,1,1,67,0,1
56291,-100,4,1,1,67,0,0
104291,-100,4,1,1,67,0,1
120291,-100,4,1,1,67,0,0
192291,-100,4,1,1,67,0,1
224291,-100,4,1,1,67,0,0

[HitObjects]
320,192,291,5,2,0:0:0:20:
64,192,291,1,0,0:0:0:20:
448,192,541,1,2,0:0:0:20:
192,192,791,1,2,0:0:0:20:
64,192,2291,1,0,0:0:0:20:
320,192,2291,1,2,0:0:0:20:
448,192,2541,1,2,0:0:0:20:
192,192,2791,1,2,0:0:0:20:
448,192,4291,1,2,0:0:0:20:
192,192,4291,1,0,0:0:0:20:
64,192,4541,1,2,0:0:0:20:
320,192,4791,1,2,0:0:0:20:
192,192,6291,1,2,0:0:0:20:
448,192,6291,1,0,0:0:0:20:
64,192,6541,1,2,0:0:0:20:
320,192,6791,1,2,0:0:0:20:
448,192,8041,128,2,8291:0:0:0:0:
64,192,8291,1,0,0:0:0:0:
192,192,8291,1,0,0:0:0:0:
320,192,8541,1,0,0:0:0:0:
192,192,8791,1,0,0:0:0:0:
448,192,8791,1,8,0:0:0:0:
64,192,9041,1,0,0:0:0:0:
320,192,9041,1,0,0:0:0:0:
192,192,9791,1,0,0:0:0:0:
448,192,9791,1,8,0:0:0:0:
320,192,10041,128,2,10291:0:0:0:0:
64,192,10291,1,0,0:0:0:0:
192,192,10291,1,0,0:0:0:0:
448,192,10541,1,0,0:0:0:0:
320,192,10791,1,0,0:0:0:0:
64,192,10791,1,8,0:0:0:0:
192,192,11041,1,0,0:0:0:0:
448,192,11041,1,0,0:0:0:0:
320,192,11791,1,0,0:0:0:0:
64,192,11791,1,8,0:0:0:0:
448,192,12291,1,0,0:0:0:0:
64,192,12291,1,0,0:0:0:0:
192,192,12541,1,0,0:0:0:0:
64,192,12791,1,0,0:0:0:0:
320,192,12791,1,8,0:0:0:0:
192,192,13041,1,0,0:0:0:0:
448,192,13041,1,0,0:0:0:0:
64,192,13791,1,0,0:0:0:0:
320,192,13791,1,8,0:0:0:0:
192,192,14291,1,0,0:0:0:0:
448,192,14291,1,0,0:0:0:0:
64,192,14541,1,0,0:0:0:0:
320,192,14541,1,0,0:0:0:0:
64,192,14791,1,0,0:0:0:0:
448,192,14791,1,8,0:0:0:0:
192,192,15041,1,0,0:0:0:0:
448,192,15041,1,0,0:0:0:0:
64,192,15791,1,0,0:0:0:0:
448,192,15791,1,8,0:0:0:0:
192,192,16291,1,0,0:0:0:0:
320,192,16291,1,0,0:0:0:0:
64,192,16541,1,0,0:0:0:0:
448,192,16791,1,8,0:0:0:0:
192,192,16791,1,0,0:0:0:0:
64,192,17041,1,0,0:0:0:0:
320,192,17041,1,0,0:0:0:0:
320,192,17791,1,0,0:0:0:0:
448,192,17791,1,8,0:0:0:0:
64,192,18041,128,2,18291:0:0:0:0:
192,192,18291,1,0,0:0:0:0:
448,192,18291,1,0,0:0:0:0:
320,192,18541,1,0,0:0:0:0:
64,192,18791,1,0,0:0:0:0:
192,192,18791,1,8,0:0:0:0:
448,192,19041,1,0,0:0:0:0:
320,192,19041,1,0,0:0:0:0:
64,192,19791,1,0,0:0:0:0:
320,192,19791,1,8,0:0:0:0:
64,192,20291,1,0,0:0:0:0:
448,192,20291,1,0,0:0:0:0:
192,192,20541,1,0,0:0:0:0:
64,192,20791,1,8,0:0:0:0:
320,192,20791,1,0,0:0:0:0:
448,192,21041,1,0,0:0:0:0:
192,192,21041,1,0,0:0:0:0:
192,192,21791,1,8,0:0:0:0:
320,192,21791,1,0,0:0:0:0:
192,192,22291,1,0,0:0:0:0:
64,192,22291,1,0,0:0:0:0:
320,192,22541,1,0,0:0:0:0:
64,192,22541,1,0,0:0:0:0:
448,192,22791,1,0,0:0:0:0:
192,192,22791,1,8,0:0:0:0:
448,192,23041,1,0,0:0:0:0:
320,192,23041,1,0,0:0:0:0:
64,192,23791,1,8,0:0:0:0:
448,192,23791,1,0,0:0:0:0:
320,192,24041,128,2,24291:0:0:0:0:
64,192,24291,1,0,0:0:0:0:
192,192,24291,1,0,0:0:0:0:
320,192,24541,1,0,0:0:0:0:
192,192,24791,1,0,0:0:0:0:
448,192,24791,1,8,0:0:0:0:
64,192,25041,1,0,0:0:0:0:
320,192,25041,1,0,0:0:0:0:
192,192,25791,1,0,0:0:0:0:
448,192,25791,1,8,0:0:0:0:
64,192,26041,128,2,26291:0:0:0:0:
320,192,26291,1,0,0:0:0:0:
448,192,26291,1,0,0:0:0:0:
192,192,26541,1,0,0:0:0:0:
64,192,26791,1,8,0:0:0:0:
320,192,26791,1,0,0:0:0:0:
192,192,27041,1,0,0:0:0:0:
448,192,27041,1,0,0:0:0:0:
64,192,27791,1,8,0:0:0:0:
320,192,27791,1,0,0:0:0:0:
192,192,28291,1,0,0:0:0:0:
448,192,28291,1,0,0:0:0:0:
320,192,28541,1,0,0:0:0:0:
64,192,28791,1,8,0:0:0:0:
448,192,28791,1,0,0:0:0:0:
192,192,29041,1,0,0:0:0:0:
320,192,29041,1,0,0:0:0:0:
64,192,29791,1,0,0:0:0:0:
448,192,29791,1,8,0:0:0:0:
192,192,30291,1,0,0:0:0:0:
320,192,30291,1,0,0:0:0:0:
192,192,30541,1,0,0:0:0:0:
320,192,30541,1,0,0:0:0:0:
64,192,30791,1,0,0:0:0:0:
448,192,30791,1,8,0:0:0:0:
192,192,31041,1,0,0:0:0:0:
320,192,31041,1,0,0:0:0:0:
448,192,31791,1,8,0:0:0:0:
192,192,31791,1,0,0:0:0:0:
64,192,32291,1,0,0:0:0:0:
320,192,32291,1,0,0:0:0:0:
448,192,32541,1,0,0:0:0:0:
64,192,32791,1,0,0:0:0:0:
320,192,32791,1,8,0:0:0:0:
192,192,33041,1,0,0:0:0:0:
448,192,33041,1,0,0:0:0:0:
64,192,33791,1,8,0:0:0:0:
448,192,33791,1,0,0:0:0:0:
320,192,34041,128,2,34291:0:0:0:0:
64,192,34291,1,0,0:0:0:0:
448,192,34291,1,0,0:0:0:0:
192,192,34541,1,0,0:0:0:0:
448,192,34791,1,8,0:0:0:0:
320,192,34791,1,0,0:0:0:0:
192,192,35041,1,0,0:0:0:0:
64,192,35041,1,0,0:0:0:0:
192,192,35791,1,0,0:0:0:0:
320,192,35791,1,8,0:0:0:0:
320,192,36291,1,0,0:0:0:0:
64,192,36291,1,0,0:0:0:0:
64,192,36541,1,0,0:0:0:0:
448,192,36791,1,8,0:0:0:0:
192,192,36791,1,0,0:0:0:0:
320,192,37041,1,0,0:0:0:0:
64,192,37041,1,0,0:0:0:0:
192,192,37791,1,0,0:0:0:0:
448,192,37791,1,8,0:0:0:0:
448,192,38291,1,0,0:0:0:0:
320,192,38291,1,0,0:0:0:0:
192,192,38541,1,0,0:0:0:0:
64,192,38541,1,0,0:0:0:0:
320,192,38791,1,0,0:0:0:0:
448,192,38791,1,8,0:0:0:0:
192,192,39041,1,0,0:0:0:0:
64,192,39041,1,0,0:0:0:0:
448,192,39791,1,8,0:0:0:0:
64,192,39791,1,0,0:0:0:0:
320,192,40041,1,2,0:0:0:0:
192,192,40166,1,2,0:0:0:0:
64,192,40291,1,0,0:0:0:0:
448,192,40291,1,4,0:0:0:0:
192,192,40541,1,0,0:0:0:0:
320,192,40791,1,0,0:0:0:0:
448,192,40791,1,8,0:0:0:0:
64,192,41041,1,0,0:0:0:0:
192,192,41041,1,0,0:0:0:0:
320,192,41291,1,0,0:0:0:0:
192,192,41791,1,0,0:0:0:0:
448,192,41791,1,8,0:0:0:0:
64,192,42041,128,2,42291:0:0:0:0:
320,192,42291,1,0,0:0:0:0:
192,192,42291,1,0,0:0:0:0:
448,192,42541,1,0,0:0:0:0:
64,192,42791,1,8,0:0:0:0:
320,192,42791,1,0,0:0:0:0:
448,192,43041,1,0,0:0:0:0:
192,192,43041,1,0,0:0:0:0:
64,192,43291,1,0,0:0:0:0:
448,192,43791,1,0,0:0:0:0:
192,192,43791,1,8,0:0:0:0:
64,192,44291,1,0,0:0:0:0:
320,192,44291,1,0,0:0:0:0:
64,192,44541,1,0,0:0:0:0:
192,192,44791,1,0,0:0:0:0:
448,192,44791,1,8,0:0:0:0:
320,192,45041,1,0,0:0:0:0:
64,192,45041,1,0,0:0:0:0:
448,192,45291,1,0,0:0:0:0:
320,192,45791,1,8,0:0:0:0:
192,192,45791,1,0,0:0:0:0:
64,192,46291,1,0,0:0:0:0:
320,192,46291,1,0,0:0:0:0:
64,192,46541,1,0,0:0:0:0:
320,192,46541,1,0,0:0:0:0:
192,192,46791,1,0,0:0:0:0:
448,192,46791,1,8,0:0:0:0:
320,192,47041,1,0,0:0:0:0:
64,192,47041,128,2,47291:0:0:0:0:
448,192,47291,1,0,0:0:0:0:
320,192,47541,128,2,47791:0:0:0:0:
64,192,47791,1,0,0:0:0:0:
448,192,47791,1,8,0:0:0:0:
448,192,48291,1,0,0:0:0:0:
192,192,48291,1,4,0:0:0:0:
64,192,48291,1,0,0:0:0:0:
320,192,48541,1,0,0:0:0:0:
64,192,48791,1,8,0:0:0:0:
448,192,48791,1,0,0:0:0:0:
192,192,49041,1,0,0:0:0:0:
320,192,49041,1,0,0:0:0:0:
64,192,49291,1,0,0:0:0:0:
448,192,49791,1,8,0:0:0:0:
192,192,49791,1,0,0:0:0:0:
64,192,50041,128,2,50291:0:0:0:0:
320,192,50291,1,0,0:0:0:0:
448,192,50291,1,0,0:0:0:0:
192,192,50541,1,0,0:0:0:0:
448,192,50791,1,8,0:0:0:0:
192,192,50791,1,0,0:0:0:0:
64,192,51041,1,0,0:0:0:0:
320,192,51041,1,0,0:0:0:0:
448,192,51291,1,0,0:0:0:0:
64,192,51791,1,8,0:0:0:0:
320,192,51791,1,0,0:0:0:0:
192,192,52291,1,0,0:0:0:0:
448,192,52291,1,0,0:0:0:0:
192,192,52541,1,0,0:0:0:0:
320,192,52791,1,8,0:0:0:0:
64,192,52791,1,0,0:0:0:0:
192,192,53041,1,0,0:0:0:0:
448,192,53041,1,0,0:0:0:0:
64,192,53291,1,0,0:0:0:0:
448,192,53791,1,8,0:0:0:0:
192,192,53791,1,0,0:0:0:0:
64,192,54291,1,0,0:0:0:0:
192,192,54291,1,0,0:0:0:0:
64,192,54541,1,0,0:0:0:0:
192,192,54541,1,0,0:0:0:0:
320,192,54791,1,0,0:0:0:0:
448,192,54791,1,8,0:0:0:0:
64,192,55041,1,0,0:0:0:0:
448,192,55041,1,0,0:0:0:0:
192,192,55291,1,0,0:0:0:0:
192,192,55791,128,8,56291:0:0:0:0:
320,192,55791,128,2,56291:0:0:0:0:
64,192,56291,1,4,0:0:0:0:
448,192,56291,1,0,0:0:0:0:
320,192,56541,1,0,0:0:0:0:
192,192,56791,1,0,0:0:0:0:
448,192,56791,1,8,0:0:0:0:
64,192,57041,1,0,0:0:0:0:
320,192,57041,1,0,0:0:0:0:
192,192,57291,1,0,0:0:0:0:
448,192,57791,1,8,0:0:0:0:
192,192,57791,1,0,0:0:0:0:
64,192,58291,1,0,0:0:0:0:
320,192,58291,1,0,0:0:0:0:
320,192,58541,1,0,0:0:0:0:
192,192,58791,1,0,0:0:0:0:
448,192,58791,1,8,0:0:0:0:
64,192,59041,1,0,0:0:0:0:
320,192,59041,1,0,0:0:0:0:
448,192,59291,1,0,0:0:0:0:
64,192,59541,128,2,59791:0:0:0:0:
192,192,59791,1,0,0:0:0:0:
448,192,59791,1,8,0:0:0:0:
64,192,60291,1,0,0:0:0:0:
448,192,60291,1,0,0:0:0:0:
192,192,60541,1,0,0:0:0:0:
448,192,60791,1,8,0:0:0:0:
320,192,60791,1,0,0:0:0:0:
64,192,61041,1,0,0:0:0:0:
192,192,61041,1,0,0:0:0:0:
320,192,61291,1,0,0:0:0:0:
448,192,61791,1,8,0:0:0:0:
64,192,61791,1,0,0:0:0:0:
64,192,62291,1,0,0:0:0:0:
320,192,62291,1,0,0:0:0:0:
64,192,62541,1,0,0:0:0:0:
320,192,62541,1,0,0:0:0:0:
448,192,62791,1,8,0:0:0:0:
192,192,62791,1,0,0:0:0:0:
320,192,63041,1,0,0:0:0:0:
64,192,63041,1,0,0:0:0:0:
448,192,63291,1,0,0:0:0:0:
320,192,63791,128,4,64291:0:0:0:0:
64,192,63791,1,8,0:0:0:0:
448,192,64291,1,0,0:0:0:0:
64,192,64291,1,4,0:0:0:0:
192,192,64291,1,0,0:0:0:0:
192,192,64541,1,0,0:0:0:0:
448,192,64791,1,8,0:0:0:0:
64,192,64791,1,0,0:0:0:0:
192,192,65041,1,0,0:0:0:0:
320,192,65041,1,0,0:0:0:0:
448,192,65291,1,0,0:0:0:0:
64,192,65791,1,8,0:0:0:0:
320,192,65791,1,0,0:0:0:0:
192,192,66291,1,0,0:0:0:0:
320,192,66291,1,0,0:0:0:0:
448,192,66541,1,0,0:0:0:0:
64,192,66791,1,8,0:0:0:0:
320,192,66791,1,0,0:0:0:0:
448,192,67041,1,0,0:0:0:0:
192,192,67041,1,0,0:0:0:0:
320,192,67291,1,0,0:0:0:0:
64,192,67791,1,8,0:0:0:0:
320,192,67791,1,0,0:0:0:0:
192,192,68291,1,0,0:0:0:0:
448,192,68291,1,0,0:0:0:0:
448,192,68541,1,0,0:0:0:0:
64,192,68791,1,8,0:0:0:0:
192,192,68791,1,0,0:0:0:0:
320,192,69041,1,0,0:0:0:0:
448,192,69041,1,0,0:0:0:0:
64,192,69291,1,0,0:0:0:0:
192,192,69791,1,0,0:0:0:0:
448,192,69791,1,8,0:0:0:0:
64,192,70291,1,0,0:0:0:0:
320,192,70291,1,0,0:0:0:0:
320,192,70541,1,0,0:0:0:0:
64,192,70541,1,0,0:0:0:0:
448,192,70791,1,8,0:0:0:0:
192,192,70791,1,0,0:0:0:0:
64,192,71041,1,0,0:0:0:0:
320,192,71041,1,0,0:0:0:0:
448,192,71291,1,0,0:0:0:0:
192,192,71541,1,0,0:0:0:0:
320,192,71541,1,0,0:0:0:0:
448,192,71791,128,2,72291:0:0:0:0:
64,192,71791,1,8,0:0:0:0:
320,192,72041,1,0,0:0:0:0:
64,192,72291,1,0,0:0:0:0:
192,192,72291,1,0,0:0:0:0:
320,192,72541,1,0,0:0:0:0:
192,192,72791,1,0,0:0:0:0:
448,192,72791,1,8,0:0:0:0:
64,192,73041,1,0,0:0:0:0:
320,192,73041,1,0,0:0:0:0:
448,192,73791,1,8,0:0:0:0:
192,192,73791,1,0,0:0:0:0:
320,192,74041,128,2,74291:0:0:0:0:
64,192,74291,1,0,0:0:0:0:
448,192,74291,1,0,0:0:0:0:
448,192,74541,1,0,0:0:0:0:
192,192,74791,1,8,0:0:0:0:
320,192,74791,1,0,0:0:0:0:
320,192,75041,1,0,0:0:0:0:
64,192,75041,1,0,0:0:0:0:
448,192,75791,1,8,0:0:0:0:
320,192,75791,1,0,0:0:0:0:
64,192,76291,1,0,0:0:0:0:
320,192,76291,1,0,0:0:0:0:
320,192,76541,1,0,0:0:0:0:
448,192,76791,1,8,0:0:0:0:
192,192,76791,1,0,0:0:0:0:
320,192,77041,1,0,0:0:0:0:
64,192,77041,1,0,0:0:0:0:
448,192,77791,1,8,0:0:0:0:
192,192,77791,1,0,0:0:0:0:
64,192,78291,1,0,0:0:0:0:
192,192,78291,1,0,0:0:0:0:
320,192,78541,1,0,0:0:0:0:
448,192,78541,1,0,0:0:0:0:
64,192,78791,1,8,0:0:0:0:
448,192,78791,1,0,0:0:0:0:
192,192,79041,1,0,0:0:0:0:
320,192,79041,1,0,0:0:0:0:
448,192,79541,128,2,79791:0:0:0:0:
64,192,79791,1,8,0:0:0:0:
320,192,79791,1,0,0:0:0:0:
192,192,80291,1,0,0:0:0:0:
448,192,80291,1,0,0:0:0:0:
64,192,80541,1,0,0:0:0:0:
320,192,80791,1,0,0:0:0:0:
448,192,80791,1,8,0:0:0:0:
192,192,81041,1,0,0:0:0:0:
64,192,81041,1,0,0:0:0:0:
448,192,81791,1,8,0:0:0:0:
192,192,81791,1,0,0:0:0:0:
64,192,82041,128,2,82291:0:0:0:0:
320,192,82291,1,0,0:0:0:0:
192,192,82291,1,0,0:0:0:0:
448,192,82541,1,0,0:0:0:0:
64,192,82791,1,8,0:0:0:0:
320,192,82791,1,0,0:0:0:0:
192,192,83041,1,0,0:0:0:0:
448,192,83041,1,0,0:0:0:0:
64,192,83791,1,8,0:0:0:0:
320,192,83791,1,0,0:0:0:0:
448,192,84291,1,0,0:0:0:0:
192,192,84291,1,0,0:0:0:0:
448,192,84541,1,0,0:0:0:0:
320,192,84791,1,0,0:0:0:0:
64,192,84791,1,8,0:0:0:0:
192,192,85041,1,0,0:0:0:0:
448,192,85041,1,0,0:0:0:0:
448,192,85791,1,8,0:0:0:0:
192,192,85791,1,0,0:0:0:0:
64,192,86291,1,0,0:0:0:0:
320,192,86291,1,0,0:0:0:0:
320,192,86541,1,0,0:0:0:0:
64,192,86541,1,0,0:0:0:0:
192,192,86791,1,0,0:0:0:0:
448,192,86791,1,8,0:0:0:0:
64,192,87041,1,0,0:0:0:0:
320,192,87041,1,0,0:0:0:0:
192,192,87541,128,2,87791:0:0:0:0:
448,192,87791,1,8,0:0:0:0:
64,192,87791,1,0,0:0:0:0:
320,192,88041,128,2,88291:0:0:0:0:
64,192,88291,1,4,0:0:0:0:
448,192,88291,1,0,0:0:0:0:
192,192,88291,1,0,0:0:0:0:
192,192,88541,1,0,0:0:0:0:
448,192,88791,1,8,0:0:0:0:
320,192,88791,1,0,0:0:0:0:
192,192,89041,1,0,0:0:0:0:
64,192,89041,1,0,0:0:0:0:
320,192,89291,1,0,0:0:0:0:
448,192,89791,1,8,0:0:0:0:
192,192,89791,1,0,0:0:0:0:
64,192,90041,128,2,90291:0:0:0:0:
192,192,90291,1,0,0:0:0:0:
320,192,90291,1,0,0:0:0:0:
320,192,90541,1,0,0:0:0:0:
64,192,90791,1,0,0:0:0:0:
448,192,90791,1,8,0:0:0:0:
192,192,91041,1,0,0:0:0:0:
320,192,91041,1,0,0:0:0:0:
64,192,91291,1,0,0:0:0:0:
64,192,91791,1,0,0:0:0:0:
448,192,91791,1,8,0:0:0:0:
448,192,92291,1,0,0:0:0:0:
192,192,92291,1,0,0:0:0:0:
192,192,92541,1,0,0:0:0:0:
64,192,92791,1,8,0:0:0:0:
320,192,92791,1,0,0:0:0:0:
448,192,93041,1,0,0:0:0:0:
192,192,93041,1,0,0:0:0:0:
320,192,93291,1,0,0:0:0:0:
64,192,93791,1,8,0:0:0:0:
320,192,93791,1,0,0:0:0:0:
448,192,94291,1,0,0:0:0:0:
64,192,94291,1,0,0:0:0:0:
64,192,94541,1,0,0:0:0:0:
448,192,94541,1,0,0:0:0:0:
192,192,94791,1,0,0:0:0:0:
320,192,94791,1,8,0:0:0:0:
64,192,95041,1,0,0:0:0:0:
448,192,95041,1,0,0:0:0:0:
192,192,95291,1,0,0:0:0:0:
320,192,95541,128,2,95791:0:0:0:0:
448,192,95791,1,8,0:0:0:0:
192,192,95791,1,0,0:0:0:0:
64,192,96291,1,0,0:0:0:0:
320,192,96291,1,0,0:0:0:0:
192,192,96541,1,0,0:0:0:0:
448,192,96791,1,8,0:0:0:0:
320,192,96791,1,0,0:0:0:0:
64,192,97041,1,0,0:0:0:0:
192,192,97041,1,0,0:0:0:0:
320,192,97291,1,0,0:0:0:0:
448,192,97791,1,8,0:0:0:0:
192,192,97791,1,0,0:0:0:0:
64,192,98041,128,2,98291:0:0:0:0:
320,192,98291,1,0,0:0:0:0:
192,192,98291,1,0,0:0:0:0:
64,192,98541,1,0,0:0:0:0:
320,192,98791,1,0,0:0:0:0:
448,192,98791,1,8,0:0:0:0:
192,192,99041,1,0,0:0:0:0:
64,192,99041,1,0,0:0:0:0:
320,192,99291,1,0,0:0:0:0:
448,192,99791,1,8,0:0:0:0:
192,192,99791,1,0,0:0:0:0:
320,192,100291,1,0,0:0:0:0:
64,192,100291,1,0,0:0:0:0:
320,192,100541,1,0,0:0:0:0:
448,192,100791,1,8,0:0:0:0:
64,192,100791,1,0,0:0:0:0:
320,192,101041,1,0,0:0:0:0:
192,192,101041,1,0,0:0:0:0:
448,192,101291,1,0,0:0:0:0:
448,192,101791,1,8,0:0:0:0:
64,192,101791,1,0,0:0:0:0:
192,192,102291,1,0,0:0:0:0:
64,192,102291,1,0,0:0:0:0:
320,192,102541,1,0,0:0:0:0:
448,192,102541,1,0,0:0:0:0:
448,192,102791,1,0,0:0:0:0:
64,192,102791,1,8,0:0:0:0:
192,192,103041,1,0,0:0:0:0:
320,192,103041,1,0,0:0:0:0:
448,192,103291,1,0,0:0:0:0:
64,192,103291,1,8,0:0:0:0:
320,192,103791,128,2,104291:0:0:0:0:
64,192,103791,1,8,0:0:0:0:
192,192,104041,128,2,104291:0:0:0:0:
64,192,104291,1,4,0:0:0:0:
448,192,104291,1,0,0:0:0:0:
448,192,104541,1,0,0:0:0:0:
64,192,104791,1,0,0:0:0:0:
320,192,104791,1,8,0:0:0:0:
192,192,105041,1,0,0:0:0:0:
448,192,105041,1,0,0:0:0:0:
64,192,105291,1,0,0:0:0:0:
448,192,105791,1,8,0:0:0:0:
320,192,105791,1,0,0:0:0:0:
64,192,106041,128,2,106291:0:0:0:0:
192,192,106291,1,0,0:0:0:0:
448,192,106291,1,0,0:0:0:0:
320,192,106541,1,0,0:0:0:0:
448,192,106791,1,0,0:0:0:0:
64,192,106791,1,8,0:0:0:0:
192,192,107041,1,0,0:0:0:0:
320,192,107041,1,0,0:0:0:0:
64,192,107291,1,0,0:0:0:0:
448,192,107791,1,8,0:0:0:0:
192,192,107791,1,0,0:0:0:0:
448,192,108291,1,0,0:0:0:0:
320,192,108291,1,0,0:0:0:0:
192,192,108541,1,0,0:0:0:0:
64,192,108791,1,8,0:0:0:0:
320,192,108791,1,0,0:0:0:0:
192,192,109041,1,0,0:0:0:0:
448,192,109041,1,0,0:0:0:0:
320,192,109291,1,0,0:0:0:0:
64,192,109791,1,8,0:0:0:0:
448,192,109791,1,0,0:0:0:0:
320,192,110291,1,0,0:0:0:0:
192,192,110291,1,0,0:0:0:0:
192,192,110541,1,0,0:0:0:0:
320,192,110541,1,0,0:0:0:0:
448,192,110791,1,0,0:0:0:0:
64,192,110791,1,8,0:0:0:0:
192,192,111041,1,0,0:0:0:0:
320,192,111041,128,2,111291:0:0:0:0:
448,192,111291,1,0,0:0:0:0:
192,192,111541,128,2,111791:0:0:0:0:
64,192,111791,1,0,0:0:0:0:
320,192,111791,1,8,0:0:0:0:
320,192,112291,1,0,0:0:0:0:
64,192,112291,1,0,0:0:0:0:
448,192,112291,1,4,0:0:0:0:
192,192,112541,1,0,0:0:0:0:
448,192,112791,1,0,0:0:0:0:
64,192,112791,1,8,0:0:0:0:
192,192,113041,1,0,0:0:0:0:
320,192,113041,1,0,0:0:0:0:
448,192,113291,1,0,0:0:0:0:
64,192,113791,1,8,0:0:0:0:
192,192,113791,1,0,0:0:0:0:
320,192,114041,128,2,114291:0:0:0:0:
192,192,114291,1,0,0:0:0:0:
448,192,114291,1,0,0:0:0:0:
192,192,114541,1,0,0:0:0:0:
448,192,114791,1,8,0:0:0:0:
320,192,114791,1,0,0:0:0:0:
64,192,115041,1,0,0:0:0:0:
192,192,115041,1,0,0:0:0:0:
320,192,115291,1,0,0:0:0:0:
448,192,115791,1,8,0:0:0:0:
192,192,115791,1,0,0:0:0:0:
64,192,116291,1,0,0:0:0:0:
192,192,116291,1,0,0:0:0:0:
192,192,116541,1,0,0:0:0:0:
448,192,116791,1,8,0:0:0:0:
320,192,116791,1,0,0:0:0:0:
192,192,117041,1,0,0:0:0:0:
64,192,117041,1,0,0:0:0:0:
448,192,117291,1,0,0:0:0:0:
320,192,117791,1,8,0:0:0:0:
192,192,117791,1,0,0:0:0:0:
64,192,118291,1,0,0:0:0:0:
448,192,118291,1,0,0:0:0:0:
64,192,118541,1,0,0:0:0:0:
448,192,118541,1,0,0:0:0:0:
192,192,118791,1,8,0:0:0:0:
320,192,118791,1,0,0:0:0:0:
448,192,119041,1,0,0:0:0:0:
64,192,119041,1,0,0:0:0:0:
320,192,119291,1,0,0:0:0:0:
192,192,119791,128,2,120291:0:0:0:0:
448,192,119791,128,8,120291:0:0:0:0:
64,192,120291,1,4,0:0:0:0:
320,192,120291,1,0,0:0:0:0:
64,192,120541,1,0,0:0:0:0:
448,192,120791,1,8,0:0:0:0:
192,192,120791,1,0,0:0:0:0:
64,192,121041,1,0,0:0:0:0:
320,192,121041,1,0,0:0:0:0:
448,192,121291,1,0,0:0:0:0:
448,192,121791,1,8,0:0:0:0:
192,192,121791,1,0,0:0:0:0:
320,192,122291,1,0,0:0:0:0:
192,192,122291,1,0,0:0:0:0:
448,192,122541,1,0,0:0:0:0:
320,192,122791,1,0,0:0:0:0:
64,192,122791,1,8,0:0:0:0:
320,192,123041,1,0,0:0:0:0:
448,192,123041,1,0,0:0:0:0:
192,192,123291,1,0,0:0:0:0:
64,192,123791,1,8,0:0:0:0:
320,192,123791,1,0,0:0:0:0:
448,192,124291,1,0,0:0:0:0:
192,192,124291,1,0,0:0:0:0:
320,192,124541,1,0,0:0:0:0:
448,192,124791,1,0,0:0:0:0:
64,192,124791,1,8,0:0:0:0:
192,192,125041,1,0,0:0:0:0:
320,192,125041,1,0,0:0:0:0:
64,192,125291,1,0,0:0:0:0:
448,192,125791,1,8,0:0:0:0:
192,192,125791,1,0,0:0:0:0:
320,192,126291,1,0,0:0:0:0:
64,192,126291,1,0,0:0:0:0:
64,192,126541,1,0,0:0:0:0:
320,192,126541,1,0,0:0:0:0:
448,192,126791,1,8,0:0:0:0:
192,192,126791,1,0,0:0:0:0:
64,192,127041,1,0,0:0:0:0:
320,192,127041,1,0,0:0:0:0:
192,192,127291,1,0,0:0:0:0:
448,192,127791,1,8,0:0:0:0:
320,192,127791,128,4,128291:0:0:0:0:
64,192,127791,1,0,0:0:0:0:
64,192,128291,1,4,0:0:0:0:
192,192,128291,1,0,0:0:0:0:
448,192,128291,1,0,0:0:0:0:
192,192,128541,1,0,0:0:0:0:
448,192,128791,1,8,0:0:0:0:
320,192,128791,1,0,0:0:0:0:
192,192,129041,1,0,0:0:0:0:
64,192,129041,1,0,0:0:0:0:
320,192,129291,1,0,0:0:0:0:
448,192,129791,1,8,0:0:0:0:
192,192,129791,1,0,0:0:0:0:
64,192,130041,128,2,130291:0:0:0:0:
320,192,130291,1,0,0:0:0:0:
448,192,130291,1,0,0:0:0:0:
448,192,130541,1,0,0:0:0:0:
192,192,130791,1,0,0:0:0:0:
64,192,130791,1,8,0:0:0:0:
320,192,131041,1,0,0:0:0:0:
448,192,131041,1,0,0:0:0:0:
192,192,131291,1,0,0:0:0:0:
64,192,131791,1,8,0:0:0:0:
448,192,131791,1,0,0:0:0:0:
192,192,132291,1,0,0:0:0:0:
448,192,132291,1,0,0:0:0:0:
64,192,132541,1,0,0:0:0:0:
448,192,132791,1,8,0:0:0:0:
320,192,132791,1,0,0:0:0:0:
448,192,133041,1,0,0:0:0:0:
64,192,133041,1,0,0:0:0:0:
192,192,133291,1,0,0:0:0:0:
64,192,133791,1,8,0:0:0:0:
320,192,133791,1,0,0:0:0:0:
448,192,134291,1,0,0:0:0:0:
192,192,134291,1,0,0:0:0:0:
192,192,134541,1,0,0:0:0:0:
448,192,134541,1,0,0:0:0:0:
64,192,134791,1,8,0:0:0:0:
320,192,134791,1,0,0:0:0:0:
192,192,135041,1,0,0:0:0:0:
448,192,135041,1,0,0:0:0:0:
64,192,135291,1,0,0:0:0:0:
320,192,135541,1,0,0:0:0:0:
448,192,135791,1,8,0:0:0:0:
192,192,135791,1,0,0:0:0:0:
320,192,136041,1,2,0:0:0:0:
192,192,136291,128,2,137791:1:0:0:20:
64,192,136291,128,0,137791:0:0:0:0:
64,192,138291,128,0,139791:0:0:0:14:
320,192,138291,128,2,139791:0:0:0:20:
448,192,140291,128,2,141791:0:0:0:20:
192,192,140291,128,0,141791:0:0:0:14:
64,192,142291,128,2,143791:0:0:0:20:
320,192,142291,128,0,143791:0:0:0:0:
192,192,144291,128,2,145791:0:0:0:20:
320,192,144291,128,0,145791:0:0:0:14:
448,192,146291,128,0,147791:0:0:0:17:
64,192,146291,128,2,147791:0:0:0:20:
64,192,148291,128,2,149791:0:0:0:8:
320,192,148291,128,0,149791:0:0:0:14:
192,192,150041,1,2,1:0:0:20:
320,192,150166,1,2,1:0:0:20:
448,192,150291,128,2,151791:0:0:0:20:
64,192,150291,128,0,151791:0:0:0:14:
192,192,151791,1,0,0:0:0:0:
320,192,151791,1,8,0:0:0:0:
64,192,152291,1,0,0:0:0:0:
320,192,152291,1,0,0:0:0:0:
448,192,152291,1,4,0:0:0:0:
192,192,152541,1,0,0:0:0:0:
448,192,152791,1,8,0:0:0:0:
64,192,152791,1,0,0:0:0:0:
192,192,153041,1,0,0:0:0:0:
320,192,153041,1,0,0:0:0:0:
448,192,153791,1,8,0:0:0:0:
192,192,153791,1,0,0:0:0:0:
320,192,154041,128,2,154291:0:0:0:0:
64,192,154291,1,0,0:0:0:0:
448,192,154291,1,0,0:0:0:0:
448,192,154541,1,0,0:0:0:0:
64,192,154791,1,8,0:0:0:0:
320,192,154791,1,0,0:0:0:0:
192,192,155041,1,0,0:0:0:0:
448,192,155041,1,0,0:0:0:0:
64,192,155791,1,8,0:0:0:0:
320,192,155791,1,0,0:0:0:0:
448,192,156291,1,0,0:0:0:0:
320,192,156291,1,0,0:0:0:0:
64,192,156541,1,0,0:0:0:0:
448,192,156791,1,8,0:0:0:0:
192,192,156791,1,0,0:0:0:0:
320,192,157041,1,0,0:0:0:0:
64,192,157041,1,0,0:0:0:0:
192,192,157791,1,0,0:0:0:0:
320,192,157791,1,8,0:0:0:0:
64,192,158291,1,0,0:0:0:0:
448,192,158291,1,0,0:0:0:0:
64,192,158541,1,0,0:0:0:0:
448,192,158541,1,0,0:0:0:0:
192,192,158791,1,0,0:0:0:0:
320,192,158791,1,8,0:0:0:0:
64,192,159041,1,0,0:0:0:0:
448,192,159041,1,0,0:0:0:0:
64,192,160291,1,0,0:0:0:0:
192,192,160291,1,0,0:0:0:0:
448,192,160291,1,4,0:0:0:0:
320,192,160541,1,0,0:0:0:0:
64,192,160791,1,0,0:0:0:0:
448,192,160791,1,8,0:0:0:0:
192,192,161041,1,0,0:0:0:0:
320,192,161041,1,0,0:0:0:0:
64,192,161291,1,0,0:0:0:0:
448,192,161791,1,8,0:0:0:0:
192,192,161791,1,0,0:0:0:0:
192,192,162041,128,2,162291:0:0:0:0:
64,192,162291,1,0,0:0:0:0:
320,192,162291,1,0,0:0:0:0:
320,192,162541,1,0,0:0:0:0:
448,192,162791,1,8,0:0:0:0:
192,192,162791,1,0,0:0:0:0:
320,192,163041,1,0,0:0:0:0:
64,192,163041,1,0,0:0:0:0:
448,192,163291,1,0,0:0:0:0:
192,192,163791,1,0,0:0:0:0:
448,192,163791,1,8,0:0:0:0:
320,192,164291,1,0,0:0:0:0:
448,192,164291,1,0,0:0:0:0:
320,192,164541,1,0,0:0:0:0:
64,192,164791,1,8,0:0:0:0:
448,192,164791,1,0,0:0:0:0:
192,192,165041,1,0,0:0:0:0:
320,192,165041,1,0,0:0:0:0:
64,192,165291,1,0,0:0:0:0:
448,192,165791,1,0,0:0:0:0:
64,192,165791,1,8,0:0:0:0:
448,192,166291,1,0,0:0:0:0:
320,192,166291,1,0,0:0:0:0:
448,192,166541,1,0,0:0:0:0:
320,192,166541,1,0,0:0:0:0:
64,192,166791,1,0,0:0:0:0:
192,192,166791,1,8,0:0:0:0:
448,192,167041,1,0,0:0:0:0:
320,192,167041,128,2,167291:0:0:0:0:
192,192,167291,1,0,0:0:0:0:
64,192,167541,128,2,167791:0:0:0:0:
448,192,167791,1,8,0:0:0:0:
192,192,167791,1,0,0:0:0:0:
320,192,168291,1,4,0:0:0:0:
192,192,168291,1,0,0:0:0:0:
64,192,168291,1,0,0:0:0:0:
448,192,168541,1,0,0:0:0:0:
320,192,168791,1,8,0:0:0:0:
192,192,168791,1,0,0:0:0:0:
448,192,169041,1,0,0:0:0:0:
64,192,169041,1,0,0:0:0:0:
192,192,169291,1,0,0:0:0:0:
448,192,169791,1,8,0:0:0:0:
320,192,169791,1,0,0:0:0:0:
64,192,170041,128,2,170291:0:0:0:0:
192,192,170291,1,0,0:0:0:0:
448,192,170291,1,0,0:0:0:0:
192,192,170541,1,0,0:0:0:0:
320,192,170791,1,0,0:0:0:0:
64,192,170791,1,8,0:0:0:0:
192,192,171041,1,0,0:0:0:0:
448,192,171041,1,0,0:0:0:0:
320,192,171291,1,0,0:0:0:0:
192,192,171791,1,0,0:0:0:0:
64,192,171791,1,8,0:0:0:0:
448,192,172291,1,0,0:0:0:0:
320,192,172291,1,0,0:0:0:0:
64,192,172541,1,0,0:0:0:0:
192,192,172791,1,0,0:0:0:0:
448,192,172791,1,8,0:0:0:0:
320,192,173041,1,0,0:0:0:0:
64,192,173041,1,0,0:0:0:0:
448,192,173291,1,0,0:0:0:0:
320,192,173791,1,0,0:0:0:0:
64,192,173791,1,8,0:0:0:0:
192,192,174291,1,0,0:0:0:0:
320,192,174291,1,0,0:0:0:0:
192,192,174541,1,0,0:0:0:0:
320,192,174541,1,0,0:0:0:0:
64,192,174791,1,0,0:0:0:0:
448,192,174791,1,8,0:0:0:0:
192,192,175041,1,0,0:0:0:0:
320,192,175041,1,0,0:0:0:0:
64,192,175291,1,0,0:0:0:0:
448,192,175291,1,8,0:0:0:0:
320,192,175541,1,0,0:0:0:0:
64,192,175791,1,0,0:0:0:0:
448,192,175791,128,8,176291:0:0:0:0:
64,192,176291,1,0,0:0:0:0:
192,192,176291,1,0,0:0:0:0:
320,192,176291,1,4,0:0:0:0:
192,192,176541,1,0,0:0:0:0:
448,192,176791,1,8,0:0:0:0:
320,192,176791,1,0,0:0:0:0:
192,192,177041,1,0,0:0:0:0:
64,192,177041,1,0,0:0:0:0:
448,192,177291,1,0,0:0:0:0:
320,192,177791,1,0,0:0:0:0:
64,192,177791,1,8,0:0:0:0:
192,192,178041,1,2,0:0:0:0:
320,192,178166,1,2,0:0:0:0:
448,192,178291,1,0,0:0:0:0:
64,192,178291,1,0,0:0:0:0:
448,192,178541,1,0,0:0:0:0:
320,192,178791,1,0,0:0:0:0:
64,192,178791,1,8,0:0:0:0:
192,192,179041,1,0,0:0:0:0:
448,192,179041,1,0,0:0:0:0:
64,192,179291,1,0,0:0:0:0:
192,192,179791,1,0,0:0:0:0:
448,192,179791,1,8,0:0:0:0:
64,192,180291,1,0,0:0:0:0:
192,192,180291,1,0,0:0:0:0:
64,192,180541,1,0,0:0:0:0:
448,192,180791,1,8,0:0:0:0:
192,192,180791,1,0,0:0:0:0:
320,192,181041,1,0,0:0:0:0:
64,192,181041,1,0,0:0:0:0:
448,192,181291,1,0,0:0:0:0:
320,192,181791,1,0,0:0:0:0:
64,192,181791,1,8,0:0:0:0:
192,192,182291,1,0,0:0:0:0:
64,192,182291,1,0,0:0:0:0:
192,192,182541,1,0,0:0:0:0:
64,192,182541,1,0,0:0:0:0:
320,192,182791,1,8,0:0:0:0:
448,192,182791,1,0,0:0:0:0:
192,192,183041,1,0,0:0:0:0:
64,192,183041,1,0,0:0:0:0:
320,192,183291,1,0,0:0:0:0:
64,192,183541,128,2,183791:0:0:0:0:
192,192,183791,1,4,0:0:0:0:
448,192,183791,128,8,184291:0:0:0:0:
192,192,184291,1,0,0:0:0:0:
64,192,184291,1,0,0:0:0:0:
320,192,184291,1,4,0:0:0:0:
192,192,184541,1,0,0:0:0:0:
64,192,184791,1,0,0:0:0:0:
448,192,184791,1,8,0:0:0:0:
192,192,185041,1,0,0:0:0:0:
320,192,185041,1,0,0:0:0:0:
448,192,185291,1,0,0:0:0:0:
64,192,185791,1,8,0:0:0:0:
320,192,185791,1,0,0:0:0:0:
448,192,186041,1,2,0:0:0:0:
320,192,186166,1,2,0:0:0:0:
64,192,186291,1,0,0:0:0:0:
192,192,186291,1,0,0:0:0:0:
192,192,186541,1,0,0:0:0:0:
448,192,186791,1,8,0:0:0:0:
64,192,186791,1,0,0:0:0:0:
192,192,187041,1,0,0:0:0:0:
320,192,187041,1,0,0:0:0:0:
448,192,187291,1,0,0:0:0:0:
192,192,187791,1,0,0:0:0:0:
64,192,187791,1,8,0:0:0:0:
448,192,188291,1,0,0:0:0:0:
192,192,188291,1,0,0:0:0:0:
448,192,188541,1,0,0:0:0:0:
320,192,188791,1,8,0:0:0:0:
192,192,188791,1,0,0:0:0:0:
64,192,189041,1,0,0:0:0:0:
448,192,189041,1,0,0:0:0:0:
192,192,189291,1,0,0:0:0:0:
448,192,189791,1,8,0:0:0:0:
320,192,189791,1,0,0:0:0:0:
320,192,190291,1,0,0:0:0:0:
192,192,190291,1,0,0:0:0:0:
192,192,190541,1,0,0:0:0:0:
320,192,190541,1,0,0:0:0:0:
64,192,190791,1,0,0:0:0:0:
448,192,190791,1,8,0:0:0:0:
192,192,191041,1,0,0:0:0:0:
320,192,191041,1,0,0:0:0:0:
64,192,191291,1,0,0:0:0:0:
448,192,191791,1,8,0:0:0:0:
192,192,191791,1,0,0:0:0:0:
64,192,192041,1,8,0:0:0:0:
64,192,192166,1,8,0:0:0:0:
448,192,192291,1,4,0:0:0:0:
192,192,192291,1,0,0:0:0:0:
320,192,192291,1,0,0:0:0:0:
320,192,192541,1,0,0:0:0:0:
448,192,192791,1,8,0:0:0:0:
192,192,192791,1,0,0:0:0:0:
320,192,193041,1,0,0:0:0:0:
64,192,193041,1,0,0:0:0:0:
192,192,193291,1,0,0:0:0:0:
448,192,193541,128,2,193791:0:0:0:0:
64,192,193791,1,8,0:0:0:0:
320,192,193791,1,0,0:0:0:0:
64,192,194041,128,2,194291:0:0:0:0:
192,192,194291,1,0,0:0:0:0:
320,192,194291,1,0,0:0:0:0:
64,192,194541,1,0,0:0:0:0:
192,192,194791,1,0,0:0:0:0:
448,192,194791,1,8,0:0:0:0:
64,192,195041,1,0,0:0:0:0:
320,192,195041,1,0,0:0:0:0:
192,192,195291,1,0,0:0:0:0:
448,192,195541,128,2,195791:0:0:0:0:
320,192,195541,1,0,0:0:0:0:
64,192,195791,1,8,0:0:0:0:
192,192,195791,1,0,0:0:0:0:
192,192,196291,1,0,0:0:0:0:
448,192,196291,1,0,0:0:0:0:
448,192,196541,1,0,0:0:0:0:
320,192,196791,1,0,0:0:0:0:
192,192,196791,1,8,0:0:0:0:
64,192,197041,1,0,0:0:0:0:
448,192,197041,1,0,0:0:0:0:
192,192,197291,1,0,0:0:0:0:
448,192,197541,128,2,197791:0:0:0:0:
64,192,197791,1,8,0:0:0:0:
320,192,197791,1,0,0:0:0:0:
448,192,198291,1,0,0:0:0:0:
64,192,198291,1,0,0:0:0:0:
64,192,198541,1,0,0:0:0:0:
448,192,198541,1,0,0:0:0:0:
192,192,198791,1,0,0:0:0:0:
320,192,198791,1,8,0:0:0:0:
64,192,199041,1,0,0:0:0:0:
448,192,199041,1,0,0:0:0:0:
320,192,199291,1,0,0:0:0:0:
64,192,199541,128,2,199791:0:0:0:0:
192,192,199791,1,8,0:0:0:0:
320,192,199791,128,4,200291:0:0:0:0:
448,192,200291,1,0,0:0:0:0:
192,192,200291,1,4,0:0:0:0:
64,192,200291,1,0,0:0:0:0:
320,192,200541,1,0,0:0:0:0:
192,192,200791,1,0,0:0:0:0:
448,192,200791,1,8,0:0:0:0:
320,192,201041,1,0,0:0:0:0:
64,192,201041,1,0,0:0:0:0:
448,192,201291,1,0,0:0:0:0:
64,192,201541,128,2,201791:0:0:0:0:
448,192,201791,1,8,0:0:0:0:
192,192,201791,1,0,0:0:0:0:
320,192,202041,128,2,202291:0:0:0:0:
64,192,202291,1,0,0:0:0:0:
448,192,202291,1,0,0:0:0:0:
192,192,202541,1,0,0:0:0:0:
64,192,202666,1,0,0:0:0:0:
448,192,202791,1,8,0:0:0:0:
320,192,202791,1,0,0:0:0:0:
192,192,203041,1,0,0:0:0:0:
64,192,203041,1,0,0:0:0:0:
320,192,203291,1,0,0:0:0:0:
192,192,203541,128,2,203791:0:0:0:0:
448,192,203791,1,0,0:0:0:0:
64,192,203791,1,8,0:0:0:0:
448,192,204291,1,0,0:0:0:0:
192,192,204291,1,0,0:0:0:0:
64,192,204541,1,0,0:0:0:0:
320,192,204791,1,0,0:0:0:0:
64,192,204791,1,8,0:0:0:0:
448,192,205041,1,0,0:0:0:0:
192,192,205041,1,0,0:0:0:0:
320,192,205291,1,0,0:0:0:0:
448,192,205541,128,2,205791:0:0:0:0:
64,192,205791,1,8,0:0:0:0:
192,192,205791,1,0,0:0:0:0:
320,192,206291,1,0,0:0:0:0:
64,192,206291,1,0,0:0:0:0:
64,192,206541,1,0,0:0:0:0:
320,192,206541,1,0,0:0:0:0:
448,192,206791,1,8,0:0:0:0:
192,192,206791,1,0,0:0:0:0:
320,192,207041,1,0,0:0:0:0:
64,192,207041,1,0,0:0:0:0:
448,192,207291,1,8,0:0:0:0:
192,192,207291,1,0,0:0:0:0:
64,192,207541,1,0,0:0:0:0:
448,192,207791,1,8,0:0:0:0:
320,192,207791,1,0,0:0:0:0:
192,192,208041,1,0,0:0:0:0:
320,192,208291,1,0,0:0:0:0:
448,192,208291,1,4,0:0:0:0:
64,192,208291,1,0,0:0:0:0:
320,192,208541,1,0,0:0:0:0:
192,192,208791,1,0,0:0:0:0:
448,192,208791,1,8,0:0:0:0:
320,192,209041,1,0,0:0:0:0:
64,192,209041,1,0,0:0:0:0:
192,192,209291,1,0,0:0:0:0:
320,192,209541,128,2,209791:0:0:0:0:
448,192,209791,1,0,0:0:0:0:
64,192,209791,1,8,0:0:0:0:
192,192,210041,128,2,210291:0:0:0:0:
320,192,210291,1,0,0:0:0:0:
448,192,210291,1,0,0:0:0:0:
64,192,210541,1,0,0:0:0:0:
448,192,210791,1,8,0:0:0:0:
192,192,210791,1,0,0:0:0:0:
320,192,211041,1,0,0:0:0:0:
64,192,211041,1,0,0:0:0:0:
192,192,211291,1,0,0:0:0:0:
448,192,211541,128,2,211791:0:0:0:0:
64,192,211791,1,8,0:0:0:0:
192,192,211791,1,0,0:0:0:0:
448,192,212291,1,0,0:0:0:0:
192,192,212291,1,0,0:0:0:0:
320,192,212541,1,0,0:0:0:0:
448,192,212791,1,0,0:0:0:0:
64,192,212791,1,8,0:0:0:0:
192,192,213041,1,0,0:0:0:0:
320,192,213041,1,0,0:0:0:0:
64,192,213291,1,0,0:0:0:0:
320,192,213541,128,2,213791:0:0:0:0:
448,192,213791,1,8,0:0:0:0:
192,192,213791,1,0,0:0:0:0:
192,192,214291,1,0,0:0:0:0:
64,192,214291,1,0,0:0:0:0:
192,192,214541,1,0,0:0:0:0:
64,192,214541,1,0,0:0:0:0:
320,192,214791,1,0,0:0:0:0:
448,192,214791,1,8,0:0:0:0:
192,192,215041,1,0,0:0:0:0:
64,192,215041,1,0,0:0:0:0:
320,192,215291,1,0,0:0:0:0:
64,192,215541,128,2,215791:0:0:0:0:
448,192,215791,1,4,0:0:0:0:
192,192,215791,128,8,216291:0:0:0:0:
64,192,216291,1,0,0:0:0:0:
320,192,216291,1,4,0:0:0:0:
448,192,216291,1,0,0:0:0:0:
64,192,216541,1,0,0:0:0:0:
448,192,216791,1,8,0:0:0:0:
320,192,216791,1,0,0:0:0:0:
192,192,217041,1,0,0:0:0:0:
64,192,217041,1,0,0:0:0:0:
320,192,217291,1,0,0:0:0:0:
64,192,217541,128,2,217791:0:0:0:0:
448,192,217791,1,8,0:0:0:0:
192,192,217791,1,0,0:0:0:0:
320,192,218041,1,2,0:0:0:0:
448,192,218166,1,2,0:0:0:0:
64,192,218291,1,0,0:0:0:0:
192,192,218291,1,0,0:0:0:0:
320,192,218541,1,0,0:0:0:0:
64,192,218791,1,0,0:0:0:0:
448,192,218791,1,8,0:0:0:0:
192,192,219041,1,0,0:0:0:0:
320,192,219041,1,0,0:0:0:0:
64,192,219291,1,0,0:0:0:0:
448,192,219541,128,2,219791:0:0:0:0:
320,192,219791,1,0,0:0:0:0:
64,192,219791,1,8,0:0:0:0:
448,192,220291,1,0,0:0:0:0:
192,192,220291,1,0,0:0:0:0:
448,192,220541,1,0,0:0:0:0:
320,192,220791,1,0,0:0:0:0:
64,192,220791,1,8,0:0:0:0:
192,192,221041,1,0,0:0:0:0:
448,192,221041,1,0,0:0:0:0:
64,192,221291,1,0,0:0:0:0:
192,192,221541,128,2,221791:0:0:0:0:
448,192,221791,1,8,0:0:0:0:
320,192,221791,1,0,0:0:0:0:
64,192,222291,1,0,0:0:0:0:
320,192,222291,1,0,0:0:0:0:
64,192,222541,1,0,0:0:0:0:
320,192,222541,1,0,0:0:0:0:
448,192,222791,1,8,0:0:0:0:
192,192,222791,1,0,0:0:0:0:
64,192,223041,1,0,0:0:0:0:
192,192,223041,1,0,0:0:0:0:
320,192,223291,1,0,0:0:0:0:
448,192,223291,1,8,0:0:0:0:
192,192,223541,1,0,0:0:0:0:
64,192,223541,1,0,0:0:0:0:
64,192,223791,1,8,0:0:0:0:
320,192,223791,1,0,0:0:0:0:
448,192,224041,1,0,0:0:0:0:
64,192,224291,128,2,225791:0:0:0:0:
320,192,224291,1,0,0:0:0:0:
320,192,224541,1,0,0:0:0:0:
448,192,224791,1,8,0:0:0:0:
320,192,225041,1,0,0:0:0:0:
192,192,225791,1,0,0:0:0:0:
448,192,225791,1,8,0:0:0:0:
320,192,226041,1,2,0:0:0:0:
448,192,226291,128,2,227791:0:0:0:0:
192,192,226291,1,0,0:0:0:0:
192,192,226541,1,0,0:0:0:0:
64,192,226791,1,8,0:0:0:0:
192,192,227041,1,0,0:0:0:0:
192,192,227791,1,8,0:0:0:0:
320,192,227791,1,0,0:0:0:0:
192,192,228291,128,2,229791:0:0:0:0:
320,192,228291,1,0,0:0:0:0:
320,192,228541,1,0,0:0:0:0:
448,192,228791,1,8,0:0:0:0:
320,192,229041,1,0,0:0:0:0:
448,192,229791,1,8,0:0:0:0:
64,192,229791,1,0,0:0:0:0:
320,192,230041,1,2,0:0:0:0:
448,192,230166,1,2,0:0:0:0:
320,192,230291,128,2,231791:0:0:0:0:
192,192,230291,1,0,0:0:0:0:
192,192,230541,1,0,0:0:0:0:
64,192,230791,1,8,0:0:0:0:
192,192,231041,1,0,0:0:0:0:
64,192,231791,128,0,232291:0:0:0:0:
448,192,231791,128,8,232291:0:0:0:0:
