osu file format v14

[General]
AudioFilename: audio.mp3
AudioLeadIn: 0
PreviewTime: 159728
Countdown: 0
SampleSet: Soft
StackLeniency: 0.7
Mode: 0
LetterboxInBreaks: 0
WidescreenStoryboard: 0

[Editor]
Bookmarks: 8291,24291,40291,56291,72291,88291,104291,120291,136291,160291,184291,208291,231791
DistanceSpacing: 0.5
BeatDivisor: 9
GridSize: 8
TimelineZoom: 1.8

[Metadata]
Title:Sugar
TitleUnicode:Sugar
Artist:Maroon 5
ArtistUnicode:Maroon 5
Creator:Ayate
Version:Nanachi x Aya's Sympathy
Source:
Tags:V smug nanachi ayayabob adam levine english pop rock
BeatmapID:2995994
BeatmapSetID:1457807

[Difficulty]
HPDrainRate:6
CircleSize:5
OverallDifficulty:8
ApproachRate:8.5
SliderMultiplier:1.4
SliderTickRate:1

[Events]
//Background and Video events
0,0,"69536781_p0.png",0,0
//Break Periods
//Storyboard Layer 0 (Background)
//Storyboard Layer 1 (Fail)
//Storyboard Layer 2 (Pass)
//Storyboard Layer 3 (Foreground)
//Storyboard Layer 4 (Overlay)
//Storyboard Sound Samples

[TimingPoints]
291,500,4,2,1,30,1,0
8291,-100,4,2,1,50,0,0
24291,-100,4,2,1,60,0,0
39791,-100,4,2,1,70,0,0
40291,-76.9230769230769,4,2,1,70,0,1
47791,-100,4,2,1,70,0,1
48291,-76.9230769230769,4,2,1,70,0,1
63791,-100,4,2,1,70,0,1
64291,-76.9230769230769,4,2,1,70,0,1
72291,-100,4,2,1,50,0,0
88291,-100,4,2,1,60,0,0
103791,-100,4,2,1,70,0,0
104291,-76.9230769230769,4,2,1,70,0,1
111791,-100,4,2,1,70,0,1
112291,-76.9230769230769,4,2,1,70,0,1
127791,-100,4,2,1,70,0,1
128291,-76.9230769230769,4,2,1,70,0,1
136291,-133.333333333333,4,2,1,30,0,0
151791,-100,4,2,1,60,0,0
159791,-133.333333333333,4,2,1,70,0,0
160291,-76.9230769230769,4,2,1,70,0,1
167791,-100,4,2,1,70,0,1
168291,-76.9230769230769,4,2,1,70,0,1
183791,-100,4,2,1,70,0,1
184291,-76.9230769230769,4,2,1,70,0,1
195791,-50,4,2,1,70,0,1
196291,-76.9230769230769,4,2,1,70,0,1
215791,-100,4,2,1,70,0,1
216291,-76.9230769230769,4,2,1,70,0,1
224291,-100,4,2,1,50,0,0
225791,-50,4,2,1,50,0,0
227791,-100,4,2,1,50,0,0

[Colours]
Combo1 : 128,0,255
Combo2 : 2,216,253
Combo3 : 255,157,206
Combo4 : 128,128,255
Combo5 : 163,163,163
Combo6 : 72,72,72

[HitObjects]
80,299,291,53,2,0:0:0:0:
156,335,2291,1,2,0:0:0:0:
416,219,4291,5,2,0:0:0:0:
367,286,6291,1,2,0:0:0:0:
108,317,7541,70,0,L|56:312,1,35,0|0,0:0|0:0,0:0:0:0:
113,322,8041,2,0,L|108:374,1,35,0|0,0:0|0:0,0:0:0:0:
123,384,8291,38,0,B|114:354|149:310|157:334|189:296|176:246,1,140,0|2,3:0|1:2,0:0:0:0:
119,125,9041,1,0,3:0:0:0:
173,186,9291,2,0,P|206:196|241:200,1,70,2|0,0:0|0:0,0:0:0:0:
363,300,9791,1,0,1:0:0:0:
371,208,10041,2,0,L|357:159,1,35,0|0,0:0|0:0,0:0:0:0:
355,159,10291,22,0,P|317:211|233:209,1,140,0|2,3:0|1:2,0:0:0:0:
140,322,11041,1,0,3:0:0:0:
182,384,11291,2,0,P|172:314|179:245,1,140,2|0,0:0|1:0,0:0:0:0:
169,74,12291,54,0,B|132:54|116:26|116:26|115:58|91:91,1,140,0|2,3:0|1:2,0:0:0:0:
211,163,13041,1,0,3:0:0:0:
159,218,13291,2,0,P|139:189|139:155,2,70,2|2|0,0:0|0:0|1:0,0:0:0:0:
262,217,14041,1,2,0:0:0:0:
408,88,14291,21,2,3:2:0:0:
368,254,14541,1,2,3:2:0:0:
211,163,14791,53,2,1:2:0:0:
378,242,15041,1,0,3:0:0:0:
385,168,15291,22,0,B|350:158|318:185|332:196|301:227|256:216,1,140,2|0,0:0|1:0,0:0:0:0:
0,297,16291,54,0,P|6:341|98:350,1,140,0|2,3:0|1:2,0:0:0:0:
152,256,17041,1,0,3:0:0:0:
92,221,17291,2,0,P|78:253|86:287,1,70,2|0,0:0|0:0,0:0:0:0:
211,384,17791,1,0,1:0:0:0:
284,329,18041,2,0,L|318:321,1,35,0|0,0:0|0:0,0:0:0:0:
332,327,18291,22,0,P|337:257|354:189,1,140,0|2,3:0|1:2,0:0:0:0:
225,113,19041,1,0,3:0:0:0:
259,49,19291,2,0,P|264:118|281:186,1,140,2|0,0:0|1:0,0:0:0:0:
464,384,20291,54,0,B|429:394|397:367|411:356|380:325|335:336,1,140,0|2,3:0|1:2,0:0:0:0:
440,225,21041,1,0,3:0:0:0:
374,197,21291,2,0,P|367:241|385:274,2,70,2|2|0,0:0|0:0|1:0,0:0:0:0:
450,105,22041,1,2,0:0:0:0:
270,172,22291,21,2,3:2:0:0:
216,0,22541,1,2,3:2:0:0:
40,76,22791,53,2,1:2:0:0:
216,24,23041,1,0,3:0:0:0:
251,104,23291,22,0,B|208:99|182:115|182:115|167:84|129:73,1,140,2|0,0:0|1:0,0:0:0:0:
41,178,24041,1,0,0:0:0:0:
85,356,24291,70,0,B|76:345|77:318|77:318|81:336|107:352,1,70,0|2,3:0|0:0,0:0:0:0:
149,297,24666,1,2,0:0:0:0:
149,297,24791,2,0,L|203:286,1,35,2|2,1:2|0:0,0:0:0:0:
270,276,25041,1,2,3:2:0:0:
344,384,25291,2,0,B|346:354|346:354|353:348|353:348|356:317,1,70,2|2,0:0|0:0,0:0:0:0:
429,208,25791,1,2,1:2:0:0:
346,184,26041,2,0,L|358:240,1,35,2|0,0:2|0:0,0:0:0:0:
427,356,26291,54,0,B|436:345|435:318|435:318|431:336|405:352,1,70,0|2,3:0|0:0,0:0:0:0:
363,297,26666,1,2,0:0:0:0:
363,297,26791,2,0,L|309:286,1,35,2|2,1:2|0:0,0:0:0:0:
242,276,27041,1,2,3:2:0:0:
168,384,27291,2,0,B|166:354|166:354|159:348|159:348|156:317,1,70,2|2,0:0|0:0,0:0:0:0:
83,208,27791,1,2,1:2:0:0:
166,184,28041,2,0,L|154:240,1,35,2|0,0:0|0:0,0:0:0:0:
12,231,28291,22,0,B|-15:208|-15:208|11:185,1,70,0|2,3:0|0:0,0:0:0:0:
55,122,28666,1,2,0:0:0:0:
62,119,28791,2,0,L|111:126,1,35,2|0,1:2|0:0,0:0:0:0:
142,68,29041,2,0,L|191:61,1,35,2|0,3:2|0:0,0:0:0:0:
283,141,29291,2,0,B|294:104|270:108|280:71,2,70,2|2|0,0:0|0:0|1:0,0:0:0:0:
354,82,30041,1,2,0:0:0:0:
282,222,30291,53,2,3:2:0:0:
422,326,30541,1,0,3:0:0:0:
388,158,30791,21,0,1:0:0:0:
279,231,31041,1,0,3:0:0:0:
348,289,31291,53,0,0:0:0:0:
353,278,31541,1,2,0:2:0:0:
233,384,31791,22,0,P|210:357|207:323,1,70,2|2,1:2|0:2,0:0:0:0:
80,194,32291,54,0,B|53:217|53:217|79:239,1,70,0|2,3:0|0:0,0:0:0:0:
168,216,32666,1,2,0:0:0:0:
172,220,32791,2,0,P|176:245|180:268,1,35,2|2,1:2|0:2,0:0:0:0:
206,323,33041,1,2,3:2:0:0:
323,353,33291,2,0,B|322:319|340:321|337:285,1,70,2|2,0:0|0:0,0:0:0:0:
256,192,33791,1,2,1:2:0:0:
304,99,34041,2,0,L|363:110,1,35,2|0,0:2|0:0,0:0:0:0:
432,194,34291,22,0,B|459:217|459:217|432:239,1,70,0|2,3:0|0:0,0:0:0:0:
344,216,34666,1,2,0:0:0:0:
340,220,34791,2,0,P|336:245|332:268,1,35,2|2,1:2|0:0,0:0:0:0:
306,323,35041,1,2,3:2:0:0:
189,353,35291,2,0,B|190:319|172:321|175:285,1,70,2|2,0:0|0:0,0:0:0:0:
256,192,35791,1,2,1:2:0:0:
208,99,36041,2,0,L|149:110,1,35,2|0,0:0|0:0,0:0:0:0:
47,135,36291,54,0,P|58:175|92:191,1,70,0|2,3:0|0:0,0:0:0:0:
151,193,36666,1,2,0:0:0:0:
151,193,36791,2,0,L|142:256,1,35,2|0,1:2|0:0,0:0:0:0:
92,277,37041,2,0,L|101:340,1,35,2|0,3:2|0:0,0:0:0:0:
174,384,37291,2,0,L|184:302,2,70,2|2|0,0:0|0:2|1:0,0:0:0:0:
270,315,38041,1,2,0:0:0:0:
383,370,38291,21,2,3:2:0:0:
448,222,38541,1,0,3:0:0:0:
247,239,38791,53,0,1:0:0:0:
374,281,39041,1,2,3:0:0:0:
358,166,39291,21,0,0:0:0:0:
356,178,39541,1,0,0:0:0:0:
413,96,39791,70,0,B|461:105|465:63|513:73,1,105,2|0,1:2|0:0,0:0:0:0:
507,146,40291,2,0,B|476:142|463:97|478:92|431:41|359:43,1,181.999991668702,6|0,3:2|1:0,0:0:0:0:
165,126,41041,2,0,B|139:105|120:101|120:101|156:94|173:118,1,90.9999958343508,0|0,3:0|0:0,0:0:0:0:
266,67,41541,1,0,3:0:0:0:
334,284,41791,22,0,B|347:220|286:229|301:156,1,136.499993751526,2|0,1:2|0:0,0:0:0:0:
373,119,42291,2,0,B|399:165|366:214|351:190|313:235|336:292,1,181.999991668702,2|0,3:2|1:0,0:0:0:0:
500,257,43041,2,0,B|474:236|455:232|455:232|491:225|508:249,1,90.9999958343508,0|0,3:0|0:0,0:0:0:0:
395,334,43541,1,0,3:0:0:0:
245,270,43791,1,0,1:0:0:0:
348,65,44041,53,2,0:0:0:0:
348,65,44166,1,2,0:0:0:0:
347,65,44291,2,0,P|304:77|260:89,1,90.9999958343508,2|0,3:2|0:0,0:0:0:0:
67,0,44791,1,2,1:2:0:0:
0,216,45041,1,0,3:0:0:0:
178,119,45291,1,2,3:2:0:0:
81,78,45541,2,0,P|73:122|68:168,1,90.9999958343508,2|0,3:2|1:0,0:0:0:0:
170,228,46041,2,0,P|173:251|180:273,1,45.4999979171754,2|2,3:2|0:0,0:0:0:0:
20,384,46291,21,2,3:2:0:0:
272,293,46541,1,0,3:0:0:0:
71,308,46791,53,0,1:0:0:0:
313,366,47041,1,0,3:0:0:0:
178,182,47291,21,2,0:3:0:0:
167,253,47541,1,2,0:3:0:0:
291,191,47791,54,0,B|281:158|281:158|250:131|250:131|242:102,1,105,2|0,1:2|0:0,0:0:0:0:
187,174,48291,2,0,B|228:175|228:175|310:113|310:113|348:114,1,181.999991668702,6|0,3:2|1:0,0:0:0:0:
482,259,49041,2,0,B|495:247|501:229|501:229|481:246|433:256,1,90.9999958343508,0|0,3:0|0:0,0:0:0:0:
465,130,49541,1,0,3:0:0:0:
356,323,49791,22,0,B|335:231|335:231|313:224|293:199,1,136.499993751526,2|0,1:2|0:0,0:0:0:0:
278,114,50291,2,0,B|258:245|258:245|216:268|214:307,1,181.999991668702,2|0,3:2|1:0,0:0:0:0:
122,152,51041,2,0,B|113:143|89:144|89:144|124:166|145:198,1,90.9999958343508,0|0,3:0|0:0,0:0:0:0:
292,103,51541,1,0,3:0:0:0:
120,0,51791,1,2,1:2:0:0:
16,175,52041,53,2,0:0:0:0:
16,175,52166,1,2,0:0:0:0:
16,175,52291,2,0,P|58:234|86:233,1,90.9999958343508,2|0,3:2|0:0,0:0:0:0:
291,117,52791,1,2,1:2:0:0:
219,355,53041,1,0,3:0:0:0:
98,164,53291,1,2,3:2:0:0:
366,142,53541,2,0,P|336:189|285:187,1,90.9999958343508,2|0,3:2|1:0,0:0:0:0:
185,73,54041,2,0,P|184:96|194:116,1,45.4999979171754,2|2,3:2|0:0,0:0:0:0:
301,276,54291,21,2,3:2:0:0:
386,21,54541,1,0,3:0:0:0:
269,26,54791,53,0,1:0:0:0:
417,270,55041,1,0,3:0:0:0:
458,149,55291,21,2,0:3:0:0:
458,159,55541,54,0,L|397:147,1,45.4999979171754,0|0,3:0|0:0,0:0:0:0:
292,293,55791,2,0,L|353:281,1,45.4999979171754,0|0,1:0|0:0,0:0:0:0:
335,100,56041,2,0,L|274:112,1,45.4999979171754,2|0,3:2|0:0,0:0:0:0:
52,179,56291,6,0,B|121:183|106:234|173:235,1,136.499993751526,6|0,3:2|0:0,0:0:0:0:
185,217,56791,1,2,1:2:0:0:
14,326,57041,1,0,3:0:0:0:
86,384,57291,2,0,P|91:338|101:294,1,90.9999958343508,2|2,3:2|0:0,0:0:0:0:
26,159,57791,1,0,1:0:0:0:
152,69,58041,2,0,P|152:92|160:114,1,45.4999979171754,2|2,3:2|0:0,0:0:0:0:
319,211,58291,53,2,3:2:0:0:
349,119,58541,1,0,3:0:0:0:
344,284,58791,1,2,1:2:0:0:
335,103,59041,1,0,3:0:0:0:
490,176,59291,2,0,P|400:179|311:228,1,181.999991668702,2|0,3:2|1:0,0:0:0:0:
226,59,60041,21,2,0:0:0:0:
226,59,60166,1,2,0:0:0:0:
226,59,60291,2,0,P|208:138|202:235,1,136.499993751526,2|0,3:2|0:0,0:0:0:0:
211,212,60791,1,2,1:2:0:0:
85,384,61041,1,2,3:2:0:0:
177,355,61291,2,0,P|170:309|157:266,1,90.9999958343508,2|2,3:2|0:0,0:0:0:0:
325,158,61791,1,0,1:0:0:0:
325,289,62041,2,0,P|305:277|283:270,1,45.4999979171754,2|2,3:2|0:0,0:0:0:0:
126,165,62291,53,0,3:0:0:0:
351,71,62541,1,0,3:0:0:0:
138,0,62791,21,2,1:2:0:0:
77,234,63041,1,0,3:0:0:0:
263,102,63291,53,2,0:3:0:0:
179,100,63541,1,2,0:3:0:0:
0,176,63791,22,0,B|-1:126|35:131|35:79,1,105,4|0,1:2|0:0,0:0:0:0:
0,13,64291,2,0,P|27:96|109:128,1,181.999991668702,6|0,3:2|1:0,0:0:0:0:
292,0,65041,2,0,P|248:0|223:36,1,90.9999958343508,0|0,3:0|0:0,0:0:0:0:
114,134,65541,1,0,3:0:0:0:
300,275,65791,54,0,B|366:277|358:323|423:326,1,136.499993751526,2|0,1:2|0:0,0:0:0:0:
401,184,66291,2,0,P|330:192|297:297,1,181.999991668702,2|0,3:2|1:0,0:0:0:0:
470,384,67041,2,0,P|495:348|486:303,1,90.9999958343508,0|0,3:0|0:0,0:0:0:0:
352,355,67541,1,0,3:0:0:0:
198,296,67791,1,0,1:0:0:0:
296,177,68041,2,0,L|307:110,1,45.4999979171754,2|0,3:2|0:0,0:0:0:0:
198,218,68291,22,0,B|139:225|144:271|80:278,1,136.499993751526,2|0,3:2|0:0,0:0:0:0:
59,261,68791,1,2,1:2:0:0:
218,141,69041,1,0,3:0:0:0:
60,50,69291,1,2,3:2:0:0:
133,150,69541,2,0,P|134:104|144:60,1,90.9999958343508,2|0,3:2|1:0,0:0:0:0:
307,103,70041,2,0,P|291:86|284:64,1,45.4999979171754,2|2,3:2|0:0,0:0:0:0:
146,52,70291,53,2,3:2:0:0:
400,6,70541,1,0,3:0:0:0:
282,243,70791,21,0,1:0:0:0:
213,0,71041,1,0,3:0:0:0:
314,107,71291,53,2,0:3:0:0:
115,164,71541,21,8,0:3:0:0:
420,220,71791,1,0,1:0:0:0:
115,164,72041,1,8,0:3:0:0:
420,220,72291,70,0,P|401:280|316:294,1,140,0|2,3:0|1:2,0:0:0:0:
216,159,73041,1,0,3:0:0:0:
280,243,73291,2,0,P|283:208|292:174,1,70,2|0,0:0|0:0,0:0:0:0:
143,281,73791,1,0,1:0:0:0:
91,189,74041,2,0,L|82:143,1,35,0|0,0:0|0:0,0:0:0:0:
95,144,74291,22,0,B|135:138|157:118|157:118|179:147|229:164,1,140,0|2,3:0|1:2,0:0:0:0:
148,39,75041,1,0,3:0:0:0:
255,26,75291,2,0,P|256:60|228:92,1,70,2|0,0:0|0:0,0:0:0:0:
400,197,75791,2,0,P|386:139|391:112,1,70,0|0,1:0|0:0,0:0:0:0:
236,271,76291,54,0,P|167:284|104:314,1,140,0|2,3:0|1:2,0:0:0:0:
207,175,77041,1,0,3:0:0:0:
110,139,77291,2,0,B|100:169|120:174|107:208,2,70,2|2|0,0:0|0:0|1:0,0:0:0:0:
33,47,78041,1,2,0:0:0:0:
172,59,78291,21,2,3:2:0:0:
17,166,78541,1,2,3:2:0:0:
183,65,78791,53,2,1:2:0:0:
268,227,79041,1,2,3:2:0:0:
182,289,79291,22,0,B|163:259|187:217|185:231|206:191|180:153,1,140,2|0,0:0|1:0,0:0:0:0:
446,93,80291,54,0,P|385:66|376:0,1,140,0|2,3:0|1:2,0:0:0:0:
349,142,81041,1,0,3:2:0:0:
267,115,81291,2,0,P|268:80|290:54,1,70,2|0,0:0|0:0,0:0:0:0:
452,101,81791,1,0,1:0:0:0:
403,231,82041,2,0,L|363:237,1,35,0|0,0:0|0:0,0:0:0:0:
356,222,82291,22,0,P|335:329|333:371,1,140,0|2,3:0|1:2,0:0:0:0:
269,233,83041,1,0,3:0:0:0:
195,291,83291,2,0,P|164:308|129:311,1,70,2|0,0:0|0:0,0:0:0:0:
12,202,83791,2,0,P|42:218|77:221,1,70,0|0,1:0|0:0,0:0:0:0:
219,88,84291,54,0,B|195:54|195:54|164:168,1,140,0|2,3:0|1:2,0:0:0:0:
333,222,85041,1,2,3:2:0:0:
311,104,85291,2,0,L|296:35,2,70,2|2|0,0:0|0:0|1:0,0:0:0:0:
335,230,86041,1,2,0:0:0:0:
450,131,86291,21,2,3:2:0:0:
251,207,86541,1,2,3:2:0:0:
451,236,86791,53,2,1:2:0:0:
242,198,87041,1,2,3:2:0:0:
335,311,87291,22,0,B|370:311|394:269|383:278|406:239|451:242,1,140,2|0,0:0|1:0,0:0:0:0:
369,159,88041,1,0,0:0:0:0:
486,35,88291,70,0,B|476:56|476:56|431:65,1,70,0|2,3:0|0:0,0:0:0:0:
367,21,88666,1,2,0:0:0:0:
359,17,88791,2,0,L|311:0,1,35,2|2,1:2|0:0,0:0:0:0:
256,64,89041,1,2,3:2:0:0:
349,137,89291,2,0,P|338:173|339:235,1,70,2|2,0:0|0:0,0:0:0:0:
207,212,89791,1,2,1:2:0:0:
163,137,90041,2,0,P|136:131|114:119,1,35,2|0,0:0|0:0,0:0:0:0:
26,35,90291,54,0,B|36:56|36:56|81:65,1,70,0|2,3:0|0:0,0:0:0:0:
145,21,90666,1,2,0:2:0:0:
153,17,90791,2,0,L|185:5,1,35,2|2,1:2|0:0,0:0:0:0:
256,64,91041,1,2,3:2:0:0:
163,137,91291,2,0,P|174:173|173:235,1,70,2|2,0:0|0:0,0:0:0:0:
305,212,91791,1,2,1:2:0:0:
318,110,92041,2,0,P|345:104|367:92,1,35,2|0,0:0|0:0,0:0:0:0:
448,161,92291,22,0,P|452:195|430:222,1,70,0|2,3:0|0:0,0:0:0:0:
374,267,92666,1,2,0:0:0:0:
368,271,92791,2,0,L|361:311,1,35,2|0,1:2|0:0,0:0:0:0:
292,346,93041,2,0,L|285:306,1,35,2|0,3:2|0:0,0:0:0:0:
187,222,93291,2,0,B|154:225|156:248|121:245,2,70,2|2|0,0:0|0:0|1:0,0:0:0:0:
281,165,94041,1,2,0:0:0:0:
128,0,94291,53,2,3:2:0:0:
329,39,94541,1,0,3:0:0:0:
115,169,94791,21,0,1:0:0:0:
136,13,95041,1,0,3:0:0:0:
198,129,95291,53,0,0:0:0:0:
187,128,95541,1,0,0:0:0:0:
42,142,95791,22,0,P|36:177|46:210,1,70,2|2,1:2|0:0,0:0:0:0:
70,350,96291,54,0,P|42:334|58:306,1,70,0|2,3:0|0:0,0:0:0:0:
133,308,96666,1,2,0:0:0:0:
133,308,96791,2,0,P|149:312|167:314,1,35,2|2,1:2|0:0,0:0:0:0:
256,272,97041,1,2,3:2:0:0:
184,120,97291,2,0,B|186:158|160:151|170:202,1,70,2|2,0:0|0:0,0:0:0:0:
256,272,97791,1,2,1:2:0:0:
344,186,98041,2,0,L|360:231,1,35,2|0,0:0|0:0,0:0:0:0:
442,350,98291,22,0,P|470:334|454:306,1,70,0|2,3:0|0:0,0:0:0:0:
379,308,98666,1,2,0:0:0:0:
379,308,98791,2,0,P|363:312|345:314,1,35,2|2,1:2|0:0,0:0:0:0:
256,272,99041,1,2,3:2:0:0:
328,120,99291,2,0,B|326:158|352:151|342:202,1,70,2|2,0:0|0:0,0:0:0:0:
256,272,99791,1,2,1:2:0:0:
168,186,100041,2,0,L|152:231,1,35,2|0,0:0|0:0,0:0:0:0:
29,216,100291,54,0,B|2:193|2:193|28:170,1,70,0|2,3:0|0:0,0:0:0:0:
65,110,100666,1,2,0:0:0:0:
72,107,100791,2,0,L|121:114,1,35,2|0,1:2|0:0,0:0:0:0:
167,69,101041,2,0,L|216:62,1,35,2|0,3:2|0:0,0:0:0:0:
272,130,101291,2,0,P|245:151|211:146,2,70,2|2|0,0:0|0:0|1:0,0:0:0:0:
335,27,102041,1,2,0:0:0:0:
494,154,102291,21,2,3:2:0:0:
310,207,102541,1,0,3:0:0:0:
371,287,102791,53,0,1:0:0:0:
384,101,103041,1,0,3:0:0:0:
483,261,103291,21,0,1:0:0:0:
384,108,103541,1,0,3:0:0:0:
283,294,103791,70,0,B|243:323|223:286|182:319,1,105,2|0,3:2|0:0,0:0:0:0:
114,384,104291,2,0,B|130:290|186:324|198:227,1,181.999991668702,6|0,3:2|1:0,0:0:0:0:
53,142,105041,2,0,B|41:119|57:92|57:92|55:113|71:134,1,90.9999958343508,0|0,3:0|0:0,0:0:0:0:
120,232,105541,1,2,0:0:0:0:
244,38,105791,22,0,P|266:110|336:138,1,136.499993751526,2|0,1:2|0:0,0:0:0:0:
439,127,106291,2,0,P|352:151|295:220,1,181.999991668702,2|0,3:2|1:0,0:0:0:0:
440,332,107041,2,0,B|452:309|436:282|436:282|438:303|422:324,1,90.9999958343508,0|0,3:2|0:0,0:0:0:0:
331,380,107541,1,0,3:0:0:0:
507,231,107791,1,0,1:0:0:0:
329,307,108041,53,2,0:0:0:0:
329,307,108166,1,2,0:0:0:0:
329,307,108291,2,0,B|283:303|283:335|245:336,1,90.9999958343508,2|0,3:2|0:0,0:0:0:0:
85,216,108791,1,2,1:2:0:0:
0,384,109041,1,2,3:2:0:0:
201,274,109291,1,2,3:2:0:0:
5,212,109541,2,0,P|8:257|54:289,1,90.9999958343508,2|0,3:2|1:0,0:0:0:0:
149,384,110041,2,0,P|149:361|156:339,1,45.4999979171754,2|2,3:2|0:0,0:0:0:0:
284,155,110291,21,2,3:2:0:0:
45,49,110541,1,0,3:0:0:0:
309,0,110791,53,0,1:0:0:0:
58,51,111041,1,0,3:0:0:0:
201,203,111291,21,2,0:3:0:0:
192,131,111541,1,2,0:3:0:0:
402,10,111791,54,0,B|376:17|373:57|377:50|374:82|345:94,1,105,2|0,1:2|0:0,0:0:0:0:
267,104,112291,2,0,B|316:92|353:135|341:129|386:182|430:167,1,181.999991668702,6|0,3:2|1:0,0:0:0:0:
512,329,113041,2,0,B|494:345|494:345|518:300|505:251,1,90.9999958343508,0|0,3:0|0:0,0:0:0:0:
432,175,113541,1,0,3:0:0:0:
295,315,113791,22,0,P|232:289|253:216,1,136.499993751526,2|0,1:2|0:0,0:0:0:0:
284,137,114291,2,0,P|229:198|139:145,1,181.999991668702,2|0,3:2|1:0,0:0:0:0:
269,23,115041,2,0,B|242:5|242:5|268:41|276:69,1,90.9999958343508,0|0,3:0|0:0,0:0:0:0:
145,153,115541,1,0,3:0:0:0:
349,206,115791,1,0,1:0:0:0:
238,379,116041,53,2,0:0:0:0:
238,379,116166,1,2,0:0:0:0:
238,379,116291,2,0,B|223:335|267:329|239:255,1,90.9999958343508,2|0,3:2|0:0,0:0:0:0:
349,99,116791,1,2,1:2:0:0:
470,286,117041,1,2,3:2:0:0:
249,218,117291,1,2,3:2:0:0:
418,163,117541,2,0,P|406:207|400:252,1,90.9999958343508,2|0,3:2|1:0,0:0:0:0:
248,289,118041,2,0,P|249:312|259:332,1,45.4999979171754,2|2,3:2|0:0,0:0:0:0:
462,365,118291,21,2,3:2:0:0:
392,83,118541,1,0,3:0:0:0:
152,234,118791,53,0,1:0:0:0:
418,163,119041,1,0,3:0:0:0:
207,14,119291,21,2,0:3:0:0:
195,17,119541,54,0,P|186:42|181:74,1,45.4999979171754,2|0,3:2|0:0,0:0:0:0:
237,232,119791,2,0,P|232:209|224:188,1,45.4999979171754,2|0,1:2|0:0,0:0:0:0:
103,64,120041,2,0,P|107:86|115:107,1,45.4999979171754,2|0,3:2|0:0,0:0:0:0:
121,358,120291,6,0,B|182:356|177:305|257:300,1,136.499993751526,6|0,3:2|0:0,0:0:0:0:
260,310,120791,1,2,1:2:0:0:
417,212,121041,1,0,3:2:0:0:
348,131,121291,2,0,P|294:125|249:111,1,90.9999958343508,2|2,3:2|0:0,0:0:0:0:
333,251,121791,1,0,1:0:0:0:
346,137,122041,2,0,P|332:154|330:177,1,45.4999979171754,2|2,3:2|0:0,0:0:0:0:
383,324,122291,53,2,3:2:0:0:
210,238,122541,1,0,3:0:0:0:
89,384,122791,1,2,1:2:0:0:
256,300,123041,1,0,3:0:0:0:
162,162,123291,2,0,P|173:246|194:356,1,181.999991668702,2|0,3:2|1:0,0:0:0:0:
361,168,124041,21,2,0:0:0:0:
361,168,124166,1,2,0:0:0:0:
361,168,124291,2,0,P|306:213|232:204,1,136.499993751526,2|0,3:2|0:0,0:0:0:0:
236,191,124791,1,2,1:2:0:0:
69,117,125041,1,0,3:0:0:0:
132,54,125291,2,0,P|191:42|227:25,1,90.9999958343508,2|2,3:2|0:0,0:0:0:0:
132,197,125791,1,0,1:0:0:0:
307,291,126041,2,0,P|311:268|316:246,1,45.4999979171754,2|2,3:2|0:0,0:0:0:0:
264,97,126291,53,2,3:2:0:0:
121,322,126541,1,0,3:0:0:0:
6,78,126791,21,2,1:2:0:0:
239,183,127041,1,0,3:0:0:0:
28,265,127291,53,2,0:3:0:0:
13,193,127541,1,2,0:3:0:0:
134,39,127791,22,0,B|128:93|170:82|167:136,1,105,6|0,1:2|0:0,0:0:0:0:
244,190,128291,2,0,B|223:191|202:208|202:208|163:137|239:95,1,181.999991668702,6|2,3:2|1:2,0:0:0:0:
423,141,129041,1,0,3:0:0:0:
356,26,129291,2,0,P|305:18|343:54,1,136.499993751526,2|0,3:2|0:0,0:0:0:0:
434,0,129791,54,0,P|417:81|421:168,1,136.499993751526,2|0,1:2|0:0,0:0:0:0:
489,218,130291,2,0,B|412:222|421:137|322:144,1,181.999991668702,2|2,3:2|1:2,0:0:0:0:
189,302,131041,1,0,3:0:0:0:
290,208,131291,2,0,B|253:181|249:149|249:149|238:191|271:212,1,136.499993751526,2|0,3:2|0:0,0:0:0:0:
270,228,131791,1,0,1:2:0:0:
371,116,132041,2,0,P|337:139|321:139,1,45.4999979171754,2|2,3:2|0:0,0:0:0:0:
180,0,132291,22,0,P|211:58|276:73,1,136.499993751526,2|0,3:2|0:0,0:0:0:0:
294,57,132791,1,2,1:2:0:0:
443,168,133041,1,0,3:0:0:0:
463,64,133291,2,0,P|423:86|378:95,1,90.9999958343508,2|2,3:2|0:0,0:0:0:0:
258,244,133791,1,0,1:0:0:0:
373,100,134041,2,0,P|367:122|366:144,1,45.4999979171754,2|2,3:2|0:0,0:0:0:0:
456,299,134291,53,2,3:2:0:0:
185,221,134541,1,0,3:2:0:0:
495,164,134791,21,0,1:0:0:0:
298,342,135041,1,0,3:0:0:0:
292,143,135291,53,8,0:3:0:0:
339,263,135541,1,4,0:3:0:0:
83,384,135791,21,0,1:0:0:0:
104,273,136041,1,2,0:3:0:0:
237,232,136291,22,0,B|264:170|237:93|81:145|122:-27|247:-8|259:89|220:134|140:162,1,367.500014019013,2|0,0:0|0:0,0:0:0:0:
93,301,138291,6,0,B|190:185|327:302|274:332|341:388|413:349,1,367.500014019013,2|0,0:0|0:0,0:0:0:0:
446,93,140291,70,0,B|323:135|289:285|379:358|418:291|387:205|305:203,1,367.500014019013,2|0,0:0|0:0,0:0:0:0:
99,200,142291,6,0,B|126:124|212:86|299:130|299:130|260:134|246:163|255:171|230:197|201:199,1,367.500014019013,2|0,0:0|0:0,0:0:0:0:
106,384,144291,70,0,B|91:240|7:82|7:82|13:108|2:141,1,367.500014019013,2|0,0:0|0:0,0:0:0:0:
199,233,146291,6,0,B|185:208|135:242|175:292|240:268|288:222|233:168|241:130|306:97|306:97|275:131|305:167|263:188,1,367.500014019013,2|0,0:0|0:0,0:0:0:0:
166,158,148291,70,0,B|119:143|84:167|84:167|246:179|340:272,1,367.500014019013,2|0,0:0|0:0,0:0:0:0:
512,92,150291,2,0,B|487:144|503:221|503:221|487:145|435:100,1,262.500010013581,2|0,0:0|0:0,0:0:0:0:
426,24,151791,54,0,P|403:13|361:3,1,35,0|0,1:0|0:0,0:0:0:0:
429,32,152291,54,0,B|364:46|381:94|294:111,1,140,4|2,3:2|1:2,0:0:0:0:
201,23,153041,1,0,3:2:0:0:
73,60,153291,1,2,0:0:0:0:
68,66,153791,2,0,B|77:126|107:101|115:160,1,105,2|0,1:2|0:0,0:0:0:0:
195,164,154291,22,0,P|128:184|73:227,1,140,0|2,3:2|1:2,0:0:0:0:
144,384,155041,1,0,3:0:0:0:
22,322,155291,1,2,0:0:0:0:
24,309,155791,2,0,B|72:290|75:328|150:302,1,105,2|0,1:2|0:0,0:0:0:0:
196,304,156291,54,0,P|206:278|195:210,1,70,0|2,3:0|0:0,0:0:0:0:
252,183,156666,1,2,0:0:0:0:
260,189,156791,2,0,P|293:210|299:212,1,35,2|0,1:2|0:0,0:0:0:0:
325,119,157041,2,0,P|343:153|347:158,1,35,2|0,3:2|0:0,0:0:0:0:
425,221,157291,2,0,P|435:187|439:152,1,70,2|0,0:0|0:0,0:0:0:0:
450,134,157666,2,0,L|504:119,1,35,2|0,0:0|1:0,0:0:0:0:
376,26,158041,21,2,0:0:0:0:
376,26,158166,1,2,0:0:0:0:
376,26,158291,2,0,L|363:79,1,35,2|0,3:2|0:0,0:0:0:0:
265,52,158541,2,0,L|252:105,1,35,2|0,3:2|0:0,0:0:0:0:
100,134,158791,54,0,L|113:187,1,35,2|0,1:2|0:0,0:0:0:0:
211,160,159041,2,0,L|224:213,1,35,0|0,3:0|0:0,0:0:0:0:
315,248,159291,21,2,0:0:0:0:
315,248,159541,1,2,0:0:0:0:
306,259,159791,54,0,P|301:238|302:256,1,78.7500030040742,2|0,0:0|0:0,0:0:0:0:
249,326,160291,6,0,B|300:325|335:278|317:284|355:227|412:239,1,181.999991668702,6|0,3:2|1:0,0:0:0:0:
406,384,161041,2,0,B|384:370|372:346|372:346|372:380|395:408,1,90.9999958343508,0|0,3:2|0:0,0:0:0:0:
407,244,161541,1,0,3:0:0:0:
247,324,161791,22,0,B|203:285|244:246|195:203,1,136.499993751526,2|0,1:2|0:0,0:0:0:0:
103,203,162291,2,0,B|157:140|212:195|266:135,1,181.999991668702,2|0,3:2|1:0,0:0:0:0:
407,43,163041,2,0,B|393:21|369:9|369:9|403:9|431:32,1,90.9999958343508,0|0,3:0|0:0,0:0:0:0:
269,130,163541,1,0,3:0:0:0:
463,205,163791,1,0,1:0:0:0:
304,294,164041,53,2,0:0:0:0:
304,294,164166,1,2,0:0:0:0:
304,294,164291,2,0,P|277:251|303:197,1,90.9999958343508,2|0,3:2|0:0,0:0:0:0:
479,115,164791,1,2,1:2:0:0:
512,318,165041,1,2,3:2:0:0:
366,153,165291,1,2,3:2:0:0:
436,306,165541,2,0,P|435:261|456:217,1,90.9999958343508,2|0,3:2|1:0,0:0:0:0:
413,56,166041,2,0,P|395:70|374:77,1,45.4999979171754,2|2,3:2|0:0,0:0:0:0:
236,209,166291,21,2,3:2:0:0:
110,12,166541,1,0,3:0:0:0:
4,288,166791,53,0,1:0:0:0:
40,67,167041,1,0,3:0:0:0:
181,261,167291,21,2,0:3:0:0:
106,251,167541,1,2,0:3:0:0:
276,369,167791,54,0,P|319:358|324:293,1,105,2|0,1:2|0:0,0:0:0:0:
406,261,168291,2,0,P|321:269|293:169,1,181.999991668702,6|2,3:2|1:2,0:0:0:0:
419,72,169041,1,0,3:0:0:0:
290,184,169291,2,0,B|247:180|244:150|206:149,1,90.9999958343508,2|0,3:2|0:0,0:0:0:0:
102,20,169791,22,0,B|71:28|71:28|134:36|167:65,1,136.499993751526,2|0,1:2|0:0,0:0:0:0:
109,177,170291,2,0,B|123:209|123:209|127:107|191:47,1,181.999991668702,2|2,3:2|1:2,0:0:0:0:
275,155,171041,1,0,3:0:0:0:
137,277,171291,2,0,P|93:279|62:248,1,90.9999958343508,2|0,3:2|0:0,0:0:0:0:
171,79,171791,1,2,1:2:0:0:
307,243,172041,53,2,0:0:0:0:
307,243,172166,1,2,0:0:0:0:
307,243,172291,2,0,L|406:265,1,90.9999958343508,2|0,3:2|0:0,0:0:0:0:
462,36,172791,1,2,1:2:0:0:
276,119,173041,1,2,3:2:0:0:
464,219,173291,1,2,3:2:0:0:
399,92,173541,2,0,P|383:135|379:180,1,90.9999958343508,2|0,3:2|1:0,0:0:0:0:
254,296,174041,2,0,P|238:280|232:259,1,45.4999979171754,2|2,3:2|0:0,0:0:0:0:
172,79,174291,21,2,3:2:0:0:
129,219,174541,1,0,3:2:0:0:
228,34,174791,53,0,1:0:0:0:
130,143,175041,1,0,3:0:0:0:
304,22,175291,21,0,1:0:0:0:
56,134,175541,1,0,3:0:0:0:
377,34,175791,53,0,1:0:0:0:
86,25,176041,1,0,3:0:0:0:
382,40,176291,22,0,P|359:115|356:182,1,136.499993751526,6|0,3:2|0:0,0:0:0:0:
363,184,176791,1,2,1:2:0:0:
204,73,177041,1,0,3:0:0:0:
166,184,177291,2,0,P|193:237|232:263,1,90.9999958343508,2|2,3:2|0:0,0:0:0:0:
349,384,177791,2,0,P|350:337|377:274,1,90.9999958343508,0|2,1:0|0:0,0:0:0:0:
201,341,178291,53,0,3:0:0:0:
349,214,178541,1,0,3:0:0:0:
165,171,178791,1,2,1:2:0:0:
140,384,179041,1,0,3:0:0:0:
259,228,179291,2,0,B|283:185|250:138|249:156|216:111|239:55,1,181.999991668702,2|0,3:2|1:0,0:0:0:0:
387,131,180041,21,2,0:0:0:0:
387,131,180166,1,2,0:0:0:0:
387,131,180291,2,0,P|342:130|314:90,1,90.9999958343508,2|0,3:2|0:0,0:0:0:0:
129,195,180791,1,2,1:2:0:0:
245,53,181041,1,0,3:0:0:0:
47,0,181291,1,2,3:2:0:0:
115,119,181541,2,0,P|120:73|128:29,1,90.9999958343508,2|0,3:2|1:0,0:0:0:0:
293,32,182041,2,0,P|270:37|249:44,1,45.4999979171754,2|2,3:2|0:0,0:0:0:0:
42,137,182291,53,2,3:2:0:0:
326,214,182541,1,0,3:0:0:0:
122,333,182791,21,0,1:0:0:0:
402,243,183041,1,0,3:0:0:0:
214,118,183291,53,2,0:3:0:0:
198,190,183541,1,2,0:3:0:0:
400,345,183791,6,0,P|421:294|403:243,1,105,6|0,1:2|0:0,0:0:0:0:
326,219,184291,2,0,B|353:189|343:135|343:135|371:172|424:172,1,181.999991668702,6|2,3:2|1:2,0:0:0:0:
322,309,185041,1,0,3:0:0:0:
177,262,185291,2,0,B|216:262|237:234|237:234|230:274|250:297,1,136.499993751526,2|0,3:2|0:0,0:0:0:0:
324,316,185791,54,0,P|253:324|184:353,1,136.499993751526,2|0,1:2|0:0,0:0:0:0:
76,248,186291,2,0,B|85:276|101:282|101:282|95:197|164:128,1,181.999991668702,2|2,3:2|1:2,0:0:0:0:
42,31,187041,1,0,3:0:0:0:
148,159,187291,2,0,B|175:153|175:153|266:163|266:163|282:158,1,136.499993751526,2|0,3:2|0:0,0:0:0:0:
281,149,187791,1,2,1:2:0:0:
391,268,188041,2,0,L|380:326,1,45.4999979171754,2|2,3:2|0:0,0:0:0:0:
512,152,188291,22,0,P|461:204|390:172,1,136.499993751526,2|0,3:2|0:0,0:0:0:0:
400,179,188791,1,2,1:2:0:0:
218,75,189041,1,2,3:2:0:0:
361,0,189291,2,0,P|342:41|332:85,1,90.9999958343508,2|2,3:2|0:0,0:0:0:0:
179,189,189791,1,2,1:2:0:0:
345,251,190041,2,0,P|330:212|328:185,1,45.4999979171754,2|2,3:2|0:0,0:0:0:0:
218,62,190291,53,2,3:2:0:0:
135,322,190541,1,0,3:0:0:0:
409,194,190791,21,0,1:0:0:0:
135,89,191041,1,0,3:0:0:0:
345,20,191291,53,2,0:3:0:0:
324,86,191541,1,2,0:3:0:0:
133,97,191791,22,0,L|158:174,1,45.4999979171754,2|0,1:2|0:0,0:0:0:0:
252,222,192041,1,0,1:0:0:0:
276,231,192166,1,0,1:0:0:0:
276,204,192291,2,0,B|199:206|193:282|117:283,1,181.999991668702,6|0,3:2|1:0,0:0:0:0:
287,384,193041,2,0,P|290:319|318:271,1,90.9999958343508,0|0,3:0|0:0,0:0:0:0:
338,147,193541,1,0,3:0:0:0:
125,201,193791,54,0,P|98:137|150:69,1,136.499993751526,2|0,1:2|0:0,0:0:0:0:
80,0,194291,2,0,P|142:47|263:80,1,181.999991668702,2|0,3:2|1:0,0:0:0:0:
188,264,195041,2,0,P|229:247|261:215,1,90.9999958343508,0|0,3:0|0:0,0:0:0:0:
437,68,195541,1,0,0:0:0:0:
437,68,195666,1,0,0:0:0:0:
437,68,195791,22,0,L|338:48,1,70,2|0,1:1|0:0,0:0:0:0:
358,56,196291,54,0,B|362:125|418:109|415:174,1,136.499993751526,2|0,3:2|0:0,0:0:0:0:
402,186,196791,1,2,1:2:0:0:
210,117,197041,1,0,3:0:0:0:
259,295,197291,2,0,P|274:217|289:174,1,90.9999958343508,2|2,3:2|0:0,0:0:0:0:
188,42,197791,1,0,1:0:0:0:
77,205,198041,2,0,P|99:192|130:185,1,45.4999979171754,2|2,3:2|0:0,0:0:0:0:
322,140,198291,21,2,3:2:0:0:
60,53,198541,1,0,3:0:0:0:
315,123,198791,53,0,1:0:0:0:
243,377,199041,1,0,3:0:0:0:
129,189,199291,21,2,0:3:0:0:
157,117,199541,1,2,0:3:0:0:
364,214,199791,54,0,P|356:258|258:264,1,136.499993751526,2|0,1:2|0:0,0:0:0:0:
248,374,200291,2,0,P|249:276|219:159,1,181.999991668702,4|2,3:2|1:2,0:0:0:0:
67,133,201041,1,0,3:0:0:0:
229,187,201291,2,0,B|222:220|187:243|138:231|121:202|150:182|166:203,1,136.499993751526,2|0,3:2|0:0,0:0:0:0:
236,113,201791,22,0,B|299:117|288:170|356:178,1,136.499993751526,2|0,1:2|0:0,0:0:0:0:
434,30,202291,2,0,B|478:39|478:39|416:57|358:104,1,181.999991668702,2|2,3:2|1:2,0:0:0:0:
281,261,203041,1,0,3:0:0:0:
419,149,203291,2,0,P|430:169|436:191,1,45.4999979171754,2|0,3:2|0:0,0:0:0:0:
368,364,203541,2,0,P|357:344|351:322,1,45.4999979171754,2|0,3:2|0:0,0:0:0:0:
383,254,203791,1,0,1:0:0:0:
146,346,204041,53,2,0:2:0:0:
146,346,204166,1,2,0:2:0:0:
146,346,204291,2,0,B|214:339|201:275|287:272,1,136.499993751526,2|0,3:2|0:0,0:0:0:0:
281,261,204791,1,2,1:2:0:0:
154,104,205041,1,0,3:0:0:0:
137,266,205291,2,0,P|152:218|153:163,1,90.9999958343508,2|2,3:2|0:0,0:0:0:0:
336,89,205791,1,0,1:0:0:0:
202,1,206041,2,0,P|204:24|214:44,1,45.4999979171754,2|2,3:2|0:0,0:0:0:0:
347,198,206291,21,2,3:2:0:0:
228,169,206541,2,0,L|290:185,1,45.4999979171754,2|0,3:2|0:0,0:0:0:0:
359,207,206791,53,0,1:0:0:0:
193,253,207041,2,0,L|255:237,1,45.4999979171754,2|0,3:2|0:0,0:0:0:0:
377,200,207291,21,0,1:0:0:0:
157,87,207541,2,0,L|219:103,1,45.4999979171754,2|0,3:2|0:0,0:0:0:0:
398,206,207791,53,0,1:0:0:0:
112,342,208041,2,0,L|174:326,1,45.4999979171754,2|0,3:2|0:0,0:0:0:0:
408,294,208291,6,0,B|374:290|348:323|359:318|330:355|288:351,1,136.499993751526,6|0,3:2|0:0,0:0:0:0:
269,334,208791,1,2,1:2:0:0:
431,198,209041,1,0,3:0:0:0:
265,183,209291,2,0,P|272:233|305:268,1,90.9999958343508,2|2,3:2|0:0,0:0:0:0:
429,384,209791,2,0,P|432:338|444:294,1,90.9999958343508,0|2,1:0|0:0,0:0:0:0:
356,107,210291,21,0,3:0:0:0:
160,172,210541,1,0,3:0:0:0:
357,191,210791,1,2,1:2:0:0:
184,90,211041,1,0,3:0:0:0:
254,233,211291,2,0,P|262:142|284:54,1,181.999991668702,2|0,3:2|1:0,0:0:0:0:
512,0,212041,53,2,0:0:0:0:
512,0,212166,1,2,0:0:0:0:
512,0,212291,2,0,P|506:52|480:111,1,90.9999958343508,2|0,3:2|0:0,0:0:0:0:
285,46,212791,1,2,1:2:0:0:
440,181,213041,1,2,3:2:0:0:
325,298,213291,1,2,3:2:0:0:
363,154,213541,2,0,P|367:227|393:262,1,90.9999958343508,2|0,3:2|1:0,0:0:0:0:
238,384,214041,2,0,P|250:364|254:342,1,45.4999979171754,0|2,3:2|0:0,0:0:0:0:
446,275,214291,21,2,3:2:0:0:
169,225,214541,1,0,3:0:0:0:
419,111,214791,53,2,1:2:0:0:
495,377,215041,1,2,3:2:0:0:
270,269,215291,21,2,0:3:0:0:
291,202,215541,1,2,0:3:0:0:
307,24,215791,54,0,B|277:27|261:61|269:54|257:83|227:91,1,105,2|0,1:2|0:0,0:0:0:0:
155,78,216291,2,0,B|202:92|223:142|209:130|238:188|288:195,1,181.999991668702,6|2,3:2|1:2,0:0:0:0:
425,105,217041,1,0,3:2:0:0:
358,259,217291,2,0,B|379:214|352:209|377:155,1,90.9999958343508,2|0,3:2|0:0,0:0:0:0:
158,74,217791,22,0,P|95:93|77:156,1,136.499993751526,2|0,1:2|0:0,0:0:0:0:
141,298,218291,2,0,P|154:228|67:149,1,181.999991668702,2|2,3:2|1:2,0:0:0:0:
0,0,219041,1,0,3:0:0:0:
155,66,219291,2,0,L|265:45,1,90.9999958343508,2|0,3:2|0:0,0:0:0:0:
409,149,219791,1,0,1:2:0:0:
281,268,220041,53,2,0:2:0:0:
275,271,220166,1,2,0:2:0:0:
271,275,220291,2,0,P|241:223|264:171,1,90.9999958343508,2|0,3:2|0:0,0:0:0:0:
377,13,220791,1,2,1:2:0:0:
512,180,221041,1,2,3:2:0:0:
284,127,221291,1,2,3:2:0:0:
472,0,221541,2,0,P|455:42|451:87,1,90.9999958343508,2|0,3:2|1:0,0:0:0:0:
479,259,222041,2,0,P|460:246|438:238,1,45.4999979171754,2|0,3:2|0:0,0:0:0:0:
261,354,222291,21,2,3:2:0:0:
363,124,222541,1,0,3:0:0:0:
87,23,222791,53,0,1:0:0:0:
166,284,223041,1,0,3:0:0:0:
370,115,223291,21,0,1:0:0:0:
222,66,223541,1,8,0:3:0:0:
162,292,223791,53,0,1:0:0:0:
316,249,224041,1,4,0:3:0:0:
251,148,224291,37,2,3:2:0:0:
229,223,224541,1,2,3:2:0:0:
99,133,224791,1,2,1:2:0:0:
49,274,225041,1,2,3:2:0:0:
44,284,225791,6,0,L|123:265,1,70,2|0,1:0|0:0,0:0:0:0:
236,384,226291,69,2,3:2:0:0:
256,306,226541,1,2,3:2:0:0:
415,298,226791,1,2,1:2:0:0:
384,153,227041,1,2,3:2:0:0:
379,147,227791,6,0,L|326:153,1,35,0|0,1:0|0:0,0:0:0:0:
206,210,228291,69,2,3:2:0:0:
135,177,228541,1,2,3:2:0:0:
19,314,228791,1,2,1:2:0:0:
169,281,229041,1,2,3:2:0:0:
175,290,229791,6,0,L|169:332,1,35,0|0,1:0|0:0,0:0:0:0:
387,384,230291,69,2,3:2:0:0:
344,178,230541,1,2,3:2:0:0:
463,245,230791,1,2,1:2:0:0:
268,300,231041,1,2,3:2:0:0:
257,293,231791,6,0,L|258:252,1,35,0|0,1:0|0:0,0:0:0:0:
