osu file format v14

[General]
AudioFilename: audio.mp3
AudioLeadIn: 0
PreviewTime: 41296
Countdown: 0
SampleSet: Soft
StackLeniency: 0.7
Mode: 0
LetterboxInBreaks: 0
WidescreenStoryboard: 0

[Editor]
Bookmarks: 13740,28851,43073,57295,71518
DistanceSpacing: 1
BeatDivisor: 4
GridSize: 32
TimelineZoom: 1.7

[Metadata]
Title:Shoot Love
TitleUnicode:Shoot Love
Artist:Maroon 5
ArtistUnicode:Maroon 5
Creator:Regraz
Version:Insane
Source:
Tags:V deluxe Adam Levine Jesse Carmichael Mickey Madden James Valentine Matt Flynn PJ Morton Sam Farrar George Andrea osuplayer111
BeatmapID:1803573
BeatmapSetID:854728

[Difficulty]
HPDrainRate:5.3
CircleSize:4
OverallDifficulty:7
ApproachRate:8
SliderMultiplier:2
SliderTickRate:1

[Events]
//Background and Video events
0,0,"This is a BWOY called Kentucky yes the name of that gun.jpg",0,0
//Break Periods
//Storyboard Layer 0 (Background)
//Storyboard Layer 1 (Fail)
//Storyboard Layer 2 (Pass)
//Storyboard Layer 3 (Foreground)
//Storyboard Sound Samples

[TimingPoints]
407,444.444444444444,4,2,25,36,1,0
43073,-83.3333333333333,4,2,25,51,0,1
56851,-83.3333333333333,4,2,25,51,0,0
57295,-83.3333333333333,4,2,25,51,0,1
71518,-83.3333333333333,4,2,25,36,0,0
71962,-83.3333333333333,4,2,25,30,0,0
72406,-83.3333333333333,4,2,25,25,0,0
72851,-83.3333333333333,4,2,25,20,0,0
73295,-83.3333333333333,4,2,25,15,0,0

[Colours]
Combo1 : 125,108,30
Combo2 : 7,23,189
Combo3 : 250,18,133
Combo4 : 215,13,44

[HitObjects]
77,266,13518,5,0,0:0:0:0:
77,266,13740,5,0,0:0:0:0:
115,207,13962,1,0,0:0:0:0:
183,227,14184,1,4,0:0:0:0:
185,297,14406,1,0,0:0:0:0:
120,321,14629,5,4,0:1:0:0:
166,152,14851,1,0,0:0:0:0:
319,241,15073,2,0,L|214:258,1,100,8|2,0:0|0:0,0:0:0:0:
92,136,15518,1,0,0:0:0:0:
92,136,15629,1,0,0:0:0:0:
92,136,15740,1,2,0:0:0:0:
220,242,15962,2,0,P|207:305|233:347,1,100,8|0,0:0|0:0,0:0:0:0:
420,167,16406,5,2,0:0:0:0:
384,326,16629,1,0,0:0:0:0:
318,208,16851,2,0,L|197:222,1,100,8|2,0:0|0:0,0:0:0:0:
71,323,17295,1,0,0:0:0:0:
71,323,17406,1,0,0:0:0:0:
71,323,17518,1,2,0:0:0:0:
46,172,17740,2,0,L|157:182,1,100,8|0,0:0|0:0,0:0:0:0:
97,76,18184,5,2,0:0:0:0:
160,269,18406,1,0,0:0:0:0:
295,134,18629,2,0,P|217:129|193:151,1,100,8|2,0:0|0:0,0:0:0:0:
359,75,19073,1,0,0:0:0:0:
359,75,19184,1,0,0:0:0:0:
359,75,19295,1,2,0:0:0:0:
442,227,19518,2,0,L|340:220,1,100,8|0,0:0|0:0,0:0:0:0:
200,306,19962,5,2,0:0:0:0:
355,205,20184,2,0,L|366:301,2,50,0|0|8,0:0|0:0|0:0,0:0:0:0:
472,181,20629,1,2,0:0:0:0:
431,53,20851,1,0,0:0:0:0:
431,53,20962,1,0,0:0:0:0:
431,53,21073,1,2,0:0:0:0:
305,110,21295,2,0,P|238:123|204:82,1,100,8|0,0:0|0:0,0:0:0:0:
50,63,21740,6,0,L|180:66,1,100,2|0,0:0|0:0,0:0:0:0:
309,91,22184,1,8,0:0:0:0:
203,199,22406,1,2,0:0:0:0:
388,142,22629,1,0,0:0:0:0:
386,164,22740,1,0,0:0:0:0:
383,186,22851,1,2,0:0:0:0:
280,62,23073,2,0,L|296:191,1,100,8|0,0:0|0:0,0:0:0:0:
151,271,23518,5,2,0:0:0:0:
178,122,23740,1,0,0:0:0:0:
341,284,23962,2,0,P|268:263|256:227,1,100,8|2,0:0|0:0,0:0:0:0:
455,248,24406,1,0,0:0:0:0:
455,248,24518,1,0,0:0:0:0:
455,248,24629,1,2,0:0:0:0:
377,77,24851,2,0,L|359:195,1,100,8|0,0:0|0:0,0:0:0:0:
288,43,25295,5,2,0:0:0:0:
342,262,25518,1,0,0:0:0:0:
211,151,25740,2,0,P|147:130|96:148,1,100,8|2,0:0|0:0,0:0:0:0:
28,269,26184,1,0,0:0:0:0:
28,269,26295,1,0,0:0:0:0:
28,269,26406,1,2,0:0:0:0:
130,116,26629,2,0,L|139:226,1,100,8|0,0:0|0:0,0:0:0:0:
258,321,27073,6,0,L|254:208,1,100,2|0,0:0|0:0,0:0:0:0:
221,110,27518,1,8,0:0:0:0:
368,233,27740,1,2,0:0:0:0:
176,206,27962,1,0,0:0:0:0:
152,201,28073,1,0,0:0:0:0:
130,196,28184,1,2,0:0:0:0:
5,330,28406,2,0,P|81:322|99:251,1,150,12|0,0:0|0:0,0:0:0:0:
97,215,28851,6,0,L|210:242,1,100,4|0,0:1|0:0,0:0:0:0:
256,123,29295,1,8,0:0:0:0:
256,123,29518,1,2,0:0:0:0:
347,213,29740,1,0,0:0:0:0:
347,213,29851,1,0,0:0:0:0:
347,213,29962,1,2,0:0:0:0:
193,70,30184,2,0,P|176:135|203:183,1,100,8|0,0:0|0:0,0:0:0:0:
355,72,30629,5,2,0:0:0:0:
264,250,30851,1,0,0:0:0:0:
447,202,31073,2,0,P|373:197|344:152,1,100,8|2,0:0|0:0,0:0:0:0:
191,106,31518,1,0,0:0:0:0:
168,106,31629,1,0,0:0:0:0:
145,106,31740,1,2,0:0:0:0:
42,248,31962,2,0,P|112:216|129:170,1,100,8|0,0:0|0:0,0:0:0:0:
46,119,32406,5,2,0:0:0:0:
160,274,32629,1,0,0:0:0:0:
22,328,32851,2,0,L|46:194,1,100,8|2,0:0|0:0,0:0:0:0:
179,140,33295,1,0,0:0:0:0:
179,140,33406,1,0,0:0:0:0:
179,140,33518,1,2,0:0:0:0:
286,245,33740,2,0,P|351:251|384:218,1,100,8|0,0:0|0:0,0:0:0:0:
392,118,34184,5,2,0:0:0:0:
442,295,34406,1,0,0:0:0:0:
243,185,34629,2,0,P|211:244|229:291,1,100,8|2,0:0|0:0,0:0:0:0:
322,99,35073,1,0,0:0:0:0:
322,99,35184,1,0,0:0:0:0:
322,99,35295,1,2,0:0:0:0:
463,290,35518,2,0,L|349:277,1,100,8|0,0:0|0:0,0:0:0:0:
152,205,35962,6,0,L|284:195,1,100,2|0,0:0|0:0,0:0:0:0:
322,99,36406,1,8,0:0:0:0:
363,278,36629,1,2,0:0:0:0:
432,124,36851,1,0,0:0:0:0:
432,124,36962,1,0,0:0:0:0:
432,124,37073,1,2,0:0:0:0:
450,249,37295,2,0,L|459:358,1,100,8|0,0:0|0:0,0:0:0:0:
345,196,37740,5,2,0:0:0:0:
167,245,37962,1,0,0:0:0:0:
256,73,38184,2,0,P|245:149|277:189,1,100,8|2,0:0|0:0,0:0:0:0:
312,302,38629,1,0,0:0:0:0:
312,302,38740,1,0,0:0:0:0:
312,302,38851,1,2,0:0:0:0:
168,264,39073,2,0,L|46:282,1,100,8|0,0:0|0:0,0:0:0:0:
244,175,39518,6,0,L|360:187,1,100,2|0,0:0|0:0,0:0:0:0:
167,92,39962,1,8,0:0:0:0:
247,262,40184,1,2,0:0:0:0:
295,63,40406,1,0,0:0:0:0:
295,63,40518,1,0,0:0:0:0:
295,63,40629,1,2,0:0:0:0:
420,203,40851,2,0,P|337:206|312:180,1,100,8|0,0:0|0:0,0:0:0:0:
119,173,41295,6,0,L|244:155,1,100,2|0,0:0|0:0,0:0:0:0:
365,81,41740,1,8,0:0:0:0:
247,244,41962,1,2,0:0:0:0:
136,87,42184,1,0,0:0:0:0:
136,87,42295,1,0,0:0:0:0:
136,87,42406,1,2,0:0:0:0:
349,231,42629,2,0,L|368:55,1,150,12|0,0:0|0:0,0:0:0:0:
373,70,43073,6,0,L|390:220,1,119.999996337891,4|0,0:1|0:0,0:0:0:0:
238,111,43518,1,8,0:0:0:0:
465,129,43740,1,2,0:0:0:0:
278,273,43962,1,0,0:0:0:0:
278,273,44073,1,0,0:0:0:0:
278,273,44184,1,2,0:0:0:0:
468,117,44406,2,0,P|485:181|456:248,1,119.999996337891,8|0,0:0|0:0,0:0:0:0:
187,250,44851,6,0,L|307:262,1,119.999996337891,2|0,0:0|0:0,0:0:0:0:
336,122,45295,1,8,0:0:0:0:
363,340,45518,1,2,0:0:0:0:
133,192,45740,1,0,0:0:0:0:
133,192,45851,1,0,0:0:0:0:
133,192,45962,1,2,0:0:0:0:
354,104,46184,2,0,L|362:224,1,119.999996337891,8|0,0:0|0:0,0:0:0:0:
125,267,46629,6,0,P|68:235|59:182,1,119.999996337891,2|0,0:0|0:0,0:0:0:0:
188,47,47073,1,8,0:0:0:0:
256,223,47295,1,2,0:0:0:0:
50,163,47518,1,0,0:0:0:0:
76,165,47629,1,0,0:0:0:0:
102,166,47740,1,2,0:0:0:0:
269,310,47962,2,0,P|293:256|272:194,1,119.999996337891,8|0,0:0|0:0,0:0:0:0:
112,63,48406,6,0,L|122:185,1,119.999996337891,2|0,0:0|0:0,0:0:0:0:
269,110,48851,1,8,0:0:0:0:
116,278,49073,1,2,0:0:0:0:
278,227,49295,1,0,0:0:0:0:
304,222,49406,1,0,0:0:0:0:
330,218,49517,1,2,0:0:0:0:
417,48,49740,2,0,L|407:245,1,179.999994506836,8|0,0:0|0:0,0:0:0:0:
459,282,50184,5,2,0:0:0:0:
301,99,50406,1,0,0:0:0:0:
197,259,50629,2,0,P|273:245|316:271,1,119.999996337891,8|2,0:0|0:0,0:0:0:0:
415,343,51073,1,0,0:0:0:0:
415,343,51184,1,0,0:0:0:0:
415,343,51295,1,2,0:0:0:0:
291,278,51518,2,0,L|284:150,1,119.999996337891,8|0,0:0|0:0,0:0:0:0:
151,227,51962,5,2,0:0:0:0:
350,120,52184,1,0,0:0:0:0:
92,184,52406,2,0,P|81:253|121:296,1,119.999996337891,8|2,0:0|0:0,0:0:0:0:
191,89,52851,1,0,0:0:0:0:
191,89,52962,1,0,0:0:0:0:
191,89,53073,1,2,0:0:0:0:
449,146,53295,2,0,L|320:128,1,119.999996337891,8|0,0:0|0:0,0:0:0:0:
241,209,53740,5,2,0:0:0:0:
322,55,53962,1,0,0:0:0:0:
457,126,54184,2,0,L|447:251,1,119.999996337891,8|2,0:0|0:0,0:0:0:0:
238,229,54629,1,0,0:0:0:0:
212,223,54740,1,0,0:0:0:0:
186,217,54851,1,2,0:0:0:0:
83,74,55073,2,0,P|113:158|97:196,1,119.999996337891,8|0,0:0|0:0,0:0:0:0:
65,278,55518,5,2,0:0:0:0:
312,253,55740,1,2,0:0:0:0:
301,274,55851,1,2,0:0:0:0:
290,294,55962,2,0,L|425:270,1,119.999996337891,8|2,0:0|0:0,0:0:0:0:
241,118,56406,1,8,0:0:0:0:
237,141,56518,1,8,0:0:0:0:
232,164,56629,1,10,0:0:0:0:
211,7,56851,2,0,L|226:190,1,179.999994506836,12|0,0:0|0:0,0:0:0:0:
184,253,57295,6,0,P|122:232|137:159,1,119.999996337891,4|0,0:1|0:0,0:0:0:0:
322,113,57740,1,8,0:0:0:0:
271,302,57962,1,2,0:0:0:0:
131,182,58184,1,0,0:0:0:0:
131,182,58295,1,0,0:0:0:0:
131,182,58406,1,2,0:0:0:0:
339,99,58629,2,0,B|333:136|333:136|348:165|348:165|338:225,1,119.999996337891,8|0,0:0|0:0,0:0:0:0:
412,45,59073,5,2,0:0:0:0:
420,253,59295,1,0,0:0:0:0:
249,142,59518,2,0,P|189:135|148:173,1,119.999996337891,8|2,0:0|0:0,0:0:0:0:
72,315,59962,1,0,0:0:0:0:
72,315,60073,1,0,0:0:0:0:
72,315,60184,1,2,0:0:0:0:
256,253,60406,2,0,L|272:115,1,119.999996337891,8|0,0:0|0:0,0:0:0:0:
184,52,60851,5,2,0:0:0:0:
366,130,61073,1,0,0:0:0:0:
161,198,61295,2,0,P|81:218|44:196,1,119.999996337891,8|2,0:0|0:0,0:0:0:0:
269,54,61740,1,0,0:0:0:0:
296,56,61851,1,0,0:0:0:0:
324,58,61962,1,2,0:0:0:0:
425,282,62184,2,0,B|450:251|450:251|431:159,1,119.999996337891,8|0,0:0|0:0,0:0:0:0:
296,237,62629,5,2,0:0:0:0:
411,87,62851,1,0,0:0:0:0:
218,157,63073,2,0,P|147:130|107:152,1,119.999996337891,8|2,0:0|0:0,0:0:0:0:
86,325,63518,1,0,0:0:0:0:
80,297,63629,1,0,0:0:0:0:
76,269,63740,1,2,0:0:0:0:
234,96,63962,2,0,L|223:283,1,179.999994506836,8|0,0:0|0:0,0:0:0:0:
269,332,64406,6,0,P|195:341|160:307,1,119.999996337891,2|0,0:0|0:0,0:0:0:0:
137,157,64851,1,8,0:0:0:0:
306,257,65073,1,2,0:0:0:0:
89,275,65295,1,0,0:0:0:0:
89,275,65406,1,0,0:0:0:0:
89,275,65518,1,2,0:0:0:0:
249,140,65740,2,0,L|241:-4,1,119.999996337891,8|0,0:0|0:0,0:0:0:0:
338,187,66184,5,2,0:0:0:0:
151,178,66406,1,0,0:0:0:0:
388,133,66629,2,0,L|377:267,1,119.999996337891,8|2,0:0|0:0,0:0:0:0:
224,41,67073,1,0,0:0:0:0:
225,68,67184,1,0,0:0:0:0:
227,96,67295,1,2,0:0:0:0:
144,316,67518,2,0,P|80:289|89:208,1,119.999996337891,8|0,0:0|0:0,0:0:0:0:
124,121,67962,5,2,0:0:0:0:
289,227,68184,1,0,0:0:0:0:
321,60,68406,1,8,0:0:0:0:
321,60,68518,1,0,0:0:0:0:
321,60,68629,1,2,0:0:0:0:
336,286,68851,2,0,P|257:297|224:264,1,119.999996337891,0|2,0:0|0:0,0:0:0:0:
337,205,69295,2,0,P|416:271|385:347,1,179.999994506836,8|0,0:0|0:0,0:0:0:0:
348,364,69740,5,2,0:0:0:0:
341,352,70184,2,0,L|217:361,1,119.999996337891,8|2,0:0|0:0,0:0:0:0:
292,212,70629,1,2,0:0:0:0:
319,216,70740,1,2,0:0:0:0:
347,219,70851,1,2,0:0:0:0:
146,120,71073,2,0,L|167:219,1,59.9999981689454,12|0,0:0|0:0,0:0:0:0:
87,267,71295,1,2,0:0:0:0:
365,224,71518,5,4,0:1:0:0:
256,192,71629,12,0,73295,0:0:0:0:
