osu file format v14

[General]
AudioFilename: audio.mp3
AudioLeadIn: 0
PreviewTime: 39332
Countdown: 0
SampleSet: Soft
StackLeniency: 0.7
Mode: 0
LetterboxInBreaks: 0
WidescreenStoryboard: 1

[Editor]
DistanceSpacing: 1.7
BeatDivisor: 4
GridSize: 32
TimelineZoom: 1

[Metadata]
Title:Maps
TitleUnicode:Maps
Artist:Maroon 5
ArtistUnicode:Maroon 5
Creator:Mosebye
Version:voltia's Insane
Source:
Tags:english pop V five adam levine v0ltia voltia
BeatmapID:3304284
BeatmapSetID:1575172

[Difficulty]
HPDrainRate:5
CircleSize:4
OverallDifficulty:8
ApproachRate:8.5
SliderMultiplier:2
SliderTickRate:1

[Events]
//Background and Video events
0,0,"BG.jpg",0,0
//Break Periods
2,72457,79532
2,131460,139532
//Storyboard Layer 0 (Background)
//Storyboard Layer 1 (Fail)
//Storyboard Layer 2 (Pass)
//Storyboard Layer 3 (Foreground)
//Storyboard Layer 4 (Overlay)
//Storyboard Sound Samples

[TimingPoints]
207,500,4,2,1,60,1,0
16207,-125,4,2,1,65,0,0
16582,-125,4,2,1,5,0,0
16707,-125,4,2,1,65,0,0
17582,-125,4,2,1,5,0,0
17707,-125,4,2,1,65,0,0
18582,-125,4,2,1,5,0,0
18707,-125,4,2,1,65,0,0
20582,-125,4,2,1,5,0,0
20707,-125,4,2,1,65,0,0
21582,-125,4,2,1,5,0,0
21707,-125,4,2,1,65,0,0
22582,-125,4,2,1,5,0,0
22707,-125,4,2,1,65,0,0
24582,-125,4,2,1,5,0,0
24707,-125,4,2,1,65,0,0
25582,-125,4,2,1,5,0,0
25707,-125,4,2,1,65,0,0
26582,-125,4,2,1,5,0,0
26707,-125,4,2,1,65,0,0
28582,-125,4,2,1,5,0,0
28707,-125,4,2,1,65,0,0
29582,-125,4,2,1,5,0,0
29707,-125,4,2,1,65,0,0
30582,-125,4,2,1,5,0,0
30707,-125,4,2,1,65,0,0
32207,-83.3333333333333,4,2,1,70,0,0
32582,-83.3333333333333,4,2,1,5,0,0
32707,-83.3333333333333,4,2,1,70,0,0
33332,-83.3333333333333,4,2,1,5,0,0
33457,-83.3333333333333,4,2,1,70,0,0
35332,-83.3333333333333,4,2,1,5,0,0
35457,-83.3333333333333,4,2,1,70,0,0
36207,-71.4285714285714,4,2,1,70,0,0
36582,-71.4285714285714,4,2,1,5,0,0
36707,-76.9230769230769,4,2,1,70,0,0
37332,-76.9230769230769,4,2,1,5,0,0
37457,-76.9230769230769,4,2,1,70,0,0
40207,-50,4,2,1,80,0,1
40582,-66.6666666666667,4,2,1,80,0,1
40707,-66.6666666666667,4,2,1,80,0,1
40957,-133.333333333333,4,2,1,80,0,1
41207,-50,4,2,1,80,0,1
41582,-50,4,2,1,5,0,1
41707,-66.6666666666667,4,2,1,80,0,1
42207,-50,4,2,1,80,0,1
42582,-66.6666666666667,4,2,1,80,0,1
42832,-66.6666666666667,4,2,1,5,0,1
42957,-66.6666666666667,4,2,1,80,0,1
43707,-100,4,2,1,80,0,1
44207,-66.6666666666667,4,2,1,80,0,1
44707,-66.6666666666667,4,2,1,80,0,1
46582,-100,4,2,1,80,0,1
46832,-100,4,2,1,5,0,1
46957,-100,4,2,1,80,0,1
48207,-50,4,2,1,80,0,1
48582,-50,4,2,1,5,0,1
48707,-66.6666666666667,4,2,1,80,0,1
48957,-100,4,2,1,80,0,1
49207,-55.5555555555556,4,2,1,80,0,1
49582,-55.5555555555556,4,2,1,5,0,1
49707,-50,4,2,1,80,0,1
50207,-66.6666666666667,4,2,1,80,0,1
52207,-76.9230769230769,4,2,1,80,0,1
52707,-50,4,2,1,80,0,1
53707,-66.6666666666667,4,2,1,80,0,1
53957,-100,4,2,1,80,0,1
54207,-100,4,2,1,70,0,0
54582,-66.6666666666667,4,2,1,70,0,0
56207,-66.6666666666667,4,2,1,85,0,1
56707,-66.6666666666667,4,2,1,85,0,1
58707,-66.6666666666667,4,2,1,85,0,1
60707,-66.6666666666667,4,2,1,85,0,1
64707,-66.6666666666667,4,2,1,85,0,1
67957,-50,4,2,1,85,0,1
68082,-50,4,2,1,5,0,1
68207,-50,4,2,1,85,0,1
68957,-66.6666666666667,4,2,1,85,0,1
70707,-66.6666666666667,4,2,1,85,0,0
71707,-133.333333333333,4,2,1,85,0,0
72207,-133.333333333333,4,2,1,5,0,0
80207,-100,4,2,1,65,0,0
80582,-100,4,2,1,5,0,0
80707,-100,4,2,1,65,0,0
81582,-100,4,2,1,5,0,0
81707,-100,4,2,1,65,0,0
82582,-100,4,2,1,5,0,0
82707,-100,4,2,1,65,0,0
84582,-100,4,2,1,5,0,0
84707,-100,4,2,1,65,0,0
85582,-100,4,2,1,5,0,0
85707,-100,4,2,1,65,0,0
86582,-100,4,2,1,5,0,0
86707,-100,4,2,1,65,0,0
87582,-100,4,2,1,5,0,0
87707,-100,4,2,1,65,0,0
88582,-100,4,2,1,5,0,0
88707,-100,4,2,1,65,0,0
89582,-100,4,2,1,5,0,0
89707,-100,4,2,1,65,0,0
90582,-100,4,2,1,5,0,0
90707,-100,4,2,1,65,0,0
91457,-66.6666666666667,4,2,1,65,0,0
92207,500,4,2,1,70,1,0
92207,-83.3333333333333,4,2,1,70,0,0
92582,-83.3333333333333,4,2,1,5,0,0
92707,-83.3333333333333,4,2,1,70,0,0
93332,-83.3333333333333,4,2,1,5,0,0
93457,-83.3333333333333,4,2,1,70,0,0
94832,-83.3333333333333,4,2,1,5,0,0
94957,-83.3333333333333,4,2,1,70,0,0
95582,-83.3333333333333,4,2,1,5,0,0
95707,-83.3333333333333,4,2,1,70,0,0
96832,-83.3333333333333,4,2,1,5,0,0
96957,-83.3333333333333,4,2,1,70,0,0
98582,-83.3333333333333,4,2,1,5,0,0
98707,-83.3333333333333,4,2,1,70,0,0
99082,-83.3333333333333,4,2,1,5,0,0
99207,-83.3333333333333,4,2,1,70,0,0
100207,-55.5555555555556,4,2,1,80,0,1
100582,-55.5555555555556,4,2,1,5,0,1
100707,-55.5555555555556,4,2,1,80,0,1
100957,-66.6666666666667,4,2,1,80,0,1
101207,-50,4,2,1,80,0,1
101582,-50,4,2,1,5,0,1
101707,-66.6666666666667,4,2,1,80,0,1
102832,-66.6666666666667,4,2,1,5,0,1
102957,-50,4,2,1,80,0,1
103707,-62.5,4,2,1,80,0,1
104207,-47.3226035023789,4,2,1,80,0,1
104707,-62.5,4,2,1,80,0,1
106832,-62.5,4,2,1,5,0,1
106957,-100,4,2,1,80,0,1
107957,-41.1522633744856,4,2,1,80,0,1
108207,-60.6199511054422,4,2,1,80,0,1
108582,-60.6199511054422,4,2,1,5,0,1
108707,-133.333333333333,4,2,1,80,0,1
109207,-50,4,2,1,80,0,1
109582,-50,4,2,1,5,0,1
109707,-133.333333333333,4,2,1,80,0,1
110207,-50,4,2,1,80,0,1
110582,-125,4,2,1,80,0,1
111207,-92.208758503412,4,2,1,80,0,1
112207,-100,4,2,1,80,0,1
112707,-55.5555555555556,4,2,1,80,0,1
112957,-46.2962962962963,4,2,1,80,0,1
113707,-100,4,2,1,80,0,0
114207,-100,4,2,1,70,0,0
114582,-66.6666666666667,4,2,1,70,0,0
116207,-55.5555555555556,4,2,1,85,0,1
116957,-45.4545454545455,4,2,1,85,0,1
117207,-62.5,4,2,1,85,0,1
118707,-66.6666666666667,4,2,1,85,0,1
120207,-62.5,4,2,1,85,0,1
121207,-62.795698924731,4,2,1,85,0,1
121707,-53.8248847926267,4,2,1,85,0,1
122207,-100,4,2,1,85,0,1
124207,-50,4,2,1,85,0,1
124707,-133.333333333333,4,2,1,85,0,1
124957,-100,4,2,1,85,0,1
125207,-66.6666666666667,4,2,1,85,0,1
125457,-57.1428571428571,4,2,1,85,0,1
128707,-100,4,2,1,85,0,1
128957,-66.6666666666667,4,2,1,85,0,1
130707,-100,4,2,1,85,0,0
131457,-100,4,2,2,25,0,0
140207,-100,4,2,2,60,0,0
140707,-83.3333333333333,4,2,2,60,0,0
140957,-133.333333333333,4,2,2,60,0,0
141207,-100,4,2,2,60,0,0
144707,-83.3333333333333,4,2,2,60,0,0
144957,-100,4,2,2,60,0,0
147457,-200,4,2,2,60,0,0
147707,-133.333333333333,4,2,2,60,0,0
147957,-100,4,2,2,60,0,0
148207,-83.3333333333333,4,2,2,70,0,0
148957,-133.333333333333,4,2,2,70,0,0
149207,-79.9999999999999,4,2,2,70,0,0
151457,-200,4,2,2,70,0,0
151707,-133.333333333333,4,2,2,70,0,0
151957,-100,4,2,2,70,0,0
152207,-74.0740740740741,4,2,2,70,0,0
152957,-133.333333333333,4,2,2,70,0,0
153207,-66.6666666666667,4,2,2,70,0,0
153707,-83.3333333333333,4,2,2,70,0,0
154207,-133.333333333333,4,2,2,70,0,0
154707,-100,4,2,2,70,0,0
156207,-50,4,2,2,85,0,1
156210,-50,4,2,1,85,0,1
156582,-50,4,2,1,5,0,1
156707,-66.6666666666667,4,2,1,85,0,1
157582,-66.6666666666667,4,2,1,5,0,1
157707,-66.6666666666667,4,2,1,85,0,1
158207,-34.7222222222222,4,2,1,85,0,1
158582,-50,4,2,1,85,0,1
158957,-62.5570776255852,4,2,1,85,0,1
159707,-66.6666666666667,4,2,1,85,0,1
159957,-76.9230769230769,4,2,1,85,0,1
160207,-66.6666666666667,4,2,1,85,0,1
160707,-66.6666666666667,4,2,1,85,0,1
163207,-200,4,2,1,85,0,1
163707,-66.6666666666667,4,2,1,85,0,1
164582,-66.6666666666667,4,2,1,5,0,1
164707,-66.6666666666667,4,2,1,85,0,1
164957,-100,4,2,1,85,0,1
165207,-50,4,2,1,85,0,1
165582,-50,4,2,1,5,0,1
165707,-66.6666666666667,4,2,1,85,0,1
165957,-50,4,2,1,85,0,1
166832,-50,4,2,1,5,0,1
166957,-133.333333333333,4,2,1,85,0,1
167207,-100,4,2,1,85,0,1
168207,-100,4,2,1,85,0,1
168707,-50,4,2,1,85,0,1
168957,-50,4,2,1,85,0,1
169707,-66.6666666666667,4,2,1,85,0,1
170207,-66.6666666666667,4,2,1,70,0,0
170582,-100,4,2,1,70,0,0
172207,-55.5555555555556,4,2,1,90,0,1
172707,-48.780487804878,4,2,1,90,0,1
172957,-57.1428571428571,4,2,1,90,0,1
174707,-100,4,2,1,90,0,1
174957,-66.6666666666667,4,2,1,90,0,1
175207,-52.6315789473684,4,2,1,90,0,1
175457,-66.6666666666667,4,2,1,90,0,1
178207,-50,4,2,1,90,0,1
180207,-43.4782608695652,4,2,1,90,0,1
180707,-66.6666666666667,4,2,1,90,0,1
182207,-50,4,2,1,90,0,1
182957,-100,4,2,1,90,0,1
183207,-66.6666666666667,4,2,1,90,0,1
183457,-58.8235294117647,4,2,1,90,0,1
184207,-50,4,2,1,90,0,1
184707,-66.6666666666667,4,2,1,90,0,1
186207,-66.6666666666667,4,2,1,85,0,0
187707,-83.3333333333333,4,2,1,85,0,0
188207,-83.3333333333333,4,2,1,5,0,0

[Colours]
Combo1 : 23,170,115
Combo2 : 254,199,200
Combo3 : 200,252,194
Combo4 : 0,176,176
Combo5 : 243,18,97
SliderBorder : 215,250,145

[HitObjects]
13,45,16207,6,0,L|33:177,1,120,0|0,3:2|0:0,0:0:0:0:
46,161,16707,2,0,L|-3:78,1,80,2|2,3:2|0:2,0:0:0:0:
145,306,17207,2,0,L|157:172,1,120,2|0,3:2|0:0,0:0:0:0:
234,226,17707,2,0,L|225:314,1,80,2|2,3:2|0:2,0:0:0:0:
431,257,18207,2,0,L|419:123,1,120,2|0,3:2|0:0,0:0:0:0:
350,256,18707,2,0,L|342:177,1,80,0|0,3:2|0:0,0:0:0:0:
339,80,19207,1,0,3:2:0:0:
232,153,19457,1,2,0:2:0:0:
239,143,19582,1,2,0:2:0:0:
248,136,19707,1,2,3:2:0:0:
230,29,19957,1,2,0:2:0:0:
37,131,20207,6,0,L|156:106,1,120,0|0,3:2|0:0,0:0:0:0:
155,127,20707,2,0,L|66:108,1,80,2|2,3:2|0:2,0:0:0:0:
101,207,21207,2,0,P|110:248|54:303,1,120,2|0,3:2|0:0,0:0:0:0:
51,292,21707,2,0,P|81:280|141:259,1,80,2|2,3:2|0:2,0:0:0:0:
256,246,22207,2,0,L|226:369,1,120,2|0,3:2|0:0,0:0:0:0:
331,294,22707,2,0,L|305:396,1,80,0|0,3:2|0:0,0:0:0:0:
345,200,23207,1,0,3:2:0:0:
425,264,23457,1,0,0:0:0:0:
318,121,23707,1,0,3:2:0:0:
302,127,23832,1,0,0:0:0:0:
283,133,23957,1,0,0:0:0:0:
267,138,24082,1,0,0:0:0:0:
247,172,24207,6,0,B|210:175|207:145|181:147|181:147|133:150,1,120,0|0,3:2|0:0,0:0:0:0:
246,187,24707,2,0,L|230:280,1,80,2|2,3:2|0:2,0:0:0:0:
387,211,25207,2,0,L|366:337,1,120,2|0,3:2|0:0,0:0:0:0:
445,328,25707,2,0,L|458:249,1,80,0|2,3:2|0:2,0:0:0:0:
384,19,26207,2,0,L|404:138,1,120,2|0,3:2|0:0,0:0:0:0:
485,104,26707,2,0,L|472:25,1,80,0|0,3:2|0:0,0:0:0:0:
305,59,27207,1,0,3:2:0:0:
245,177,27457,1,2,0:2:0:0:
218,160,27582,1,2,0:2:0:0:
187,142,27707,1,2,3:2:0:0:
370,205,27957,1,2,0:2:0:0:
370,224,28082,1,0,0:0:0:0:
370,242,28207,6,0,L|365:381,1,120,0|0,3:2|0:0,0:0:0:0:
347,353,28707,2,0,L|396:279,1,80,2|2,3:2|0:2,0:0:0:0:
512,143,29207,2,0,B|467:137|467:137|439:131|446:167|391:160,1,120,2|0,3:2|0:0,0:0:0:0:
391,162,29707,2,0,L|400:77,1,80,2|2,3:2|0:2,0:0:0:0:
197,111,30207,2,0,P|233:66|321:79,1,120,2|0,3:2|0:0,0:0:0:0:
266,219,30707,2,0,L|275:115,1,80,0|2,3:2|0:2,0:0:0:0:
319,309,31207,1,0,3:2:0:0:
360,132,31457,2,0,L|369:236,1,80,2|2,0:2|3:2,0:0:0:0:
411,318,31957,1,2,0:2:0:0:
358,384,32082,1,2,0:2:0:0:
313,311,32207,6,0,P|193:305|120:315,1,180,0|0,3:2|0:0,0:0:0:0:
82,380,32707,2,0,P|53:295|78:254,1,120,8|2,0:2|0:2,0:0:0:0:
211,176,33207,2,0,P|173:221|125:220,1,60,0|0,3:2|0:0,0:0:0:0:
75,176,33457,1,2,0:2:0:0:
250,14,33707,1,10,0:2:0:0:
63,52,33957,2,0,P|111:85|169:76,1,120,2|0,0:2|3:2,0:0:0:0:
358,26,34457,2,0,L|346:147,1,120,2|8,0:2|0:2,0:0:0:0:
361,312,34957,1,2,0:2:0:0:
422,187,35207,2,0,L|476:122,1,60,0|0,3:2|0:0,0:0:0:0:
445,96,35457,2,0,L|433:235,1,120,2|10,0:2|0:2,0:0:0:0:
362,345,35957,1,2,0:2:0:0:
154,319,36207,6,0,B|258:303|258:303|319:296|269:255|385:253|385:253,1,210,0|0,3:2|0:0,0:0:0:0:
238,218,36707,2,0,L|94:238,1,130,8|2,0:2|0:2,0:0:0:0:
239,140,37207,2,0,P|276:146|308:181,1,65,0|0,3:2|0:0,0:0:0:0:
285,311,37457,1,2,0:2:0:0:
305,172,37707,1,10,0:2:0:0:
484,251,37957,1,2,0:2:0:0:
411,113,38207,2,0,B|391:148|391:148|395:209|441:234,1,130,0|2,3:2|0:2,0:0:0:0:
440,34,38707,2,0,P|364:42|328:114,1,130,8|2,0:0|0:2,0:0:0:0:
240,329,39207,1,0,3:0:0:0:
167,132,39457,5,2,0:2:0:0:
242,75,39582,1,2,0:2:0:0:
321,130,39707,1,2,0:2:0:0:
240,329,39957,1,2,0:2:0:0:
167,132,40207,6,0,B|226:158|241:191|243:248|243:248|246:193|266:147|341:123,1,300,6|0,3:1|0:0,0:0:0:0:
242,75,40707,2,0,P|242:47|233:72,1,75,10|0,0:1|0:0,0:0:0:0:
344,233,40957,2,0,B|357:212|357:212|316:185,1,37.5000000000001,2|0,0:1|0:0,0:0:0:0:
108,297,41207,2,1,B|162:264|213:303|213:303|253:330|296:296|296:296|336:261|394:293,1,300,0|0,3:2|0:0,0:0:0:0:
411,384,41707,2,0,P|372:380|332:343,1,75,8|0,0:2|0:0,0:0:0:0:
466,328,41957,1,2,0:2:0:0:
388,178,42207,6,0,B|419:176|436:160|436:160|421:189|432:233,1,100,2|0,3:2|0:0,0:0:0:0:
427,206,42457,1,2,0:2:0:0:
337,240,42582,2,0,B|321:241|321:241|265:189|304:100|391:104,1,150,2|0,0:2|0:0,0:0:0:0:
397,32,42957,2,0,B|409:30|422:16|422:16|419:35|424:77,1,75,2|0,0:2|0:0,0:0:0:0:
243,96,43207,2,0,B|217:65|217:65|275:18,1,75,2|0,3:2|0:0,0:0:0:0:
199,211,43457,1,2,0:2:0:0:
241,104,43707,2,0,P|267:115|285:152,1,50,10|0,0:2|0:0,0:0:0:0:
225,317,43957,2,0,P|249:313|269:298,1,50,2|0,0:2|0:0,0:0:0:0:
416,202,44207,6,0,B|252:169|378:254|188:209,1,225,2|2,3:2|0:2,0:0:0:0:
59,86,44707,2,0,B|92:73|92:73|126:130,1,75,10|0,0:2|0:0,0:0:0:0:
107,244,44957,1,0,0:0:0:0:
11,359,45207,2,0,B|-20:273|-20:273|-22:229|37:196,1,150,0|0,3:2|0:0,0:0:0:0:
138,316,45707,1,8,0:2:0:0:
311,255,45957,5,2,0:2:0:0:
341,184,46082,1,2,0:2:0:0:
318,109,46207,2,0,P|263:96|233:90,1,75,2|0,3:2|0:0,0:0:0:0:
228,172,46457,1,2,0:2:0:0:
155,100,46582,2,0,P|132:61|63:73,1,100,2|0,0:2|0:0,0:0:0:0:
154,225,46957,2,0,P|131:264|100:270,1,50,2|0,0:2|0:0,0:0:0:0:
225,165,47207,2,0,P|257:158|292:148,1,50,2|0,3:2|0:0,0:0:0:0:
297,228,47457,2,0,P|265:235|230:245,1,50,2|2,0:2|0:2,0:0:0:0:
67,160,47707,2,0,P|81:189|98:221,1,50,10|0,0:2|0:0,0:0:0:0:
0,199,47957,2,0,P|11:221|21:244,1,50,2|0,0:2|0:0,0:0:0:0:
259,304,48207,6,0,B|306:336|264:402|199:391|190:334|190:334|202:196,1,300,2|0,3:1|0:0,0:0:0:0:
257,131,48707,2,0,P|291:149|306:196,1,75,10|0,0:1|0:0,0:0:0:0:
125,206,48957,2,0,P|87:217|67:257,1,50,2|0,0:1|0:0,0:0:0:0:
193,45,49207,2,0,B|181:156|181:156|202:182|202:182|180:375,1,270,0|0,3:2|0:0,0:0:0:0:
237,384,49707,2,0,B|212:387|195:376|195:376|215:379|251:350,1,100,8|0,0:2|0:0,0:0:0:0:
333,232,49957,2,0,B|355:257|352:279|352:279|345:260|297:238,1,100,2|0,0:2|0:0,0:0:0:0:
450,324,50207,6,0,P|500:309|519:271,1,75,2|0,3:2|0:0,0:0:0:0:
374,162,50457,1,2,0:2:0:0:
512,130,50582,2,0,B|440:102|402:149|402:149|357:193|321:169,1,150,2|0,0:2|0:0,0:0:0:0:
261,134,50957,2,0,B|261:117|252:100|252:100|274:115|326:103,1,75,2|0,0:2|0:0,0:0:0:0:
188,250,51207,2,0,P|153:240|101:253,1,75,2|0,3:2|0:0,0:0:0:0:
324,310,51457,2,0,P|289:320|237:307,1,75,2|2,0:2|0:2,0:0:0:0:
150,328,51707,1,10,0:2:0:0:
161,124,51957,1,2,0:2:0:0:
29,310,52207,6,0,B|-14:232|-14:232|106:143,1,195,2|2,3:2|0:2,0:0:0:0:
171,256,52707,2,0,B|192:302|192:302|150:329,1,100,10|0,0:2|0:0,0:0:0:0:
71,168,52957,2,0,B|144:154|144:154|176:179|176:179|346:140,2,200,0|0|0,0:0|3:2|0:0,0:0:0:0:
129,42,53707,6,0,L|153:131,1,75,10|0,0:2|0:0,0:0:0:0:
230,79,53957,2,0,L|211:10,1,50,2|0,0:2|0:0,0:0:0:0:
318,53,54207,5,8,3:3:0:0:
286,241,54457,1,4,0:3:0:0:
303,152,54582,2,0,B|238:152|219:202|219:202|199:258|122:242,1,150,8|8,0:3|0:3,0:0:0:0:
29,220,54957,2,0,B|94:220|113:270|113:270|133:326|210:310,1,150.000005722046,4|4,0:3|0:3,0:0:0:0:
237,337,55457,5,4,0:3:0:0:
227,367,55582,1,4,0:3:0:0:
349,331,55707,5,4,0:3:0:0:
365,379,55832,1,4,0:3:0:0:
421,278,55957,5,4,0:3:0:0:
421,278,56082,1,4,0:3:0:0:
383,221,56207,6,0,B|406:129|406:129|390:97|390:97|411:-11,1,225,4|2,3:2|0:1,0:0:0:0:
272,88,56707,2,0,P|302:129|336:128,1,75,8|0,0:2|0:0,0:0:0:0:
195,0,56957,2,0,P|144:5|128:35,1,75,2|0,0:2|0:0,0:0:0:0:
180,225,57207,2,0,L|190:58,2,150,2|2|10,3:2|0:2|0:2,0:0:0:0:
84,382,57957,1,2,0:2:0:0:
1,233,58207,6,0,B|-15:190|28:123|135:199|81:299,1,225,2|2,3:2|0:1,0:0:0:0:
68,297,58707,2,0,P|22:302|-22:323,1,75,8|0,0:2|0:0,0:0:0:0:
181,223,58957,2,0,P|227:228|271:249,1,75,2|0,0:2|0:0,0:0:0:0:
371,85,59207,2,0,P|383:120|386:157,1,75,2|0,3:2|0:0,0:0:0:0:
381,363,59457,2,0,P|415:331|384:286,1,75,2|2,0:2|0:2,0:0:0:0:
352,231,59707,1,10,0:2:0:0:
215,140,59957,1,2,0:2:0:0:
387,158,60207,6,0,B|331:135|285:182|285:182|243:245|163:207,1,225,2|2,3:2|0:1,0:0:0:0:
50,84,60707,2,0,B|85:79|85:79|117:121,1,75,8|0,0:2|0:0,0:0:0:0:
31,236,60957,2,0,L|48:163,1,75,2|0,0:2|0:0,0:0:0:0:
286,24,61207,2,0,P|272:81|239:96,1,75,2|0,3:2|0:0,0:0:0:0:
216,0,61457,2,0,P|192:28|191:64,1,75,2|0,0:2|0:0,0:0:0:0:
178,223,61707,2,0,L|201:152,1,75,10|0,0:2|0:0,0:0:0:0:
97,226,61957,2,0,P|123:289|163:298,1,75,2|0,0:2|0:0,0:0:0:0:
335,218,62207,2,0,P|267:209|239:239,1,75,2|0,3:2|0:0,0:0:0:0:
244,322,62457,5,2,0:2:0:0:
269,341,62582,1,2,0:2:0:0:
301,336,62707,1,10,0:2:0:0:
472,157,62957,5,2,0:2:0:0:
433,173,63082,1,2,0:2:0:0:
418,213,63207,1,2,3:2:0:0:
453,384,63457,5,2,0:2:0:0:
460,325,63582,1,2,0:2:0:0:
422,278,63707,1,10,0:2:0:0:
411,18,63957,1,2,0:2:0:0:
217,131,64207,6,0,B|340:133|340:133|395:136|380:183|474:171,1,225,4|2,3:2|0:1,0:0:0:0:
509,91,64707,2,0,P|453:86|432:100,1,75,8|0,0:2|0:0,0:0:0:0:
239,20,64957,2,0,P|295:15|316:29,1,75,2|0,0:2|0:0,0:0:0:0:
226,212,65207,2,0,L|227:87,1,75,2|0,3:2|0:0,0:0:0:0:
302,137,65457,2,0,L|302:212,1,75,2|0,0:2|0:0,0:0:0:0:
265,285,65707,1,10,0:2:0:0:
267,59,65957,1,2,0:2:0:0:
150,310,66207,6,0,B|130:286|98:279|98:279|303:291,1,225,2|2,3:2|0:1,0:0:0:0:
428,213,66707,2,0,B|445:220|440:241|440:241|426:234|375:238,1,75,8|0,0:2|0:0,0:0:0:0:
356,142,66957,2,0,P|397:127|435:153,1,75,2|0,0:2|0:0,0:0:0:0:
411,309,67207,2,0,P|407:346|380:370,1,75,2|0,3:2|0:0,0:0:0:0:
200,251,67457,2,0,B|202:237|202:237|280:214,1,75,2|2,0:2|0:2,0:0:0:0:
289,295,67707,2,0,B|287:309|287:309|228:326,1,75,10|0,0:2|0:0,0:0:0:0:
153,368,67957,2,0,L|122:272,1,100,2|0,0:2|0:0,0:0:0:0:
182,160,68207,6,0,B|159:133|118:121|75:127|90:189|69:238|-3:201|-48:126|-23:65|127:83|71:131,1,300,2|2,3:2|0:1,0:0:0:0:
87,117,68707,2,0,P|101:152|29:163,1,100,8|0,0:2|0:0,0:0:0:0:
260,50,68957,2,0,L|370:65,1,75,2|0,0:2|0:0,0:0:0:0:
89,27,69207,2,0,L|199:42,1,75,2|0,3:2|0:0,0:0:0:0:
259,141,69457,2,0,P|256:188|230:212,1,75,2|0,0:2|0:0,0:0:0:0:
160,186,69707,2,0,P|163:139|195:109,1,75,10|0,0:2|0:0,0:0:0:0:
247,57,69957,1,2,0:2:0:0:
181,277,70207,1,2,3:2:0:0:
228,207,70457,5,2,0:2:0:0:
211,149,70582,1,2,0:2:0:0:
272,138,70707,1,2,0:2:0:0:
225,198,70957,5,2,0:2:0:0:
272,206,71082,1,2,0:2:0:0:
279,158,71207,1,2,0:2:0:0:
225,187,71457,5,2,0:2:0:0:
243,150,71582,1,2,0:2:0:0:
275,172,71707,2,0,P|265:227|251:335,1,150.000005722046,2|0,0:2|0:0,0:0:0:0:
127,313,80207,6,0,P|22:323|-26:329,1,150,0|0,3:2|0:0,0:0:0:0:
96,237,80707,2,0,P|27:243|-18:250,1,100,2|2,3:2|0:2,0:0:0:0:
0,123,81207,2,0,P|74:129|149:138,1,150,2|0,3:2|0:0,0:0:0:0:
129,57,81707,2,0,P|79:50|30:47,1,100,2|2,3:2|0:2,0:0:0:0:
207,4,82207,2,0,L|237:165,1,150,2|0,3:2|0:0,0:0:0:0:
310,114,82707,2,0,P|302:64|292:15,1,100,0|0,3:2|0:0,0:0:0:0:
401,82,83207,1,0,3:2:0:0:
429,213,83457,1,2,0:2:0:0:
426,230,83582,1,2,0:2:0:0:
424,247,83707,1,2,3:2:0:0:
312,204,83957,1,2,0:2:0:0:
486,307,84207,6,0,P|410:328|335:268,1,150,2|0,3:2|0:0,0:0:0:0:
352,314,84707,2,0,P|412:343|457:333,1,100,0|2,3:2|0:2,0:0:0:0:
119,340,85207,2,0,P|195:319|270:379,1,150,2|2,3:2|0:2,0:0:0:0:
253,333,85707,2,0,P|193:304|148:314,1,100,0|2,3:0|0:2,0:0:0:0:
16,217,86207,2,0,L|-3:374,1,150,0|0,3:2|0:0,0:0:0:0:
7,358,86707,2,0,L|22:236,1,100,0|0,3:2|0:0,0:0:0:0:
0,95,87207,2,0,B|32:73|55:80|55:80|145:135,1,150,0|0,3:2|0:0,0:0:0:0:
131,135,87707,1,2,3:2:0:0:
273,148,87957,1,0,0:0:0:0:
258,152,88082,1,0,0:0:0:0:
242,158,88207,6,0,L|229:7,1,150,2|0,3:2|0:0,0:0:0:0:
218,8,88707,2,0,L|228:114,1,100,0|2,3:2|0:2,0:0:0:0:
485,180,89207,2,0,B|473:166|465:151|465:151|340:172,1,150,2|2,3:2|0:2,0:0:0:0:
356,181,89707,2,0,L|464:163,1,100,0|2,3:2|0:2,0:0:0:0:
261,236,90207,2,0,B|257:311|257:311|262:318|262:318|259:393,1,150,0|0,3:2|0:0,0:0:0:0:
269,378,90707,2,0,B|272:324|272:324|266:317|266:317|269:258,1,100,0|2,3:2|0:2,0:0:0:0:
435,217,91207,1,0,3:2:0:0:
459,65,91457,2,0,B|470:125|470:125|478:171|515:149|514:228,1,150,2|2,0:2|3:2,0:0:0:0:
229,128,91957,1,2,0:2:0:0:
316,141,92082,1,2,0:2:0:0:
286,57,92207,6,0,P|197:45|140:159,1,180,0|0,3:2|0:0,0:0:0:0:
128,187,92707,2,0,B|132:246|132:246|138:255|138:255|143:315,1,120,8|2,2:2|0:2,0:0:0:0:
349,319,93207,2,0,P|352:282|331:253,1,60,0|0,3:2|0:0,0:0:0:0:
263,308,93457,1,2,0:2:0:0:
439,308,93707,1,10,2:2:0:0:
284,196,93957,2,0,P|345:179|401:206,1,120,2|0,0:2|3:2,0:0:0:0:
445,79,94457,1,2,0:2:0:0:
247,119,94707,2,0,P|210:157|208:185,1,60,8|0,2:2|0:0,0:0:0:0:
127,135,94957,1,2,0:2:0:0:
31,218,95207,2,0,B|113:212|113:212|171:205|144:265|242:231,1,180,0|0,3:2|0:0,0:0:0:0:
132,133,95707,2,0,L|-39:147,1,120,10|2,2:2|0:2,0:0:0:0:
204,325,96207,6,0,P|269:300|285:247,1,120,0|2,3:2|0:2,0:0:0:0:
240,53,96707,2,0,P|217:113|222:123,1,60,8|0,0:2|0:0,0:0:0:0:
294,218,96957,1,2,0:2:0:0:
338,122,97207,1,0,3:2:0:0:
433,153,97457,1,2,0:2:0:0:
414,290,97707,1,10,0:2:0:0:
414,290,97957,1,2,0:2:0:0:
491,103,98207,6,0,B|438:82|400:124|400:124|365:174|282:132,1,180,0|0,3:2|0:0,0:0:0:0:
335,170,98707,2,0,B|383:186|405:145|405:145|443:103|496:124,1,180,8|0,0:2|0:0,0:0:0:0:
464,197,99207,1,0,3:2:0:0:
176,220,99457,5,2,0:2:0:0:
238,281,99582,1,2,0:2:0:0:
305,220,99707,1,2,0:2:0:0:
240,76,99957,1,2,0:2:0:0:
7,208,100207,54,0,P|113:168|314:91,1,269.999991760254,6|0,3:1|0:0,0:0:0:0:
62,60,100707,2,0,P|79:98|109:170,1,89.9999972534181,10|0,0:1|0:0,0:0:0:0:
114,359,100957,2,0,P|174:327|179:308,1,75,2|0,0:1|0:0,0:0:0:0:
132,258,101207,2,0,B|183:234|223:262|223:262|257:293|298:358|359:278|353:217|253:223,1,300,0|0,3:2|0:0,0:0:0:0:
282,222,101707,2,0,P|279:289|293:303,1,75,8|0,0:2|0:0,0:0:0:0:
405,349,101957,1,2,0:2:0:0:
470,141,102207,6,0,B|456:124|420:145|438:197,1,75,2|0,3:2|0:0,0:0:0:0:
434,183,102457,1,2,0:2:0:0:
268,221,102582,2,0,B|279:238|279:238|345:222|419:273,1,150,2|0,0:2|0:0,0:0:0:0:
271,142,102957,2,0,P|221:149|244:257,1,100,2|0,0:2|0:0,0:0:0:0:
193,367,103207,2,0,P|211:320|106:286,1,100,2|0,3:2|0:0,0:0:0:0:
77,363,103457,1,2,0:2:0:0:
85,145,103707,2,0,P|99:186|70:214,1,80,10|0,0:2|0:0,0:0:0:0:
171,116,103957,2,0,P|199:149|238:138,1,80,2|0,0:2|0:0,0:0:0:0:
363,40,104207,6,0,B|300:13|258:48|258:48|213:88|166:51|166:51|117:6|12:66,1,316.973262032085,2|2,3:2|0:2,0:0:0:0:
20,176,104707,2,0,P|90:147|116:185,1,80,10|0,0:2|0:0,0:0:0:0:
115,257,104957,1,0,0:0:0:0:
271,209,105207,2,0,B|288:314|288:314|277:337|278:368,1,160,0|0,3:2|0:0,0:0:0:0:
345,123,105707,1,8,0:2:0:0:
115,257,105957,5,2,0:2:0:0:
68,183,106082,1,2,0:2:0:0:
103,108,106207,2,0,P|163:103|207:100,1,80,2|0,3:2|0:0,0:0:0:0:
244,179,106457,1,2,0:2:0:0:
234,21,106582,2,0,B|263:27|263:63|263:63|229:24|144:11,1,160,2|0,0:2|0:0,0:0:0:0:
11,112,106957,2,0,P|5:139|-5:176,1,50,2|0,0:2|0:0,0:0:0:0:
76,195,107207,2,0,P|82:168|92:131,1,50,2|0,3:2|0:0,0:0:0:0:
217,112,107457,2,0,L|158:127,1,50,2|2,0:2|0:2,0:0:0:0:
168,209,107707,2,0,L|216:196,1,50,10|0,0:2|0:0,0:0:0:0:
382,177,107957,2,0,B|366:191|357:200|352:228|352:228|343:206|331:195|296:180,1,121.5,2|0,0:2|0:0,0:0:0:0:
474,200,108207,54,0,B|496:117|413:45|351:97|356:158|397:175,1,247.443287671233,2|0,3:1|0:0,0:0:0:0:
415,246,108707,2,0,P|408:289|408:308,1,37.5000000000001,10|0,0:1|0:0,0:0:0:0:
272,134,108957,2,0,P|279:177|279:196,1,37.5000000000001,2|0,0:1|0:0,0:0:0:0:
175,47,109207,2,0,B|198:66|198:66|279:4|360:6|386:36|386:36|351:18|320:40,1,300,0|0,3:2|0:0,0:0:0:0:
333,49,109707,2,0,P|341:67|347:83,1,37.5000000000001,8|0,0:2|0:0,0:0:0:0:
346,205,109957,2,0,P|343:224|341:241,1,37.5000000000001,2|0,0:2|0:0,0:0:0:0:
224,269,110207,6,0,P|212:342|266:367,1,100,2|0,3:2|0:0,0:0:0:0:
224,355,110457,1,2,0:2:0:0:
450,349,110582,2,0,L|366:374,1,80,2|0,0:2|0:0,0:0:0:0:
349,384,110957,1,2,0:2:0:0:
458,222,111207,2,0,P|479:204|497:183,1,54.2247838616652,2|0,3:2|0:0,0:0:0:0:
404,163,111457,2,0,P|425:145|443:124,1,54.2247838616652,2|2,0:2|0:2,0:0:0:0:
350,27,111707,1,10,0:2:0:0:
270,161,111957,1,2,0:2:0:0:
441,121,112207,70,0,B|419:92|426:46|426:46|413:90|368:103,1,150,2|2,3:2|0:2,0:0:0:0:
363,211,112707,2,0,B|375:226|373:256|373:256|386:231|427:220,1,89.9999972534181,10|0,0:2|0:0,0:0:0:0:
487,178,112957,2,0,B|396:151|396:151|402:161|402:161|249:113,2,216,0|0|0,0:0|3:2|0:0,0:0:0:0:
187,329,113707,70,0,P|195:302|220:287,1,50,10|0,0:2|0:0,0:0:0:0:
252,370,113957,2,0,P|271:354|277:330,1,50,2|0,0:2|0:0,0:0:0:0:
284,253,114207,5,8,3:3:0:0:
51,278,114457,1,4,0:3:0:0:
56,149,114582,2,0,B|88:143|106:119|106:119|89:255,1,150,8|8,0:3|0:3,0:0:0:0:
253,75,114957,2,0,B|242:105|253:133|253:133|144:50,1,150,4|4,0:3|0:3,0:0:0:0:
30,12,115457,5,4,0:3:0:0:
35,37,115582,1,4,0:3:0:0:
112,79,115707,5,4,0:3:0:0:
122,34,115832,1,4,0:3:0:0:
234,69,115957,5,4,0:3:0:0:
234,69,116082,1,4,0:3:0:0:
246,131,116207,6,0,P|373:86|507:71,1,270,4|2,3:2|0:1,0:0:0:0:
301,204,116707,2,0,B|326:204|343:217|343:217|340:195|371:154,1,89.9999999999999,8|0,0:2|0:0,0:0:0:0:
473,192,116957,2,0,B|455:212|426:218|426:218|456:228|476:275,1,110,2|0,0:2|0:0,0:0:0:0:
396,289,117207,2,0,P|307:311|236:356,2,160,2|2|10,3:2|0:2|0:2,0:0:0:0:
156,323,117957,1,2,0:2:0:0:
26,184,118207,6,0,B|66:134|148:160|146:215|129:228|183:270|259:234,1,240,2|2,3:2|0:1,0:0:0:0:
221,66,118707,2,0,P|176:96|173:120,1,75,8|0,0:2|0:0,0:0:0:0:
275,120,118957,2,0,P|261:154|227:167,1,75,2|0,0:2|0:0,0:0:0:0:
477,174,119207,2,0,P|474:120|454:105,1,75,2|0,3:2|0:0,0:0:0:0:
403,193,119457,2,0,P|381:164|386:127,1,75,2|2,0:2|0:2,0:0:0:0:
331,60,119707,1,10,0:2:0:0:
501,235,119957,1,2,0:2:0:0:
410,31,120207,6,0,L|459:282,1,240,2|2,3:2|0:1,0:0:0:0:
359,367,120707,2,0,B|354:341|384:335|384:335|402:353|457:352,1,80,8|0,0:2|0:0,0:0:0:0:
273,230,120957,2,0,P|290:266|250:285,1,80,2|0,0:2|0:0,0:0:0:0:
65,218,121207,2,0,L|40:113,1,79.6232876712331,2|0,3:2|0:0,0:0:0:0:
126,120,121457,2,0,L|151:225,1,79.6232876712331,2|0,0:2|0:0,0:0:0:0:
154,323,121707,2,0,B|104:284|131:205|131:205|230:209|236:313,1,278.681506849315,10|0,0:2|0:0,0:0:0:0:
249,290,122207,2,0,L|259:207,1,50,2|0,3:2|0:0,0:0:0:0:
394,149,122457,5,2,0:2:0:0:
371,164,122582,1,2,0:2:0:0:
349,180,122707,1,10,0:2:0:0:
272,30,122957,5,2,0:2:0:0:
275,65,123082,1,2,0:2:0:0:
279,103,123207,1,2,3:2:0:0:
473,70,123457,5,2,0:2:0:0:
424,47,123582,1,2,0:2:0:0:
373,25,123707,1,10,0:2:0:0:
421,233,123957,1,2,0:2:0:0:
301,301,124207,6,0,B|258:319|178:258|264:168|400:196|283:275|361:324|431:323,1,300,4|2,3:2|0:1,0:0:0:0:
455,222,124707,2,0,P|415:241|412:258,1,37.5000000000001,8|0,0:2|0:0,0:0:0:0:
325,96,124957,2,0,P|361:121|386:114,1,50,2|0,0:2|0:0,0:0:0:0:
464,0,125207,2,0,P|423:18|415:54,1,75,2|0,3:2|0:0,0:0:0:0:
449,126,125457,2,0,P|490:111|503:69,1,87.5000000000001,2|0,0:2|0:0,0:0:0:0:
188,115,125707,2,0,P|276:61|335:125,1,175.00000166893,10|2,0:2|0:2,0:0:0:0:
298,311,126207,6,0,B|215:319|191:254|191:254|151:190|78:212,1,262.500002503395,2|2,3:2|0:1,0:0:0:0:
57,208,126707,2,0,P|85:183|85:130,1,87.5000000000001,8|0,0:2|0:0,0:0:0:0:
117,293,126957,2,0,P|124:329|170:356,1,87.5000000000001,2|0,0:2|0:0,0:0:0:0:
370,251,127207,2,0,P|242:268|131:285,1,175,2|2,3:2|0:2,0:0:0:0:
327,93,127707,2,0,B|361:81|361:56|361:56|349:73|280:75,1,87.5000000000001,10|0,0:2|0:0,0:0:0:0:
406,384,127957,2,0,P|437:346|430:295,1,87.5000000000001,2|0,0:2|0:0,0:0:0:0:
420,125,128207,6,0,B|381:165|335:167|335:167|360:272|351:351,1,262.5,2|2,3:2|0:1,0:0:0:0:
481,336,128707,2,0,L|417:301,1,50,8|0,0:2|0:0,0:0:0:0:
447,222,128957,2,0,L|522:264,1,75,2|0,0:2|0:0,0:0:0:0:
334,166,129207,2,0,P|313:197|259:208,1,75,2|0,3:2|0:0,0:0:0:0:
232,149,129457,2,0,P|252:118|287:105,1,75,2|0,0:2|0:0,0:0:0:0:
202,226,129707,1,10,0:2:0:0:
370,93,129957,1,2,0:2:0:0:
205,74,130207,6,0,P|268:144|386:286,1,225,2|0,3:2|0:0,0:0:0:0:
407,184,130707,1,0,0:0:0:0:
0,154,140207,6,0,P|90:163|175:173,1,150,2|2,1:2|0:2,0:0:0:0:
225,149,140707,2,0,L|219:246,1,60,0|0,1:2|0:0,0:0:0:0:
311,98,140957,2,0,L|309:151,1,37.5000000000001,10|0,0:2|0:0,0:0:0:0:
386,69,141207,2,0,P|351:27|248:53,1,150,0|0,1:2|0:0,0:0:0:0:
263,35,141707,1,2,1:2:0:0:
399,163,141957,1,10,0:2:0:0:
512,138,142207,6,0,B|495:153|478:163|478:163|477:310,1,150,2|2,1:2|0:2,0:0:0:0:
464,356,142707,2,0,B|373:377|419:300|301:322,1,150,0|0,1:2|0:0,0:0:0:0:
326,318,143207,1,0,1:2:0:0:
251,363,143457,1,2,0:2:0:0:
190,226,143707,1,2,1:2:0:0:
258,276,143957,1,2,0:2:0:0:
167,308,144207,6,0,P|120:270|120:185,1,150,2|2,1:2|0:2,0:0:0:0:
87,116,144707,2,0,P|127:105|154:117,1,60,0|0,1:2|0:0,0:0:0:0:
44,36,144957,2,0,P|84:25|108:35,1,50,10|0,0:2|0:0,0:0:0:0:
186,40,145207,2,0,P|252:62|354:28,1,150,8|0,1:2|0:0,0:0:0:0:
328,45,145707,1,10,1:2:0:0:
475,142,145957,1,2,0:2:0:0:
512,75,146207,2,0,B|519:70|519:70|461:28|393:83|396:151,1,150,2|2,1:2|0:2,0:0:0:0:
418,241,146707,2,0,B|379:262|376:299|376:299|373:257|319:225,1,150,0|0,1:2|0:0,0:0:0:0:
302,306,147207,1,8,1:2:0:0:
185,206,147457,6,0,P|191:186|196:171,1,25,2|0,0:2|0:0,0:0:0:0:
141,101,147707,2,0,P|136:120|131:138,1,37.5000000000001,2|2,1:2|0:2,0:0:0:0:
68,76,147957,2,0,P|74:56|83:24,1,50,2|0,0:2|0:0,0:0:0:0:
283,24,148207,6,0,B|328:42|323:91|323:91|220:107,1,180,2|2,1:2|0:2,0:0:0:0:
229,105,148707,1,0,1:2:0:0:
366,220,148957,2,0,B|365:245|365:245|347:209,1,37.5000000000001,10|0,0:2|0:0,0:0:0:0:
352,321,149207,2,0,B|286:321|282:246|282:246|283:155,1,187.5,8|0,1:2|0:0,0:0:0:0:
276,172,149707,1,2,1:2:0:0:
369,232,149957,1,2,0:2:0:0:
452,120,150207,2,0,B|454:96|454:96|464:64|389:46|380:83|380:83|356:188,1,187.5,2|2,1:2|0:2,0:0:0:0:
444,192,150707,2,0,P|464:98|483:6,1,187.5,0|0,1:2|0:0,0:0:0:0:
397,31,151207,1,8,1:2:0:0:
247,118,151457,6,0,L|288:131,1,25,2|0,0:2|0:0,0:0:0:0:
193,214,151707,2,0,L|239:199,1,37.5000000000001,2|2,1:2|0:2,0:0:0:0:
246,319,151957,2,0,L|276:272,1,50,2|0,0:2|0:0,0:0:0:0:
447,269,152207,2,0,B|463:263|463:263|452:186|298:201,1,202.5,2|2,1:2|0:2,0:0:0:0:
362,278,152707,1,0,1:2:0:0:
370,119,152957,2,0,P|349:99|349:83,1,37.5000000000001,10|0,0:2|0:0,0:0:0:0:
395,31,153207,2,0,B|345:-4|285:20|297:44|244:86|156:45,1,225,8|0,1:2|0:0,0:0:0:0:
13,37,153707,6,0,L|82:13,1,60,10|8,1:2|0:0,0:0:0:0:
92,92,153957,2,0,L|35:111,1,60,2|0,0:2|0:0,0:0:0:0:
109,244,154207,6,0,L|123:187,1,37.5000000000001,2|0,1:2|0:0,0:0:0:0:
185,266,154457,2,0,L|199:209,1,37.5000000000001,0|2,1:0|0:2,0:0:0:0:
334,283,154707,6,0,P|302:281|281:301,1,50,0|0,1:2|0:0,0:0:0:0:
330,381,154957,1,2,1:2:0:0:
256,123,155207,1,0,1:2:0:0:
187,187,155457,5,2,0:2:0:0:
318,197,155582,1,2,0:2:0:0:
255,134,155707,1,2,0:2:0:0:
251,307,155957,1,2,0:2:0:0:
37,136,156207,6,0,B|30:112|30:112|15:57|104:41|116:99|116:99|154:294,1,300,6|0,3:1|0:0,0:0:0:0:
315,179,156707,2,0,P|280:142|248:134,1,75,10|0,0:1|0:0,0:0:0:0:
251,307,156957,2,0,P|300:295|323:271,1,75,2|0,0:1|0:0,0:0:0:0:
440,130,157207,2,0,B|411:116|397:77|397:77|396:276,1,225,0|0,3:2|0:0,0:0:0:0:
378,330,157707,2,0,B|391:367|391:367|406:316,1,75,8|0,0:2|0:0,0:0:0:0:
446,132,157957,1,2,0:2:0:0:
182,54,158207,6,0,B|164:66|143:68|143:68|136:142|191:156,1,144,2|0,3:2|0:0,0:0:0:0:
125,216,158457,1,2,0:2:0:0:
55,125,158582,2,0,B|77:147|77:147|147:100|301:110,1,200,2|0,0:2|0:0,0:0:0:0:
320,215,158957,2,0,P|290:221|264:273,1,79.9270072992516,2|0,0:2|0:0,0:0:0:0:
314,319,159207,2,0,P|344:313|370:261,1,79.9270072992516,2|0,3:2|0:0,0:0:0:0:
224,343,159457,1,2,0:2:0:0:
171,205,159707,2,0,P|187:162|174:131,1,75,10|0,0:2|0:0,0:0:0:0:
94,184,159957,2,0,P|90:152|105:123,1,65,2|0,0:2|0:0,0:0:0:0:
174,350,160207,6,0,P|165:154|157:68,1,225.000008583069,2|2,3:2|0:2,0:0:0:0:
144,44,160707,2,0,P|112:54|89:89,1,75,10|0,0:2|0:0,0:0:0:0:
6,67,160957,2,1,P|-1:103|16:135,1,75,0|0,0:0|0:0,0:0:0:0:
236,70,161207,2,0,P|275:48|315:60,1,75,0|0,3:2|0:0,0:0:0:0:
325,140,161457,2,0,P|286:162|246:150,1,75
452,76,161707,2,0,P|479:97|492:144,1,75,8|0,0:2|0:0,0:0:0:0:
511,228,161957,5,2,0:2:0:0:
492,304,162082,1,2,0:2:0:0:
422,327,162207,2,0,P|369:319|353:258,1,75,2|0,3:2|0:0,0:0:0:0:
360,296,162457,1,2,0:2:0:0:
226,220,162582,2,0,B|237:236|237:236|310:194|424:234,1,150,2|0,0:2|0:0,0:0:0:0:
426,319,162957,2,0,P|373:311|357:250,1,75,2|0,0:2|0:0,0:0:0:0:
470,209,163207,2,0,L|461:244,1,25,2|0,3:2|0:0,0:0:0:0:
394,152,163457,2,0,L|403:187,1,25,2|2,0:2|0:2,0:0:0:0:
384,1,163707,2,0,L|411:79,1,75,10|0,0:2|0:0,0:0:0:0:
331,98,163957,2,0,L|306:27,1,75,2|0,0:2|0:0,0:0:0:0:
150,128,164207,6,0,B|203:85|255:132|255:132|295:205|392:162,1,225,2|0,3:1|0:0,0:0:0:0:
471,181,164707,2,0,B|449:160|420:191|443:209|477:198,1,75,10|0,0:1|0:0,0:0:0:0:
352,337,164957,2,0,B|362:314|393:344|365:352|346:354,1,50,2|0,0:1|0:0,0:0:0:0:
63,367,165207,2,0,B|267:328|267:328|282:268|347:245,1,300,0|0,3:2|0:0,0:0:0:0:
468,274,165707,2,0,B|452:280|439:297|439:297|445:267|406:234,1,75,8|0,0:2|0:0,0:0:0:0:
287,183,165957,2,0,P|341:173|391:215,1,100,2|0,0:2|0:0,0:0:0:0:
512,37,166207,6,0,B|502:17|502:17|447:1|424:69,1,100,2|0,3:2|0:0,0:0:0:0:
435,43,166457,1,2,0:2:0:0:
494,132,166582,2,0,B|416:106|377:116|237:76,1,200,2|0,0:2|0:0,0:0:0:0:
121,127,166957,2,0,P|140:149|157:154,1,37.5000000000001,2|0,0:2|0:0,0:0:0:0:
203,92,167207,2,0,P|174:63|148:63,1,50,2|0,3:2|0:0,0:0:0:0:
22,212,167457,2,0,P|61:201|75:171,1,50,2|2,0:2|0:2,0:0:0:0:
37,54,167707,1,10,0:2:0:0:
113,314,167957,1,2,0:2:0:0:
289,305,168207,6,0,B|316:328|317:371|317:371|322:329|379:299,1,150,2|2,3:2|0:2,0:0:0:0:
465,202,168707,2,0,B|454:187|454:150|454:150|443:183|405:197,1,100,10|0,0:2|0:0,0:0:0:0:
417,382,168957,2,0,B|404:291|403:273|403:273|410:263|410:263|398:159,2,200,0|0|0,0:0|3:2|0:0,0:0:0:0:
224,188,169707,6,0,P|208:139|227:108,1,75,10|0,0:2|0:0,0:0:0:0:
301,184,169957,2,0,P|310:148|294:116,1,75,2|0,0:2|0:0,0:0:0:0:
247,38,170207,5,8,3:3:0:0:
260,273,170457,1,4,0:3:0:0:
108,326,170582,2,0,B|120:341|120:341|165:314|223:324,1,100,8|8,0:3|0:3,0:0:0:0:
98,154,170957,2,0,B|79:156|79:156|79:209|42:254,1,100,4|4,0:3|0:3,0:0:0:0:
199,206,171457,5,4,0:3:0:0:
191,179,171582,1,4,0:3:0:0:
356,161,171707,5,4,0:3:0:0:
342,202,171832,1,4,0:3:0:0:
512,174,171957,5,4,0:3:0:0:
512,174,172082,1,4,0:3:0:0:
507,105,172207,54,0,P|405:91|174:65,1,269.999991760254,4|2,3:2|0:1,0:0:0:0:
137,137,172707,2,0,B|125:173|93:176|93:176|75:152|57:147,1,102.5,8|0,0:2|0:0,0:0:0:0:
5,0,172957,2,0,B|41:1|55:20|55:20|48:46|53:64,1,87.5000000000001,6|0,0:2|0:0,0:0:0:0:
72,345,173207,2,0,P|55:280|95:242,1,87.5000000000001,2|0,3:2|0:0,0:0:0:0:
148,339,173457,2,0,P|158:297|138:259,1,87.5000000000001,2|0,0:2|0:0,0:0:0:0:
72,45,173707,1,10,0:2:0:0:
92,179,173957,1,2,0:2:0:0:
293,145,174207,6,0,B|336:141|402:45|225:-16|202:138,1,262.5,2|2,3:2|0:1,0:0:0:0:
191,217,174707,2,0,P|231:216|245:205,1,50,8|0,0:2|0:0,0:0:0:0:
476,219,174957,2,0,P|457:179|413:164,1,75,6|0,0:2|0:0,0:0:0:0:
199,304,175207,2,0,P|243:307|278:276,1,95,2|0,3:2|0:0,0:0:0:0:
445,89,175457,2,0,P|400:85|365:116,1,75,2|2,0:2|0:2,0:0:0:0:
349,332,175707,1,10,0:2:0:0:
431,165,175957,1,2,0:2:0:0:
131,73,176207,6,0,B|92:47|18:65|40:143|88:183|165:144,1,225,2|2,3:2|0:1,0:0:0:0:
275,17,176707,2,0,P|216:47|211:73,1,75,8|0,0:2|0:0,0:0:0:0:
104,227,176957,1,6,0:2:0:0:
273,383,177207,2,0,L|283:286,1,75,2|0,3:2|0:0,0:0:0:0:
195,379,177457,2,0,L|205:282,1,75,2|0,0:2|0:0,0:0:0:0:
379,101,177707,2,0,B|394:86|414:96|433:87|433:87|423:101|427:125|373:159,1,150,10|2,0:2|0:2,0:0:0:0:
111,63,178207,2,0,B|96:38|121:16|217:21|142:48|117:95,1,100,2|0,3:2|0:0,0:0:0:0:
147,208,178457,5,2,0:2:0:0:
132,219,178582,1,2,0:2:0:0:
131,204,178707,1,10,0:2:0:0:
262,106,178957,5,2,0:2:0:0:
288,125,179082,1,2,0:2:0:0:
290,98,179207,1,2,3:2:0:0:
312,309,179457,5,2,0:2:0:0:
268,277,179582,1,2,0:2:0:0:
265,322,179707,1,10,0:2:0:0:
455,188,179957,1,2,0:2:0:0:
96,222,180207,6,0,B|263:221|263:221|270:225|270:225|379:225|379:225|402:265|471:277,1,345,4|2,3:2|0:1,0:0:0:0:
491,127,180707,2,0,P|454:186|463:218,1,75,8|0,0:2|0:0,0:0:0:0:
317,62,180957,2,0,P|284:0|252:-7,1,75,6|0,0:2|0:0,0:0:0:0:
203,38,181207,2,0,P|235:99|267:107,1,75,2|0,3:2|0:0,0:0:0:0:
465,11,181457,2,0,L|340:-1,1,75,2|0,0:2|0:0,0:0:0:0:
115,206,181707,2,0,L|187:103,1,75,10|0,0:2|0:0,0:0:0:0:
230,0,181957,1,2,0:2:0:0:
353,281,182207,6,0,B|295:151|295:151|286:143|286:143|226:5,1,300,2|2,3:2|0:1,0:0:0:0:
349,73,182707,2,0,L|396:182,1,100,8|0,0:2|0:0,0:0:0:0:
312,357,182957,2,0,P|277:326|275:303,1,50,6|0,0:2|0:0,0:0:0:0:
467,163,183207,2,0,P|457:208|429:227,1,75,2|0,3:2|0:0,0:0:0:0:
129,213,183457,2,0,P|172:199|211:222,1,85,2|2,0:2|0:2,0:0:0:0:
160,309,183707,1,10,0:2:0:0:
181,25,183957,1,2,0:2:0:0:
121,288,184207,6,0,B|147:298|161:323|161:323|180:-4,1,300,2|2,3:2|0:1,0:0:0:0:
1,92,184707,2,0,P|36:111|81:91,1,75,8|0,0:2|0:0,0:0:0:0:
10,16,184957,2,0,P|45:8|77:26,1,75,2|0,0:2|0:0,0:0:0:0:
330,99,185207,1,2,3:2:0:0:
162,91,185457,1,2,0:2:0:0:
349,177,185707,2,0,P|402:147|411:120,1,75,10|0,0:2|0:0,0:0:0:0:
169,7,185957,2,0,P|168:67|187:89,1,75,2|0,0:2|0:0,0:0:0:0:
252,306,186207,1,2,2:2:0:0:
273,132,186457,5,2,0:2:0:0:
293,200,186582,1,2,0:2:0:0:
220,214,186707,1,2,0:2:0:0:
277,142,186957,5,2,0:2:0:0:
220,133,187082,1,2,0:2:0:0:
213,190,187207,1,2,0:2:0:0:
276,155,187457,5,2,0:2:0:0:
255,199,187582,1,2,0:2:0:0:
216,161,187707,2,0,B|239:125|299:119|350:169|312:190|342:243|398:254|452:219,1,240,2|0,0:2|0:0,0:0:0:0:
