osu file format v14

[General]
AudioFilename: audio.mp3
AudioLeadIn: 0
PreviewTime: 39332
Countdown: 0
SampleSet: Soft
StackLeniency: 0.7
Mode: 0
LetterboxInBreaks: 0
WidescreenStoryboard: 1

[Editor]
DistanceSpacing: 1.2
BeatDivisor: 4
GridSize: 8
TimelineZoom: 1

[Metadata]
Title:Maps
TitleUnicode:Maps
Artist:Maroon 5
ArtistUnicode:Maroon 5
Creator:Mosebye
Version:Hard
Source:
Tags:english pop V five adam levine v0ltia voltia
BeatmapID:3226514
BeatmapSetID:1575172

[Difficulty]
HPDrainRate:4
CircleSize:3.5
OverallDifficulty:5
ApproachRate:7.5
SliderMultiplier:1.6
SliderTickRate:1

[Events]
//Background and Video events
0,0,"BG.jpg",0,0
//Break Periods
2,72457,79382
2,131460,139382
//Storyboard Layer 0 (Background)
//Storyboard Layer 1 (Fail)
//Storyboard Layer 2 (Pass)
//Storyboard Layer 3 (Foreground)
//Storyboard Layer 4 (Overlay)
//Storyboard Sound Samples

[TimingPoints]
207,500,4,2,1,60,1,0
207,-111.111111111111,4,2,1,60,0,0
16207,-111.111111111111,4,2,1,65,0,0
32207,-105.263157894737,4,2,1,70,0,0
40207,-76.9230769230769,4,2,1,80,0,1
41957,-90.9090909090909,4,2,1,80,0,1
48207,-83.3333333333333,4,2,1,80,0,1
49957,-90.9090909090909,4,2,1,80,0,1
54207,-100,4,2,1,70,0,0
56207,-83.3333333333333,4,2,1,85,0,1
70707,-100,4,2,1,85,0,0
71707,-111.111111111111,4,2,1,85,0,0
72207,-111.111111111111,4,2,1,60,0,0
80207,-111.111111111111,4,2,1,65,0,0
91332,-111.111111111111,4,2,1,5,0,0
91457,-111.111111111111,4,2,1,65,0,0
92207,500,4,2,1,70,1,0
92207,-105.263157894737,4,2,1,70,0,0
100207,-76.9230769230769,4,2,1,80,0,1
101957,-90.9090909090909,4,2,1,80,0,1
108207,-83.3333333333333,4,2,1,80,0,1
109957,-90.9090909090909,4,2,1,80,0,1
114207,-100,4,2,1,70,0,0
116207,-83.3333333333333,4,2,1,85,0,1
130707,-111.111111111111,4,2,1,85,0,0
131457,-111.111111111111,4,2,2,25,0,0
140207,-100,4,2,2,60,0,0
148207,-95.2380952380952,4,2,2,70,0,0
156207,-71.4285714285714,4,2,1,85,0,1
157957,-83.3333333333333,4,2,1,85,0,1
164207,-76.9230769230769,4,2,1,85,0,1
165957,-83.3333333333333,4,2,1,85,0,1
170207,-100,4,2,1,70,0,0
172207,-76.9230769230769,4,2,1,90,0,1
186207,-100,4,2,1,85,0,0
187707,-100,4,2,1,85,0,0
188207,-100,4,2,1,5,0,0

[Colours]
Combo1 : 23,170,115
Combo2 : 254,199,200
Combo3 : 200,252,194
Combo4 : 0,176,176
Combo5 : 243,18,97
SliderBorder : 215,250,145

[HitObjects]
80,128,16207,5,0,3:2:0:0:
136,72,16457,1,2,0:2:0:0:
192,128,16707,2,0,L|192:208,1,71.9999978027344,2|2,3:2|0:2,0:0:0:0:
128,248,17207,2,0,P|83:240|53:212,2,71.9999978027344,2|2|2,3:2|0:2|3:2,0:0:0:0:
192,304,17957,1,2,0:2:0:0:
192,304,18207,1,2,3:2:0:0:
280,304,18457,2,0,B|336:304|352:240|352:240|368:168|428:168,1,215.999993408203,2|0,0:2|3:2,0:0:0:0:
488,96,19457,5,2,0:2:0:0:
488,96,19582,1,2,0:2:0:0:
488,96,19707,2,0,B|496:56|496:56|488:16,2,71.9999978027344,2|2|0,3:2|0:2|3:2,0:0:0:0:
408,56,20457,5,2,0:2:0:0:
336,88,20707,2,0,P|311:65|301:28,1,71.9999978027344,2|2,3:2|0:2,0:0:0:0:
208,32,21207,2,0,P|198:66|172:90,2,71.9999978027344,2|2|2,3:2|0:2|3:2,0:0:0:0:
128,16,21957,1,2,0:2:0:0:
128,16,22207,1,2,3:2:0:0:
80,80,22457,2,0,P|120:168|232:160,1,215.999993408203,2|0,0:2|3:2,0:0:0:0:
288,112,23457,1,0,0:0:0:0:
352,64,23707,1,0,3:2:0:0:
352,64,23832,1,0,0:0:0:0:
352,64,23957,2,0,L|400:64,2,35.9999989013672,0|0|0,0:0|0:0|3:2,0:0:0:0:
352,160,24457,5,2,0:2:0:0:
408,216,24707,2,0,P|408:256|392:288,1,71.9999978027344,2|2,3:2|0:2,0:0:0:0:
340,344,25207,1,2,3:2:0:0:
264,364,25457,2,0,P|230:350|206:324,1,71.9999978027344,2|0,0:2|3:2,0:0:0:0:
172,248,25957,1,2,0:2:0:0:
172,248,26207,1,2,3:2:0:0:
216,180,26457,2,0,P|192:92|72:60,1,215.999993408203,2|0,0:2|3:2,0:0:0:0:
52,140,27457,5,2,0:2:0:0:
52,140,27582,1,2,0:2:0:0:
52,140,27707,2,0,B|92:148|92:148|140:140,2,71.9999978027344,2|2|0,3:2|0:2|3:2,0:0:0:0:
0,216,28457,5,2,0:2:0:0:
8,296,28707,2,0,P|24:328|88:347,1,71.9999978027344,2|2,3:2|0:2,0:0:0:0:
128,368,29207,1,2,3:2:0:0:
208,352,29457,2,0,P|238:333|254:301,1,71.9999978027344,2|2,0:2|3:2,0:0:0:0:
264,224,29957,1,2,0:2:0:0:
264,224,30207,1,2,3:2:0:0:
224,148,30457,2,0,L|231:76,1,71.9999978027344,2|0,0:2|3:2,0:0:0:0:
276,12,30957,2,0,L|348:19,1,71.9999978027344,2|0,0:2|3:2,0:0:0:0:
480,24,31457,5,2,0:2:0:0:
512,104,31707,1,2,3:2:0:0:
480,184,31957,2,0,P|440:208|400:208,1,71.9999978027344,2|0,0:2|3:2,0:0:0:0:
344,272,32457,2,0,P|368:312|368:344,1,75.9999979705811,2|8,0:2|0:2,0:0:0:0:
448,384,32957,2,0,P|488:360|520:360,1,75.9999979705811,2|0,0:2|3:2,0:0:0:0:
368,340,33457,5,2,0:2:0:0:
287,382,33707,1,10,0:2:0:0:
208,336,33957,2,0,L|128:344,1,75.9999979705811,2|0,0:2|3:2,0:0:0:0:
48,312,34457,2,0,L|40:232,1,75.9999979705811,2|8,0:2|0:2,0:0:0:0:
88,160,34957,2,0,L|168:152,1,75.9999979705811,2|0,0:2|3:2,0:0:0:0:
272,176,35457,5,2,0:2:0:0:
320,96,35707,1,10,0:2:0:0:
264,24,35957,2,0,P|224:12|184:24,1,75.9999979705811,2|0,0:2|3:2,0:0:0:0:
104,0,36457,2,0,P|91:40|103:80,1,75.9999979705811,2|8,0:2|0:2,0:0:0:0:
88,160,36957,2,0,P|128:172|168:160,1,75.9999979705811,2|0,0:2|3:2,0:0:0:0:
224,256,37457,5,2,0:2:0:0:
310,288,37707,1,10,0:2:0:0:
381,227,37957,2,0,L|374:146,1,75.9999979705811,2|0,0:2|3:2,0:0:0:0:
337,73,38457,2,0,L|417:66,1,75.9999979705811,2|8,0:2|0:0,0:0:0:0:
492,29,38957,2,0,L|498:109,1,75.9999979705811,2|0,0:2|3:0,0:0:0:0:
496,224,39457,5,2,0:2:0:0:
496,224,39582,1,2,0:2:0:0:
496,224,39707,1,2,0:2:0:0:
424,280,39957,1,2,0:2:0:0:
272,320,40207,6,0,B|272:240|272:240|312:208|312:208|312:120,1,207.999990478516,6|10,3:1|0:1,0:0:0:0:
152,136,40957,2,0,B|152:212|152:212|192:244|192:244|192:324,1,207.999990478516,2|2,0:1|0:1,0:0:0:0:
76,376,41707,1,8,0:2:0:0:
8,296,41957,5,2,0:2:0:0:
8,192,42207,2,0,L|8:88,1,88.000002685547,2|2,3:2|0:2,0:0:0:0:
16,52,42582,2,0,P|56:36|112:52,1,88.000002685547,2|0,0:2|0:0,0:0:0:0:
136,80,42957,1,2,0:2:0:0:
192,168,43207,1,2,3:2:0:0:
144,264,43457,5,2,0:2:0:0:
144,264,43582,1,2,0:2:0:0:
144,264,43707,1,10,0:2:0:0:
208,344,43957,1,2,0:2:0:0:
312,344,44207,2,0,P|336:304|328:248,1,88.000002685547,2|0,3:2|0:0,0:0:0:0:
308,224,44582,1,2,0:2:0:0:
308,224,44707,2,0,P|303:177|334:130,2,88.000002685547,10|0|0,0:2|0:0|3:2,0:0:0:0:
408,200,45457,2,0,L|504:224,1,88.000002685547,0|8,0:0|0:2,0:0:0:0:
512,112,45957,5,2,0:2:0:0:
512,112,46082,1,2,0:2:0:0:
512,112,46207,2,0,P|496:64|440:40,1,88.000002685547,2|2,3:2|0:2,0:0:0:0:
416,40,46582,2,0,P|381:66|370:108,1,88.000002685547,2|0,0:2|0:0,0:0:0:0:
336,144,46957,1,2,0:2:0:0:
248,84,47207,1,2,3:2:0:0:
148,116,47457,1,2,0:2:0:0:
116,216,47707,2,0,L|124:316,1,88.000002685547,10|2,0:2|0:2,0:0:0:0:
264,360,48207,6,0,B|336:360|336:360|360:328|360:328|440:328,1,191.999994140625,2|10,3:1|0:1,0:0:0:0:
512,208,48957,2,0,B|432:208|432:208|408:176|408:176|336:176,1,191.999994140625,2|2,0:1|0:1,0:0:0:0:
256,96,49707,1,8,0:2:0:0:
320,12,49957,5,2,0:2:0:0:
424,12,50207,2,0,P|456:52|456:92,1,88.000002685547,2|2,3:2|0:2,0:0:0:0:
448,140,50582,2,0,P|408:172|368:172,1,88.000002685547,2|0,0:2|0:0,0:0:0:0:
320,172,50957,1,2,0:2:0:0:
264,256,51207,1,2,3:2:0:0:
324,356,51457,5,2,0:2:0:0:
324,356,51582,1,2,0:2:0:0:
324,356,51707,1,10,0:2:0:0:
428,356,51957,1,2,0:2:0:0:
480,264,52207,2,0,P|488:216|456:160,1,88.000002685547,2|0,3:2|0:0,0:0:0:0:
444,144,52582,1,2,0:2:0:0:
444,144,52707,2,0,P|436:96|468:40,2,88.000002685547,10|0|0,0:2|0:0|3:2,0:0:0:0:
384,232,53457,1,0,0:0:0:0:
296,304,53707,5,10,0:2:0:0:
224,232,53957,1,2,0:2:0:0:
228,128,54207,2,0,P|196:80|108:64,2,120,8|8|4,3:3|0:3|0:3,0:0:0:0:
224,232,55207,2,0,P|268:228|308:184,1,80,4|4,0:3|0:3,0:0:0:0:
320,168,55582,1,4,0:3:0:0:
320,168,55707,1,4,0:3:0:0:
228,128,55957,1,4,0:3:0:0:
104,168,56207,6,0,P|78:219|96:288,1,95.9999970703126,4|0,3:2|0:0,0:0:0:0:
96,312,56582,1,2,0:1:0:0:
136,352,56707,1,8,0:2:0:0:
240,304,56957,5,2,0:2:0:0:
344,352,57207,1,2,3:2:0:0:
448,304,57457,1,2,0:2:0:0:
344,248,57707,1,10,0:2:0:0:
244,192,57957,1,2,0:2:0:0:
240,72,58207,6,0,P|256:32|320:8,1,95.9999970703126,2|0,3:2|0:0,0:0:0:0:
360,8,58582,1,2,0:1:0:0:
412,36,58707,1,8,0:2:0:0:
496,116,58957,5,2,0:2:0:0:
404,184,59207,1,2,3:2:0:0:
416,308,59457,1,2,0:2:0:0:
416,308,59582,1,2,0:2:0:0:
416,308,59707,2,0,P|456:316|512:284,1,95.9999970703126,10|2,0:2|0:2,0:0:0:0:
404,184,60207,6,0,P|364:176|308:208,1,95.9999970703126,2|0,3:2|0:0,0:0:0:0:
276,244,60582,1,2,0:1:0:0:
268,300,60707,1,8,0:2:0:0:
176,368,60957,5,2,0:2:0:0:
64,368,61207,1,2,3:2:0:0:
16,264,61457,1,2,0:2:0:0:
64,160,61707,1,10,0:2:0:0:
16,56,61957,1,2,0:2:0:0:
120,8,62207,1,2,3:2:0:0:
184,120,62457,5,2,0:2:0:0:
184,120,62582,1,2,0:2:0:0:
184,120,62707,2,0,L|208:248,1,95.9999970703126,10|2,0:2|0:2,0:0:0:0:
192,272,63082,1,2,0:2:0:0:
192,272,63207,2,0,L|320:248,1,95.9999970703126,2|2,3:2|0:2,0:0:0:0:
344,264,63582,1,2,0:2:0:0:
344,264,63707,2,0,L|320:136,1,95.9999970703126,10|2,0:2|0:2,0:0:0:0:
344,24,64207,6,0,B|388:8|388:8|440:24,1,95.9999970703126,4|0,3:2|0:0,0:0:0:0:
488,48,64582,1,2,0:1:0:0:
504,104,64707,1,8,0:2:0:0:
512,216,64957,5,2,0:2:0:0:
480,328,65207,1,2,3:2:0:0:
368,328,65457,1,2,0:2:0:0:
328,216,65707,1,10,0:2:0:0:
412,128,65957,1,2,0:2:0:0:
352,8,66207,6,0,P|288:16|257:51,1,95.9999970703126,2|0,3:2|0:0,0:0:0:0:
236,84,66582,1,2,0:1:0:0:
228,140,66707,1,8,0:2:0:0:
240,256,66957,5,2,0:2:0:0:
192,360,67207,1,2,3:2:0:0:
88,368,67457,1,2,0:2:0:0:
88,368,67582,1,2,0:2:0:0:
88,368,67707,2,0,P|56:336|64:264,1,95.9999970703126,10|2,0:2|0:2,0:0:0:0:
120,176,68207,6,0,P|136:136|112:72,1,95.9999970703126,2|0,3:2|0:0,0:0:0:0:
84,48,68582,1,2,0:1:0:0:
28,44,68707,1,8,0:2:0:0:
8,156,68957,5,2,0:2:0:0:
64,256,69207,1,2,3:2:0:0:
180,264,69457,1,2,0:2:0:0:
244,168,69707,1,10,0:2:0:0:
264,56,69957,1,2,0:2:0:0:
368,4,70207,1,2,3:2:0:0:
488,72,70457,5,2,0:2:0:0:
488,72,70582,1,2,0:2:0:0:
488,72,70707,2,0,P|504:120|492:168,1,80,2|2,0:2|0:2,0:0:0:0:
504,200,71082,1,2,0:2:0:0:
504,200,71207,2,0,P|456:216|408:204,1,80,2|2,0:2|0:2,0:0:0:0:
384,224,71582,1,2,0:2:0:0:
384,224,71707,2,0,P|352:168|392:88,1,143.999995605469,2|0,0:2|0:0,0:0:0:0:
32,80,80207,5,0,3:2:0:0:
0,152,80457,1,2,0:2:0:0:
32,224,80707,2,0,L|128:232,1,71.9999978027344,2|2,3:2|0:2,0:0:0:0:
176,192,81207,2,0,P|184:152|168:96,2,71.9999978027344,2|2|2,3:2|0:2|3:2,0:0:0:0:
180,276,81957,1,2,0:2:0:0:
180,276,82207,1,2,3:2:0:0:
112,320,82457,2,0,P|208:356|260:272,1,215.999993408203,2|0,0:2|3:2,0:0:0:0:
264,184,83457,5,2,0:2:0:0:
264,184,83582,1,2,0:2:0:0:
264,184,83707,2,0,L|264:88,1,71.9999978027344,2|2,3:2|0:2,0:0:0:0:
276,76,84082,1,2,0:2:0:0:
276,76,84207,2,0,P|308:36|404:36,1,143.999995605469,2|0,3:2|3:2,0:0:0:0:
464,72,84957,1,2,0:2:0:0:
416,136,85207,2,0,P|368:160|316:151,2,107.999996704102,2|2|2,3:2|0:2|0:2,0:0:0:0:
464,200,86207,2,0,L|472:344,2,143.999995605469,0|0|0,3:2|3:2|3:2,0:0:0:0:
376,152,87457,5,2,0:2:0:0:
344,236,87707,1,0,3:2:0:0:
344,236,87832,1,2,0:0:0:0:
344,236,87957,1,0,0:0:0:0:
368,320,88207,2,0,P|320:376|236:352,1,143.999995605469,2|0,3:2|3:2,0:0:0:0:
172,296,88957,5,2,0:2:0:0:
136,224,89207,2,0,P|144:176|168:144,1,71.9999978027344,2|0,3:2|0:0,0:0:0:0:
180,128,89582,1,2,0:2:0:0:
180,128,89707,1,0,3:2:0:0:
264,72,89957,2,0,P|176:16|88:72,1,215.999993408203,2|0,0:2|3:2,0:0:0:0:
56,148,90957,2,0,P|76:200|124:220,1,107.999996704102,2|0,0:2|0:0,0:0:0:0:
164,216,91457,5,2,0:2:0:0:
220,152,91707,1,2,3:2:0:0:
304,164,91957,2,0,L|396:176,1,71.9999978027344,2|0,0:2|3:2,0:0:0:0:
464,144,92457,2,0,L|456:232,1,75.9999979705811,2|8,0:2|2:2,0:0:0:0:
488,304,92957,2,0,L|400:296,1,75.9999979705811,2|0,0:2|3:2,0:0:0:0:
320,376,93457,5,2,0:2:0:0:
240,328,93707,1,10,2:2:0:0:
160,376,93957,2,0,P|120:368|88:336,1,75.9999979705811,2|0,0:2|3:2,0:0:0:0:
24,288,94457,2,0,P|32:248|64:216,1,75.9999979705811,2|8,0:2|2:2,0:0:0:0:
112,152,94957,2,0,P|144:152|176:184,1,75.9999979705811,2|0,0:2|3:2,0:0:0:0:
256,272,95457,5,2,0:2:0:0:
336,312,95707,1,10,2:2:0:0:
416,272,95957,2,0,L|424:192,1,75.9999979705811,2|0,0:2|3:2,0:0:0:0:
456,112,96457,2,0,L|376:104,1,75.9999979705811,2|8,0:2|0:2,0:0:0:0:
304,56,96957,2,0,L|296:136,1,75.9999979705811,2|0,0:2|3:2,0:0:0:0:
280,240,97457,5,2,0:2:0:0:
208,184,97707,1,10,0:2:0:0:
136,240,97957,2,0,P|128:288|144:336,1,75.9999979705811,2|0,0:2|3:2,0:0:0:0:
208,368,98457,2,0,P|256:376|304:360,1,75.9999979705811,2|8,0:2|0:2,0:0:0:0:
352,312,98957,2,0,P|360:264|344:216,1,75.9999979705811,2|0,0:2|3:2,0:0:0:0:
360,152,99457,5,2,0:2:0:0:
360,152,99582,1,2,0:2:0:0:
360,152,99707,1,2,0:2:0:0:
272,128,99957,1,2,0:2:0:0:
232,264,100207,6,0,B|192:320|192:320|112:320|112:320|64:376,1,207.999990478516,6|10,3:1|0:1,0:0:0:0:
0,224,100957,2,0,B|40:168|40:168|120:168|120:168|168:112,1,207.999990478516,2|2,0:1|0:1,0:0:0:0:
256,40,101707,1,8,0:2:0:0:
336,120,101957,5,2,0:2:0:0:
408,40,102207,2,0,P|456:24|504:40,1,88.000002685547,2|2,3:2|0:2,0:0:0:0:
512,80,102582,2,0,P|501:129|464:163,1,88.000002685547,2|0,0:2|0:0,0:0:0:0:
432,184,102957,1,2,0:2:0:0:
496,272,103207,1,2,3:2:0:0:
440,368,103457,5,2,0:2:0:0:
440,368,103582,1,2,0:2:0:0:
440,368,103707,1,10,0:2:0:0:
336,372,103957,1,2,0:2:0:0:
300,272,104207,2,0,P|292:232|308:176,1,88.000002685547,2|0,3:2|0:0,0:0:0:0:
328,140,104582,1,2,0:2:0:0:
328,140,104707,2,0,P|336:100|320:44,2,88.000002685547,10|0|0,0:2|0:0|3:2,0:0:0:0:
236,92,105457,2,0,L|140:76,1,88.000002685547,0|8,0:0|0:2,0:0:0:0:
32,64,105957,5,2,0:2:0:0:
32,64,106082,1,2,0:2:0:0:
32,64,106207,2,0,P|8:112|24:176,1,88.000002685547,2|2,3:2|0:2,0:0:0:0:
20,196,106582,2,0,P|68:220|132:204,1,88.000002685547,2|0,0:2|0:0,0:0:0:0:
148,196,106957,1,2,0:2:0:0:
244,236,107207,1,2,3:2:0:0:
248,340,107457,1,2,0:2:0:0:
152,384,107707,2,0,P|112:364|96:312,1,88.000002685547,10|2,0:2|0:2,0:0:0:0:
148,196,108207,6,0,B|172:140|172:140|148:76|148:76|180:20,1,191.999994140625,2|10,3:1|0:1,0:0:0:0:
332,21,108957,2,0,B|364:76|364:76|340:140|340:140|364:196,1,191.999994140625,2|2,0:1|0:1,0:0:0:0:
480,216,109707,1,8,0:2:0:0:
488,336,109957,5,2,0:2:0:0:
388,372,110207,2,0,P|348:364|316:332,1,88.000002685547,2|2,3:2|0:2,0:0:0:0:
312,280,110582,2,0,P|285:249|241:237,1,88.000002685547,2|0,0:2|0:0,0:0:0:0:
192,248,110957,1,2,0:2:0:0:
144,344,111207,1,2,3:2:0:0:
48,344,111457,5,2,0:2:0:0:
48,344,111582,1,2,0:2:0:0:
48,344,111707,1,10,0:2:0:0:
8,248,111957,1,2,0:2:0:0:
8,144,112207,2,0,P|32:112|84:96,1,88.000002685547,2|0,3:2|0:0,0:0:0:0:
132,104,112582,1,2,0:2:0:0:
132,104,112707,2,0,P|173:90|199:55,2,88.000002685547,10|0|0,0:2|0:0|3:2,0:0:0:0:
108,208,113457,1,0,0:0:0:0:
168,296,113707,5,10,0:2:0:0:
256,352,113957,1,2,0:2:0:0:
344,296,114207,2,0,L|352:160,2,120,8|8|4,3:3|0:3|0:3,0:0:0:0:
400,376,115207,2,0,P|432:352|432:288,1,80,4|4,0:3|0:3,0:0:0:0:
440,272,115582,1,4,0:3:0:0:
440,272,115707,1,4,0:3:0:0:
496,200,115957,1,4,0:3:0:0:
472,80,116207,6,0,B|438:47|438:47|372:48,1,95.9999970703126,4|0,3:2|0:0,0:0:0:0:
332,55,116582,1,2,0:1:0:0:
289,95,116707,1,8,0:2:0:0:
288,208,116957,5,2,0:2:0:0:
260,320,117207,1,2,3:2:0:0:
152,360,117457,1,2,0:2:0:0:
48,308,117707,1,10,0:2:0:0:
16,196,117957,1,2,0:2:0:0:
48,64,118207,6,0,P|80:32|160:40,1,95.9999970703126,2|0,3:2|0:0,0:0:0:0:
184,36,118582,1,2,0:1:0:0:
216,84,118707,1,8,0:2:0:0:
192,196,118957,5,2,0:2:0:0:
240,300,119207,1,2,3:2:0:0:
360,328,119457,1,2,0:2:0:0:
360,328,119582,1,2,0:2:0:0:
360,328,119707,2,0,P|400:304|424:256,1,95.9999970703126,10|2,0:2|0:2,0:0:0:0:
440,136,120207,6,0,P|408:104|352:96,1,95.9999970703126,2|0,3:2|0:0,0:0:0:0:
304,104,120582,1,2,0:1:0:0:
268,148,120707,1,8,0:2:0:0:
256,264,120957,5,2,0:2:0:0:
160,328,121207,1,2,3:2:0:0:
56,280,121457,1,2,0:2:0:0:
16,172,121707,1,10,0:2:0:0:
44,60,121957,1,2,0:2:0:0:
148,8,122207,1,2,3:2:0:0:
264,80,122457,5,2,0:2:0:0:
264,80,122582,1,2,0:2:0:0:
264,80,122707,2,0,P|320:88|360:56,1,95.9999970703126,10|2,0:2|0:2,0:0:0:0:
400,40,123082,1,2,0:2:0:0:
400,40,123207,2,0,P|392:96|424:136,1,95.9999970703126,2|2,3:2|0:2,0:0:0:0:
456,168,123582,1,2,0:2:0:0:
456,168,123707,2,0,P|400:160|360:192,1,95.9999970703126,10|2,0:2|0:2,0:0:0:0:
352,312,124207,6,0,B|296:312|296:312|240:264,1,95.9999970703126,4|0,3:2|0:0,0:0:0:0:
224,248,124582,1,2,0:1:0:0:
212,192,124707,1,8,0:2:0:0:
272,96,124957,5,2,0:2:0:0:
204,0,125207,1,2,3:2:0:0:
88,0,125457,1,2,0:2:0:0:
20,96,125707,1,10,0:2:0:0:
12,212,125957,1,2,0:2:0:0:
72,328,126207,6,0,P|120:344|168:312,1,95.9999970703126,2|0,3:2|0:0,0:0:0:0:
188,276,126582,1,2,0:1:0:0:
184,220,126707,1,8,0:2:0:0:
192,104,126957,5,2,0:2:0:0:
272,20,127207,1,2,3:2:0:0:
396,24,127457,1,2,0:2:0:0:
396,24,127582,1,2,0:2:0:0:
396,24,127707,2,0,P|436:48|452:96,1,95.9999970703126,10|2,0:2|0:2,0:0:0:0:
448,224,128207,6,0,P|416:256|352:256,1,95.9999970703126,2|0,3:2|0:0,0:0:0:0:
312,240,128582,1,2,0:1:0:0:
292,188,128707,1,8,0:2:0:0:
264,76,128957,5,2,0:2:0:0:
168,8,129207,1,2,3:2:0:0:
60,48,129457,1,2,0:2:0:0:
24,156,129707,1,10,0:2:0:0:
56,268,129957,1,2,0:2:0:0:
160,320,130207,2,0,P|208:320|248:272,2,95.9999970703126,2|0|0,3:2|0:0|0:0,0:0:0:0:
208,104,140207,6,0,P|192:152|208:200,1,80,2|0,1:2|0:0,0:0:0:0:
232,224,140582,1,2,0:2:0:0:
232,224,140707,1,0,1:2:0:0:
316,180,140957,2,0,P|321:141|306:105,1,80,10|0,0:2|1:2,0:0:0:0:
376,40,141457,1,2,0:2:0:0:
448,104,141707,2,0,P|432:140|437:179,1,80,2|10,1:2|0:2,0:0:0:0:
424,276,142207,2,0,L|320:276,1,80,2|0,1:2|0:0,0:0:0:0:
304,296,142582,1,2,0:2:0:0:
304,296,142707,2,0,P|288:336|304:400,2,80,0|2|0,1:2|0:2|1:2,0:0:0:0:
264,208,143457,5,2,0:2:0:0:
304,120,143707,2,0,L|352:120,2,40,2|2|2,1:2|0:2|0:2,0:0:0:0:
264,32,144207,2,0,P|216:8|160:32,1,80,2|0,1:2|0:0,0:0:0:0:
156,40,144582,1,2,0:2:0:0:
156,40,144707,1,0,1:2:0:0:
152,136,144957,2,0,L|152:224,1,80,10|8,0:2|1:2,0:0:0:0:
152,320,145457,5,10,0:2:0:0:
64,360,145707,2,0,L|16:360,2,40,10|8|2,1:2|0:2|0:2,0:0:0:0:
56,264,146207,2,0,L|56:176,1,80,2|0,1:2|0:0,0:0:0:0:
56,140,146582,1,2,0:2:0:0:
56,140,146707,1,0,1:2:0:0:
80,48,146957,2,0,P|120:32|176:56,1,80,10|8,0:2|1:2,0:0:0:0:
248,88,147457,5,2,0:2:0:0:
320,40,147707,2,0,L|320:0,2,40,2|2|2,1:2|0:2|0:2,0:0:0:0:
324,140,148207,2,0,P|368:152|412:132,1,83.9999974365235,2|0,1:2|0:0,0:0:0:0:
432,100,148582,1,2,0:2:0:0:
432,100,148707,1,0,1:2:0:0:
504,168,148957,2,0,L|508:272,1,83.9999974365235,10|8,0:2|1:2,0:0:0:0:
512,360,149457,5,2,0:2:0:0:
408,352,149707,2,0,L|320:344,1,83.9999974365235,2|2,1:2|0:2,0:0:0:0:
224,328,150207,2,0,P|216:288|240:232,1,83.9999974365235,2|0,1:2|0:0,0:0:0:0:
256,208,150582,1,2,0:2:0:0:
256,208,150707,2,0,P|264:168|240:112,2,83.9999974365235,0|2|8,1:2|0:2|1:2,0:0:0:0:
160,172,151457,5,2,0:2:0:0:
96,248,151707,2,0,L|96:304,2,41.9999987182618,2|2|2,1:2|0:2|0:2,0:0:0:0:
32,168,152207,2,0,P|24:128|48:72,1,83.9999974365235,2|0,1:2|0:0,0:0:0:0:
64,48,152582,1,2,0:2:0:0:
64,48,152707,1,0,1:2:0:0:
152,8,152957,2,0,P|196:24|244:4,1,83.9999974365235,10|8,0:2|1:2,0:0:0:0:
312,80,153457,5,10,0:2:0:0:
224,128,153707,2,0,L|168:128,2,41.9999987182618,10|8|2,1:2|0:0|0:2,0:0:0:0:
224,248,154207,5,2,1:2:0:0:
284,340,154457,1,0,1:0:0:0:
392,360,154707,1,0,1:2:0:0:
472,284,154957,1,2,1:2:0:0:
492,176,155207,1,0,1:2:0:0:
448,88,155457,5,2,0:2:0:0:
448,88,155582,1,2,0:2:0:0:
448,88,155707,1,2,0:2:0:0:
376,16,155957,1,2,0:2:0:0:
368,144,156207,6,0,B|368:232|368:232|336:272|336:272|336:368,1,223.999993164063,6|10,3:1|0:1,0:0:0:0:
176,356,156957,2,0,B|176:272|176:272|144:232|144:232|144:144,1,223.999993164063,2|2,0:1|0:1,0:0:0:0:
32,72,157707,1,8,0:2:0:0:
128,8,157957,5,2,0:2:0:0:
224,72,158207,2,0,P|272:88|328:64,1,95.9999970703126,2|2,3:2|0:2,0:0:0:0:
352,32,158582,2,0,P|400:16|456:40,1,95.9999970703126,2|0,0:2|0:0,0:0:0:0:
480,72,158957,1,2,0:2:0:0:
424,168,159207,1,2,3:2:0:0:
488,280,159457,5,2,0:2:0:0:
488,280,159582,1,2,0:2:0:0:
488,280,159707,1,10,0:2:0:0:
404,360,159957,1,2,0:2:0:0:
288,360,160207,2,0,P|272:312|288:248,1,95.9999970703126,2|0,3:2|0:0,0:0:0:0:
308,220,160582,1,2,0:2:0:0:
308,220,160707,2,0,P|324:172|308:108,2,95.9999970703126,10|0|0,0:2|0:0|3:2,0:0:0:0:
216,152,161457,2,0,L|120:112,1,95.9999970703126,0|8,0:0|0:2,0:0:0:0:
44,32,161957,5,2,0:2:0:0:
44,32,162082,1,2,0:2:0:0:
44,32,162207,2,0,P|4:64|0:120,1,95.9999970703126,2|2,3:2|0:2,0:0:0:0:
0,164,162582,2,0,P|32:204|88:208,1,95.9999970703126,2|0,0:2|0:0,0:0:0:0:
128,208,162957,1,2,0:2:0:0:
208,288,163207,1,2,3:2:0:0:
288,208,163457,1,2,0:2:0:0:
208,120,163707,2,0,P|160:140|136:192,1,95.9999970703126,10|2,0:2|0:2,0:0:0:0:
288,208,164207,6,0,B|328:176|328:176|328:72|328:72|376:32,1,207.999990478516,2|10,3:1|0:1,0:0:0:0:
504,144,164957,2,0,B|464:176|464:176|464:280|464:280|416:320,1,207.999990478516,2|2,0:1|0:1,0:0:0:0:
312,376,165707,1,8,0:2:0:0:
216,320,165957,5,2,0:2:0:0:
280,224,166207,2,0,P|272:184|224:144,1,95.9999970703126,2|2,3:2|0:2,0:0:0:0:
176,144,166582,2,0,P|140:174|128:220,1,95.9999970703126,2|0,0:2|0:0,0:0:0:0:
136,280,166957,1,2,0:2:0:0:
72,376,167207,1,2,3:2:0:0:
8,280,167457,5,2,0:2:0:0:
8,280,167582,1,2,0:2:0:0:
8,280,167707,1,10,0:2:0:0:
40,172,167957,1,2,0:2:0:0:
0,64,168207,2,0,P|32:40|88:40,1,95.9999970703126,2|0,3:2|0:0,0:0:0:0:
144,68,168582,1,2,0:2:0:0:
144,68,168707,2,0,P|183:72|232:44,2,95.9999970703126,10|0|0,0:2|0:0|3:2,0:0:0:0:
76,160,169457,1,0,0:0:0:0:
176,224,169707,5,10,0:2:0:0:
272,160,169957,1,2,0:2:0:0:
368,224,170207,2,0,P|392:280|368:344,2,120,8|8|4,3:3|0:3|0:3,0:0:0:0:
334,116,171207,2,0,P|297:129|272:159,1,80,4|4,0:3|0:3,0:0:0:0:
260,208,171582,1,4,0:3:0:0:
260,208,171707,1,4,0:3:0:0:
256,304,171957,1,4,0:3:0:0:
144,352,172207,6,0,B|89:349|89:349|46:316,1,103.999995239258,4|0,3:2|0:0,0:0:0:0:
4,274,172582,1,2,0:1:0:0:
6,212,172707,1,8,0:2:0:0:
40,64,172957,5,6,0:2:0:0:
152,4,173207,1,2,3:2:0:0:
272,40,173457,1,2,0:2:0:0:
288,164,173707,1,10,0:2:0:0:
200,252,173957,1,2,0:2:0:0:
264,360,174207,2,0,P|312:376|368:352,1,103.999995239258,2|0,3:2|0:0,0:0:0:0:
404,312,174582,1,2,0:1:0:0:
408,248,174707,1,8,0:2:0:0:
396,104,174957,5,6,0:2:0:0:
300,28,175207,1,2,3:2:0:0:
208,108,175457,1,2,0:2:0:0:
208,108,175582,1,2,0:2:0:0:
208,108,175707,2,0,L|192:220,1,103.999995239258,10|2,0:2|0:2,0:0:0:0:
160,332,176207,2,0,P|104:320|72:272,1,103.999995239258,2|0,3:2|0:0,0:0:0:0:
56,224,176582,1,2,0:1:0:0:
60,160,176707,1,8,0:2:0:0:
96,24,176957,5,6,0:2:0:0:
192,96,177207,1,2,3:2:0:0:
288,24,177457,1,2,0:2:0:0:
384,96,177707,1,10,0:2:0:0:
480,16,177957,1,2,0:2:0:0:
512,136,178207,1,2,3:2:0:0:
512,268,178457,5,2,0:2:0:0:
512,268,178582,1,2,0:2:0:0:
512,268,178707,2,0,P|448:284|400:260,1,103.999995239258,10|2,0:2|0:2,0:0:0:0:
368,236,179082,1,2,0:2:0:0:
368,236,179207,2,0,P|304:220|256:244,1,103.999995239258,2|2,3:2|0:2,0:0:0:0:
212,244,179582,1,2,0:2:0:0:
212,244,179707,2,0,P|148:260|100:236,1,103.999995239258,10|2,0:2|0:2,0:0:0:0:
8,160,180207,6,0,B|0:104|0:104|48:32,1,103.999995239258,4|0,3:2|0:0,0:0:0:0:
76,24,180582,1,2,0:1:0:0:
136,16,180707,1,8,0:2:0:0:
256,96,180957,5,6,0:2:0:0:
212,212,181207,1,2,3:2:0:0:
268,324,181457,1,2,0:2:0:0:
392,348,181707,1,10,0:2:0:0:
476,256,181957,1,2,0:2:0:0:
484,132,182207,2,0,P|468:80|412:56,1,103.999995239258,2|0,3:2|0:0,0:0:0:0:
364,48,182582,1,2,0:1:0:0:
304,68,182707,1,8,0:2:0:0:
264,200,182957,5,6,0:2:0:0:
216,316,183207,1,2,3:2:0:0:
100,348,183457,1,2,0:2:0:0:
100,348,183582,1,2,0:2:0:0:
100,348,183707,2,0,P|60:316|44:260,1,103.999995239258,10|2,0:2|0:2,0:0:0:0:
36,144,184207,2,0,P|52:95|92:63,1,103.999995239258,2|0,3:2|0:0,0:0:0:0:
148,36,184582,1,2,0:1:0:0:
208,48,184707,1,8,0:2:0:0:
256,164,184957,5,2,0:2:0:0:
300,280,185207,1,2,3:2:0:0:
424,304,185457,1,2,0:2:0:0:
504,208,185707,1,10,0:2:0:0:
496,84,185957,2,0,P|464:44|392:36,1,103.999995239258,2|2,0:2|2:2,0:0:0:0:
340,88,186457,5,2,0:2:0:0:
340,88,186582,1,2,0:2:0:0:
340,88,186707,2,0,P|324:128|340:184,1,80,2|2,0:2|0:2,0:0:0:0:
312,208,187082,1,2,0:2:0:0:
312,208,187207,2,0,P|272:192|216:208,1,80,2|2,0:2|0:2,0:0:0:0:
200,168,187582,1,2,0:2:0:0:
200,168,187707,2,0,P|230:90|192:8,1,160,2|0,0:2|0:0,0:0:0:0:
