osu file format v14

[General]
AudioFilename: audio.mp3
AudioLeadIn: 0
PreviewTime: 39619
Countdown: 0
SampleSet: Normal
StackLeniency: 0.4
Mode: 0
LetterboxInBreaks: 0
WidescreenStoryboard: 1

[Editor]
DistanceSpacing: 1
BeatDivisor: 4
GridSize: 8
TimelineZoom: 1

[Metadata]
Title:Maps
TitleUnicode:Maps
Artist:Maroon 5
ArtistUnicode:Maroon 5
Creator:Battleaxe07
Version:Normal
Source:
Tags:Maroon 5 Maps Song Battleaxe07
BeatmapID:1216209
BeatmapSetID:574215

[Difficulty]
HPDrainRate:3
CircleSize:3
OverallDifficulty:2
ApproachRate:5
SliderMultiplier:1.5
SliderTickRate:1

[Events]
//Background and Video events
0,0,"Maps Maroon 5.jpg",0,0
//Break Periods
2,72033,78893
2,130533,138893
//Storyboard Layer 0 (Background)
//Storyboard Layer 1 (Fail)
//Storyboard Layer 2 (Pass)
//Storyboard Layer 3 (Foreground)
//Storyboard Sound Samples

[TimingPoints]
833.798319327731,500,4,1,0,100,1,0

[Colours]
Combo1 : 255,0,0
Combo2 : 0,255,255
Combo3 : 0,255,0
Combo4 : 0,0,255

[HitObjects]
88,80,333,6,0,P|48:152|48:232,1,150
192,256,1333,2,0,P|248:160|232:128,1,150
96,88,2333,1,0,0:0:0:0:
72,232,2833,1,0,0:0:0:0:
208,288,3333,1,0,0:0:0:0:
136,288,3583,6,0,L|104:328,2,37.5
136,216,4083,1,0,0:0:0:0:
208,208,4333,2,0,P|288:128|288:88,1,150
352,136,5083,2,0,P|264:88|208:88,1,150
144,120,5833,2,0,P|56:208|32:240,1,150
168,304,6833,5,0,0:0:0:0:
312,280,7333,1,0,0:0:0:0:
392,152,7833,1,0,0:0:0:0:
112,144,8333,6,0,P|88:232|104:304,1,150
248,296,9333,2,0,P|304:224|288:160,1,150
200,56,10333,1,0,0:0:0:0:
72,136,10833,1,0,0:0:0:0:
200,216,11333,1,0,0:0:0:0:
144,272,11583,6,8,L|96:320,2,37.5
88,224,12083,1,0,0:0:0:0:
160,200,12333,2,0,P|248:144|256:72,1,150
320,144,13083,2,0,P|240:96|168:104,1,150
184,176,13833,2,0,P|96:224|56:272,1,150
96,112,16333,5,0,0:0:0:0:
136,256,16833,1,0,0:0:0:0:
288,272,17333,1,0,0:0:0:0:
368,144,17833,1,0,0:0:0:0:
240,72,18333,5,0,0:0:0:0:
152,192,18833,1,0,0:0:0:0:
248,304,19333,1,0,0:0:0:0:
368,208,19833,6,0,P|312:152|224:160,1,150
96,168,20833,2,0,P|120:96|200:64,1,150
328,104,21833,2,0,P|368:168|352:248,1,150
216,288,22833,5,0,0:0:0:0:
128,168,23333,1,0,0:0:0:0:
144,336,23833,6,0,P|48:240|48:208,2,150
288,304,25333,1,0,0:0:0:0:
368,176,25833,1,0,0:0:0:0:
264,72,26333,6,0,P|136:104|104:120,1,150
88,256,27333,1,0,0:0:0:0:
216,312,27833,1,0,0:0:0:0:
352,256,28333,1,0,0:0:0:0:
400,112,28833,1,0,0:0:0:0:
256,64,29333,6,0,P|128:48|80:64,1,150
72,120,30083,2,0,P|48:152|48:216,2,75
128,288,31583,5,0,0:0:0:0:
192,328,31833,1,0,0:0:0:0:
256,304,32083,2,0,B|320:256|320:200|296:144,2,150
168,184,33583,1,0,0:0:0:0:
216,56,34083,1,0,0:0:0:0:
368,56,34583,1,0,0:0:0:0:
376,208,35083,1,0,0:0:0:0:
264,304,35583,6,0,L|160:288,1,75
128,248,36083,1,0,0:0:0:0:
40,128,36583,1,0,0:0:0:0:
176,64,37083,1,0,0:0:0:0:
328,80,37583,1,0,0:0:0:0:
384,200,38083,1,0,0:0:0:0:
288,312,38583,1,0,0:0:0:0:
136,304,39083,1,0,0:0:0:0:
136,304,40333,6,0,P|80:216|80:160,1,150
72,96,41083,2,0,P|184:48|232:40,1,150
288,48,41833,1,0,0:0:0:0:
280,200,42333,1,0,0:0:0:0:
424,144,42833,1,0,0:0:0:0:
288,80,43333,1,0,0:0:0:0:
248,224,43833,1,0,0:0:0:0:
120,200,44333,6,0,P|120:88|168:64,1,150
216,56,45083,2,0,P|304:48|352:112,1,150
384,152,45833,1,0,0:0:0:0:
304,288,46333,5,0,0:0:0:0:
184,272,46833,1,0,0:0:0:0:
104,184,47333,1,0,0:0:0:0:
184,96,47833,1,0,0:0:0:0:
304,96,48333,6,0,P|368:152|344:232,1,150
312,272,49083,2,0,P|216:312|160:288,1,150
128,248,49833,1,0,0:0:0:0:
80,104,50333,1,0,0:0:0:0:
192,64,50833,1,0,0:0:0:0:
328,56,51333,1,0,0:0:0:0:
408,160,51833,2,0,L|320:208,1,75
272,216,52333,2,0,P|168:208|120:160,1,150
232,56,53333,1,0,0:0:0:0:
376,88,53833,1,0,0:0:0:0:
400,208,54333,6,0,L|456:288,1,75
368,288,54833,2,0,L|296:352,1,75
240,336,55333,1,0,0:0:0:0:
176,296,55583,1,0,0:0:0:0:
112,256,55833,1,0,0:0:0:0:
96,184,56083,6,0,L|152:128,3,75
208,80,57083,1,0,0:0:0:0:
272,40,57333,1,0,0:0:0:0:
336,88,57583,2,0,L|432:144,1,75
376,200,58083,1,0,0:0:0:0:
272,264,58583,2,0,L|192:240,1,75
144,192,59083,1,0,0:0:0:0:
216,96,59583,1,0,0:0:0:0:
288,96,59833,6,0,L|360:160,1,75
336,224,60333,2,0,P|264:288|192:272,1,150
144,272,61083,2,0,L|80:216,1,75
48,152,61583,1,0,0:0:0:0:
152,40,62083,5,0,0:0:0:0:
224,72,62333,1,0,0:0:0:0:
296,80,62583,6,8,L|360:56,2,37.5
320,152,63083,1,0,0:0:0:0:
328,224,63333,2,8,L|328:288,2,37.5
256,216,63833,1,0,0:0:0:0:
176,224,64083,1,0,0:0:0:0:
176,152,64333,2,0,P|224:248|184:288,1,150
344,272,65083,6,0,L|256:296,1,75
208,232,65583,2,0,L|112:216,1,75
64,184,66083,1,0,0:0:0:0:
96,120,66333,2,0,P|184:56|256:64,1,150
296,72,67083,5,0,0:0:0:0:
360,112,67333,1,0,0:0:0:0:
384,248,67833,2,0,L|296:296,1,75
248,296,68333,2,0,P|120:264|96:240,1,150
144,184,69083,2,0,L|168:112,1,75
216,56,69583,2,0,L|312:64,1,75
344,120,70083,2,0,L|384:208,1,75
240,272,70583,6,0,L|200:288,2,37.5,0|0|0,0:0|0:0|0:0,0:0:0:0:
400,272,71083,2,2,L|448:312,2,37.5
328,144,71583,2,10,L|328:88,2,37.5
80,64,80333,5,0,0:0:0:0:
56,216,80833,1,0,0:0:0:0:
184,288,81333,1,0,0:0:0:0:
336,296,81833,1,0,0:0:0:0:
416,168,82333,1,0,0:0:0:0:
336,80,82833,6,0,L|248:40,1,75
192,48,83333,1,0,0:0:0:0:
56,104,83833,1,0,0:0:0:0:
80,248,84333,1,0,0:0:0:0:
208,328,84833,1,0,0:0:0:0:
360,312,85333,1,0,0:0:0:0:
440,184,85833,1,0,0:0:0:0:
320,48,86333,6,0,P|208:48|176:64,1,150
80,184,87333,2,0,P|32:264|40:320,1,150
192,328,88333,2,0,P|336:304|416:272,1,225
432,208,89333,1,0,0:0:0:0:
312,112,89833,5,0,0:0:0:0:
168,72,90333,1,0,0:0:0:0:
448,144,91583,6,0,L|384:200,1,75
320,208,92083,1,0,0:0:0:0:
200,304,92583,1,0,0:0:0:0:
96,192,93083,1,0,0:0:0:0:
128,48,93583,2,0,L|216:88,1,75
256,128,94083,1,0,0:0:0:0:
384,208,94583,1,0,0:0:0:0:
256,280,95083,1,0,0:0:0:0:
120,208,95583,6,0,L|160:128,1,75
192,80,96083,1,0,0:0:0:0:
344,96,96583,1,0,0:0:0:0:
376,240,97083,1,0,0:0:0:0:
232,264,97583,1,0,0:0:0:0:
128,160,98083,1,0,0:0:0:0:
232,48,98583,1,0,0:0:0:0:
256,192,98708,12,0,99833,0:0:0:0:
336,88,100333,6,0,P|416:120|456:184,1,150
408,232,101083,1,0,0:0:0:0:
272,304,101583,1,0,0:0:0:0:
152,216,102083,1,0,0:0:0:0:
104,160,102333,2,0,P|72:80|120:48,1,150
184,48,103083,1,0,0:0:0:0:
336,56,103583,2,0,P|384:40|424:72,1,75
424,120,104083,5,0,0:0:0:0:
424,192,104333,2,0,P|352:256|272:248,1,150
96,216,105333,1,0,0:0:0:0:
192,104,105833,1,0,0:0:0:0:
296,208,106333,1,0,0:0:0:0:
184,312,106833,1,0,0:0:0:0:
336,312,107333,1,0,0:0:0:0:
376,168,107833,6,0,L|296:96,1,75
256,80,108333,2,0,P|176:120|128:168,1,150
208,296,109333,1,0,0:0:0:0:
304,176,109833,1,0,0:0:0:0:
440,232,110333,1,0,0:0:0:0:
304,288,110833,1,0,0:0:0:0:
160,248,111333,1,0,0:0:0:0:
32,328,111833,6,0,L|80:240,1,75
112,200,112333,2,0,P|172:81|204:73,2,150
216,312,113833,1,0,0:0:0:0:
360,272,114333,6,8,L|448:288,2,75
352,168,115083,2,8,L|440:168,2,75
304,64,115833,2,8,L|376:16,2,75
192,168,116833,5,0,0:0:0:0:
104,296,117333,1,0,0:0:0:0:
248,328,117833,1,0,0:0:0:0:
384,264,118333,1,0,0:0:0:0:
408,112,118833,1,0,0:0:0:0:
280,32,119333,1,0,0:0:0:0:
232,176,119833,1,0,0:0:0:0:
104,256,120333,6,0,P|216:328|264:336,1,150
376,296,121333,1,0,0:0:0:0:
384,144,121833,1,0,0:0:0:0:
264,56,122333,1,0,0:0:0:0:
136,80,122583,6,2,L|96:112,2,37.5
280,176,123083,2,2,L|336:216,2,37.5,2|10|2,0:0|0:0|0:0,0:0:0:0:
152,248,123583,2,2,L|104:296,2,37.5
224,264,124083,1,0,0:0:0:0:
296,264,124333,2,0,P|376:216|360:160,1,150
272,64,125333,5,0,0:0:0:0:
128,104,125833,1,0,0:0:0:0:
96,248,126333,1,0,0:0:0:0:
232,312,126833,1,0,0:0:0:0:
384,296,127333,1,0,0:0:0:0:
424,152,127833,6,0,L|368:88,1,75
304,80,128333,1,0,0:0:0:0:
160,128,128833,1,0,0:0:0:0:
240,256,129333,1,0,0:0:0:0:
96,232,129833,1,0,0:0:0:0:
216,144,130333,1,0,0:0:0:0:
256,192,140333,5,0,0:0:0:0:
256,192,140458,12,0,143333,0:0:0:0:
256,192,144333,5,0,0:0:0:0:
256,192,144458,12,0,147333,0:0:0:0:
256,192,148333,5,0,0:0:0:0:
256,192,148458,12,0,151333,0:0:0:0:
256,192,152333,5,0,0:0:0:0:
256,192,152458,12,0,154333,0:0:0:0:
256,192,155583,6,2,L|304:168,2,37.5
200,248,156083,1,0,0:0:0:0:
168,320,156333,2,0,P|272:344|320:344,1,150
384,312,157083,2,0,P|344:224|272:184,1,150
240,152,157833,2,0,P|144:128|80:136,1,150
96,280,158833,5,0,0:0:0:0:
240,328,159333,1,0,0:0:0:0:
376,264,159833,1,0,0:0:0:0:
416,128,160333,2,0,P|344:56|272:48,1,150
232,88,161083,6,0,L|152:112,2,75
304,112,161833,2,0,P|288:200|216:224,1,150
104,160,162833,1,0,0:0:0:0:
160,296,163333,1,0,0:0:0:0:
312,304,163833,1,0,0:0:0:0:
448,256,164333,6,0,P|408:144|376:128,1,150
320,160,165083,2,0,L|232:160,2,75
376,208,165833,2,0,P|336:288|248:304,1,150
144,248,166833,5,0,0:0:0:0:
72,112,167333,1,0,0:0:0:0:
216,64,167833,1,0,0:0:0:0:
360,112,168333,2,0,P|424:160|424:240,1,150
296,288,169333,5,0,0:0:0:0:
160,224,169833,1,0,0:0:0:0:
64,328,170333,6,0,L|32:240,2,75
80,136,171333,1,0,0:0:0:0:
144,240,171833,2,0,L|224:264,1,75
288,272,172333,1,0,0:0:0:0:
408,184,172833,1,0,0:0:0:0:
312,72,173333,1,0,0:0:0:0:
160,64,173833,1,0,0:0:0:0:
136,224,174333,6,0,L|80:320,2,75
272,280,175333,1,0,0:0:0:0:
368,168,175833,1,0,0:0:0:0:
456,48,176333,1,0,0:0:0:0:
432,200,176833,1,0,0:0:0:0:
328,304,177333,1,0,0:0:0:0:
184,256,177833,1,0,0:0:0:0:
240,120,178333,1,0,0:0:0:0:
144,120,178583,6,2,L|192:96,2,37.5
64,112,179083,1,0,0:0:0:0:
88,176,179333,2,2,L|72:248,2,37.5
88,272,179833,2,0,L|168:232,1,75
216,200,180333,2,0,P|312:232|352:280,1,150
216,328,181333,5,0,0:0:0:0:
96,232,181833,1,0,0:0:0:0:
104,80,182333,1,0,0:0:0:0:
256,56,182833,1,0,0:0:0:0:
384,136,183333,1,0,0:0:0:0:
304,256,183833,6,0,L|224:312,2,75
424,160,184833,1,0,0:0:0:0:
296,80,185333,1,0,0:0:0:0:
144,88,185833,1,0,0:0:0:0:
104,232,186333,1,0,0:0:0:0:
152,288,186583,6,10,L|96:304,2,37.5
320,256,187083,2,10,L|368:296,2,37.5
224,176,187583,2,2,L|224:120,2,37.5
256,192,188083,12,0,189833,0:0:0:0:
