osu file format v14

[General]
AudioFilename: audio.mp3
AudioLeadIn: 0
PreviewTime: 49318
Countdown: 0
SampleSet: Soft
StackLeniency: 0.7
Mode: 2
LetterboxInBreaks: 0
EpilepsyWarning: 1
WidescreenStoryboard: 1

[Editor]
Bookmarks: 81348
DistanceSpacing: 1.2
BeatDivisor: 4
GridSize: 4
TimelineZoom: 2.1

[Metadata]
Title:One more time
TitleUnicode:One more time
Artist:Marmok
ArtistUnicode:Marmok
Creator:mjj741
Version:Platter
Source:
Tags:youtube csgo dubstep drum&bass Gordon123
BeatmapID:1365170
BeatmapSetID:642043

[Difficulty]
HPDrainRate:5
CircleSize:3
OverallDifficulty:7
ApproachRate:8.5
SliderMultiplier:1.4
SliderTickRate:1

[Events]
//Background and Video events
0,0,"sample-309293c73ecc42513469d320e6027ddb.jpg",0,0
//Break Periods
//Storyboard Layer 0 (Background)
//Storyboard Layer 1 (Fail)
//Storyboard Layer 2 (Pass)
//Storyboard Layer 3 (Foreground)
//Storyboard Sound Samples

[TimingPoints]
16.6053244427038,333.333333333333,4,2,1,100,1,0
42683,681.818181818182,4,2,1,100,1,0
45069,333.333333333333,4,2,1,100,1,0
49349,333.333333333333,4,2,1,100,1,1
52015,-66.6666666666667,4,2,1,100,0,1
70682,-100,4,2,1,100,0,0
92015,352.941176470588,4,2,1,100,1,0
94132,1200,4,2,1,100,1,0
94432,1200,4,2,1,100,1,0
94582,1200,4,2,1,100,1,0
95401,352.941176470588,4,2,1,100,1,0
96682,333.333333333333,4,2,1,100,1,1
107348,-100,4,2,1,100,0,0
109348,-200,4,2,1,100,0,0
110015,-100,4,2,1,100,0,1
120681,-100,4,2,1,100,0,0
152015,333.333333333333,4,2,1,100,1,0
152181,333.333333333333,4,2,1,100,1,0
152347,333.333333333333,4,2,1,5,1,0

[Colours]
Combo1 : 189,194,1
Combo2 : 162,31,224
Combo3 : 89,60,255

[HitObjects]
136,192,16,5,0,0:0:0:0:
256,192,349,1,0,0:0:0:0:
376,192,683,1,0,0:0:0:0:
136,192,1016,1,0,0:0:0:0:
448,192,1349,1,0,0:0:0:0:
320,192,1683,1,0,0:0:0:0:
64,192,2016,1,0,0:0:0:0:
192,192,2349,1,0,0:0:0:0:
320,192,2683,1,0,0:0:0:0:
480,192,3016,1,0,0:0:0:0:
160,192,3349,1,0,0:0:0:0:
32,192,3683,1,0,0:0:0:0:
384,192,4016,5,0,0:0:0:0:
512,192,4350,1,0,0:0:0:0:
256,192,4683,1,0,0:0:0:0:
192,192,5016,1,0,0:0:0:0:
384,192,5349,1,0,0:0:0:0:
64,192,5683,1,0,0:0:0:0:
512,192,6016,1,0,0:0:0:0:
0,192,6349,1,0,0:0:0:0:
448,192,6683,1,0,0:0:0:0:
128,192,7016,1,0,0:0:0:0:
320,192,7349,1,0,0:0:0:0:
256,192,7683,1,0,0:0:0:0:
160,192,8016,5,0,0:0:0:0:
352,192,8349,1,0,0:0:0:0:
160,192,8683,1,0,0:0:0:0:
416,192,9016,1,0,0:0:0:0:
0,224,9349,2,0,L|0:128,1,70
96,224,9683,2,0,L|96:128,1,70
192,224,10016,2,0,L|192:128,1,70
288,224,10349,2,0,L|288:128,1,70
512,192,10683,5,0,0:0:0:0:
416,192,10849,1,0,0:0:0:0:
512,192,11016,1,0,0:0:0:0:
352,192,11349,1,0,0:0:0:0:
256,192,11516,1,0,0:0:0:0:
352,192,11683,1,0,0:0:0:0:
0,192,12016,1,0,0:0:0:0:
96,192,12182,1,0,0:0:0:0:
0,192,12349,1,0,0:0:0:0:
160,192,12682,1,0,0:0:0:0:
256,192,12849,1,0,0:0:0:0:
160,192,13016,1,0,0:0:0:0:
256,192,13349,5,0,0:0:0:0:
352,192,13516,1,0,0:0:0:0:
448,192,13683,1,0,0:0:0:0:
256,192,14016,1,0,0:0:0:0:
160,192,14183,1,0,0:0:0:0:
64,192,14350,1,0,0:0:0:0:
512,192,14683,1,0,0:0:0:0:
512,192,14849,1,0,0:0:0:0:
512,192,15016,1,0,0:0:0:0:
256,192,15349,1,0,0:0:0:0:
256,192,15516,1,0,0:0:0:0:
256,192,15683,1,0,0:0:0:0:
0,192,16016,5,0,0:0:0:0:
0,192,16183,1,0,0:0:0:0:
0,192,16349,1,0,0:0:0:0:
512,192,16683,1,0,0:0:0:0:
480,192,16849,1,0,0:0:0:0:
448,192,17016,1,0,0:0:0:0:
0,192,17349,1,0,0:0:0:0:
32,192,17516,1,0,0:0:0:0:
64,192,17683,1,0,0:0:0:0:
512,192,18016,1,0,0:0:0:0:
480,192,18183,1,0,0:0:0:0:
448,192,18349,1,0,0:0:0:0:
96,192,18683,6,0,L|192:192,2,70
326,192,19349,2,0,L|256:192,2,70
416,192,20016,2,0,L|512:192,2,70
96,192,20683,2,0,L|0:192,2,70
224,192,21349,6,0,L|320:192,1,70
352,192,21683,1,0,0:0:0:0:
312,192,22016,1,0,0:0:0:0:
128,192,22349,1,0,0:0:0:0:
0,192,22683,2,0,L|72:192,1,70
70,192,23016,2,0,L|142:192,1,70
140,192,23349,2,0,L|70:192,1,70
70,192,23682,2,0,L|0:192,1,70
512,216,24016,2,0,L|512:144,1,70
160,192,24349,5,0,0:0:0:0:
200,192,24682,1,0,0:0:0:0:
384,192,25015,1,0,0:0:0:0:
512,192,25349,2,0,L|440:192,1,70
442,192,25682,2,0,L|370:192,1,70
372,192,26015,2,0,L|442:192,1,70
442,192,26349,2,0,L|512:192,1,70
0,232,26683,2,0,L|0:152,1,70
8,192,27016,2,0,L|88:192,2,70
256,192,27683,1,0,0:0:0:0:
80,240,28016,6,0,L|80:152,1,70
256,248,28349,2,0,L|256:160,1,70
424,192,28683,2,0,L|496:192,2,70
0,192,29349,2,0,L|80:192,1,70
70,192,29683,1,0,0:0:0:0:
352,192,30016,1,0,0:0:0:0:
0,192,30349,1,0,0:0:0:0:
256,192,30683,2,0,L|328:192,6,70
512,224,32016,2,0,L|512:152,1,70
256,192,32349,1,0,0:0:0:0:
216,192,32683,1,0,0:0:0:0:
384,192,33016,1,0,0:0:0:0:
112,192,33349,6,0,L|184:192,1,70
264,192,33683,2,0,L|344:192,1,70
184,240,34016,2,0,L|184:144,1,70
88,240,34349,2,0,L|88:160,1,70
504,224,34683,2,0,L|464:160,1,70
408,192,35016,1,0,0:0:0:0:
280,192,35349,1,0,0:0:0:0:
40,192,35683,1,0,0:0:0:0:
256,192,36016,2,0,L|192:136,1,70
256,192,36349,2,0,L|320:136,1,70
256,192,36683,2,0,B|256:112|256:112|256:200,2,140
184,192,37683,5,0,0:0:0:0:
328,192,38016,1,0,0:0:0:0:
184,192,38349,1,0,0:0:0:0:
512,224,38683,2,0,L|512:152,1,70
320,232,39016,2,0,L|320:136,1,70
192,162,39349,2,0,L|192:232,1,70
0,154,39682,2,0,L|0:224,1,70
512,192,40016,2,0,L|432:192,1,70
442,192,40349,1,0,0:0:0:0:
336,192,40683,1,0,0:0:0:0:
256,192,41016,1,0,0:0:0:0:
184,192,41349,2,0,L|328:192,3,140
256,192,42683,12,0,47985,0:0:0:0:
256,272,49349,5,0,0:0:0:0:
224,256,49515,1,0,0:0:0:0:
200,232,49682,1,0,0:0:0:0:
184,200,49849,1,0,0:0:0:0:
440,144,50015,1,0,0:0:0:0:
472,160,50181,1,0,0:0:0:0:
496,184,50348,1,0,0:0:0:0:
512,216,50515,1,0,0:0:0:0:
160,136,50682,1,0,0:0:0:0:
192,152,50848,1,0,0:0:0:0:
216,176,51015,1,0,0:0:0:0:
232,208,51182,1,0,0:0:0:0:
512,200,51349,5,0,0:0:0:0:
496,184,51515,1,0,0:0:0:0:
472,168,51682,1,0,0:0:0:0:
448,152,51849,1,0,0:0:0:0:
112,192,52015,2,0,L|0:192,3,105.000004005432
240,192,52682,2,0,L|360:192,3,105.000004005432
512,192,53348,2,0,L|400:192,3,105.000004005432
136,192,54015,1,0,0:0:0:0:
136,192,54348,1,0,0:0:0:0:
512,192,54682,6,0,L|400:192,3,105.000004005432
144,192,55348,2,0,L|256:192,3,105.000004005432
505,192,56015,2,0,L|400:192,3,105.000004005432
512,240,56682,2,0,L|512:120,3,105.000004005432
88,200,57348,1,0,0:0:0:0:
136,200,57682,1,0,0:0:0:0:
256,200,58015,1,0,0:0:0:0:
512,192,58348,1,0,0:0:0:0:
400,192,58682,5,0,0:0:0:0:
120,192,59015,1,0,0:0:0:0:
400,192,59348,1,0,0:0:0:0:
256,192,59515,1,0,0:0:0:0:
112,192,59682,1,0,0:0:0:0:
512,248,60015,2,0,L|512:136,1,105.000004005432
256,264,60348,2,0,L|256:152,1,105.000004005432
0,248,60682,2,0,L|0:136,1,105.000004005432
256,264,61015,2,0,L|256:152,1,105.000004005432
512,248,61348,2,0,L|512:136,1,105.000004005432
0,248,61682,2,0,L|0:136,1,105.000004005432
512,248,62015,6,0,L|512:136,1,105.000004005432
0,248,62348,2,0,L|0:136,1,105.000004005432
505,192,62682,2,0,L|400:192,3,105.000004005432
0,192,63348,2,0,L|120:192,3,105.000004005432
200,240,64015,2,0,L|200:128,1,105.000004005432
312,240,64348,2,0,L|312:128,1,105.000004005432
256,192,64682,1,0,0:0:0:0:
256,192,65015,1,0,0:0:0:0:
0,192,65348,6,0,L|112:192,1,105.000004005432
144,192,65682,2,0,L|256:192,1,105.000004005432
256,192,66015,2,0,L|368:192,1,105.000004005432
400,192,66349,2,0,L|512:192,1,105.000004005432
0,192,66682,2,0,L|112:192,1,105.000004005432
144,192,67016,2,0,L|256:192,1,105.000004005432
256,192,67349,2,0,L|368:192,1,105.000004005432
400,192,67683,2,0,L|512:192,1,105.000004005432
512,192,68015,6,0,L|400:192,1,105.000004005432
368,192,68349,2,0,L|256:192,1,105.000004005432
256,192,68682,2,0,L|144:192,1,105.000004005432
112,192,69016,2,0,L|0:192,1,105.000004005432
512,192,69349,2,0,L|400:192,1,105.000004005432
368,192,69683,2,0,L|256:192,1,105.000004005432
263,192,70015,2,0,B|152:192|152:192|280:192,1,210.000008010865
152,192,70682,5,0,0:0:0:0:
336,192,71015,2,0,L|480:192,1,140
512,192,71598,1,0,0:0:0:0:
512,192,71765,2,0,L|456:192,1,35
392,192,72015,1,0,0:0:0:0:
120,192,72348,1,0,0:0:0:0:
392,192,72682,1,0,0:0:0:0:
120,192,73015,1,0,0:0:0:0:
256,192,73348,1,0,0:0:0:0:
0,192,73682,1,0,0:0:0:0:
64,192,74015,1,0,0:0:0:0:
136,192,74348,2,0,L|64:192,2,70
256,192,75015,5,0,0:0:0:0:
376,192,75348,1,0,0:0:0:0:
424,192,75682,1,0,0:0:0:0:
512,192,76015,2,0,L|360:192,1,140
256,192,76682,1,0,0:0:0:0:
296,192,76848,2,0,L|256:128,1,70
216,192,77182,2,0,L|256:128,1,70
328,192,77682,2,0,L|176:192,2,140
0,192,78682,2,0,B|96:192|96:192|40:192,1,140
512,192,79348,2,0,B|416:192|416:192|472:192,1,140
0,192,80015,2,0,B|96:192|96:192|40:192,1,140
336,192,80682,5,0,0:0:0:0:
176,192,80848,1,0,0:0:0:0:
336,192,81015,1,0,0:0:0:0:
176,192,81181,1,0,0:0:0:0:
256,240,81348,6,0,L|256:160,1,70
336,192,81682,1,0,0:0:0:0:
416,192,82015,1,0,0:0:0:0:
496,192,82348,1,0,0:0:0:0:
512,192,82682,2,0,L|416:192,1,70
384,192,83015,2,0,L|304:192,1,70
256,192,83348,2,0,L|176:192,1,70
128,192,83682,2,0,L|32:192,1,70
304,240,84015,6,0,L|304:160,1,70
176,192,84348,1,0,0:0:0:0:
96,192,84682,1,0,0:0:0:0:
16,192,85015,1,0,0:0:0:0:
0,192,85348,2,0,L|96:192,1,70
128,192,85681,2,0,L|208:192,1,70
256,192,86014,2,0,L|336:192,1,70
384,192,86348,2,0,L|480:192,1,70
512,192,86682,6,0,L|416:192,1,70
192,192,87015,1,0,0:0:0:0:
320,192,87348,1,0,0:0:0:0:
192,192,87682,1,0,0:0:0:0:
96,192,88015,2,0,L|176:192,3,70
266,192,88682,2,0,L|336:192,3,70
448,192,89348,2,0,L|368:192,1,70
320,192,89682,1,0,0:0:0:0:
288,192,90015,1,0,0:0:0:0:
256,192,90348,1,0,0:0:0:0:
256,240,90682,2,0,L|256:160,4,70
256,192,91682,12,0,94132,0:0:0:0:
256,192,95401,5,0,0:0:0:0:
176,192,95577,1,0,0:0:0:0:
96,192,95753,1,0,0:0:0:0:
16,192,95930,1,0,0:0:0:0:
272,192,96106,1,0,0:0:0:0:
352,192,96282,1,0,0:0:0:0:
432,192,96458,1,0,0:0:0:0:
512,192,96635,1,0,0:0:0:0:
144,192,96765,1,0,0:0:0:0:
80,192,97015,1,0,0:0:0:0:
352,192,97348,1,0,0:0:0:0:
80,192,97682,2,0,L|160:192,1,70
208,192,98015,6,0,L|64:192,2,140
208,192,99015,1,0,0:0:0:0:
512,192,99348,2,0,L|416:192,1,70
0,192,99682,2,0,L|96:192,1,70
512,192,100015,2,0,L|416:192,1,70
0,192,100349,2,0,L|96:192,1,70
256,224,100682,2,0,L|256:144,2,70
256,192,101348,2,0,B|336:192|336:192|272:192,1,140
0,192,102015,5,0,0:0:0:0:
256,192,102348,1,0,0:0:0:0:
512,192,102682,1,0,0:0:0:0:
256,240,103015,2,0,L|256:160,1,70
320,192,103348,2,0,L|176:192,3,140
256,192,104681,1,0,0:0:0:0:
176,192,105015,2,0,L|240:144,1,70
368,192,105348,2,0,L|304:144,1,70
112,192,105681,2,0,L|176:144,1,70
432,192,106015,2,0,L|368:144,2,70
48,192,106681,2,0,L|112:144,2,70
144,192,107348,5,0,0:0:0:0:
192,176,107681,1,0,0:0:0:0:
232,160,108015,1,0,0:0:0:0:
256,184,108348,2,0,L|256:112,1,70
168,192,108681,2,0,L|320:192,2,140
256,192,109431,12,0,110015,0:0:0:0:
0,192,110348,6,0,L|144:192,1,140
256,232,111015,2,0,L|256:136,1,70
512,192,111348,2,0,L|368:192,2,140
512,192,112348,1,0,0:0:0:0:
0,192,112681,2,0,L|56:144,1,70
256,192,113015,2,0,L|192:136,1,70
128,192,113348,2,0,L|184:144,1,70
384,192,113681,2,0,L|320:136,2,70
0,192,114181,1,0,0:0:0:0:
0,256,114348,2,0,L|0:96,1,140
0,192,115015,1,0,0:0:0:0:
256,192,115348,5,0,0:0:0:0:
144,192,115681,1,0,0:0:0:0:
32,192,116015,1,0,0:0:0:0:
440,192,116348,2,0,L|520:192,1,70
512,264,116681,2,0,L|512:120,2,140
512,192,117681,1,0,0:0:0:0:
256,192,118015,1,0,0:0:0:0:
184,192,118348,2,0,L|184:120,1,70
352,192,118681,2,0,L|352:112,1,70
88,192,119015,2,0,L|88:112,1,70
432,192,119348,2,0,L|288:192,1,140
176,192,120015,5,0,0:0:0:0:
336,192,120181,1,0,0:0:0:0:
176,192,120348,1,0,0:0:0:0:
256,192,120681,1,0,0:0:0:0:
240,192,121015,1,0,0:0:0:0:
368,192,121348,1,0,0:0:0:0:
96,192,121681,1,0,0:0:0:0:
256,192,122015,2,0,B|176:192|176:192|240:192,2,140
256,192,123015,1,0,0:0:0:0:
160,192,123348,5,0,0:0:0:0:
416,192,123681,1,0,0:0:0:0:
64,192,124015,1,0,0:0:0:0:
512,192,124348,1,0,0:0:0:0:
256,192,124681,2,0,B|208:192|208:192|240:192,2,70
256,192,125348,2,0,B|352:192|352:192|288:192,1,140
160,192,126015,6,0,B|80:192|80:192|144:192,1,140
352,192,126681,2,0,B|432:192|432:192|368:192,1,140
96,192,127181,1,0,0:0:0:0:
96,192,127348,2,0,B|176:192|176:192|112:192,2,140
96,192,128348,1,0,0:0:0:0:
256,192,128681,1,0,0:0:0:0:
352,320,129015,2,0,L|288:256,1,70
240,256,129348,2,0,L|304:192,1,70
256,160,129681,2,0,L|192:112,1,70
256,192,130015,12,0,131348,0:0:0:0:
448,192,131681,6,0,B|352:192|352:192|400:192,2,140
0,384,132681,2,0,L|64:320,1,70
112,336,133015,2,0,L|48:272,1,70
96,240,133348,2,0,L|160:176,1,70
208,192,133681,2,0,L|144:128,1,70
0,192,134015,2,0,L|80:192,1,70
512,192,134348,2,0,B|432:192|432:192|496:192,2,140
0,192,135348,6,0,L|80:192,1,70
214,192,135681,2,0,L|294:192,1,70
0,192,136015,2,0,L|80:192,1,70
214,192,136348,2,0,L|294:192,1,70
80,192,136681,2,0,L|0:192,1,70
256,192,137015,1,0,0:0:0:0:
512,192,137348,2,0,B|416:192|416:192|480:192,1,140
144,240,138015,2,0,L|200:192,1,70
368,240,138348,2,0,L|312:192,1,70
188,192,138681,5,0,0:0:0:0:
112,192,138848,1,0,0:0:0:0:
32,196,139015,2,0,L|32:124,1,70
436,192,139348,2,0,L|512:192,1,70
506,192,139681,2,0,B|436:192|436:192|512:192,2,140
256,192,140681,12,0,142015,0:0:0:0:
512,192,142348,5,0,0:0:0:0:
256,192,142681,1,0,0:0:0:0:
0,192,143015,1,0,0:0:0:0:
192,224,143348,2,0,L|192:128,1,70
320,224,143681,2,0,L|320:128,1,70
96,224,144015,2,0,L|96:128,1,70
512,224,144348,2,0,L|512:128,1,70
0,224,144681,2,0,L|0:128,1,70
0,192,145015,6,0,B|72:192|72:192|-8:192,2,140
432,192,146015,6,0,L|512:192,1,70
432,192,146348,2,0,L|352:192,1,70
432,192,146681,2,0,L|512:192,1,70
432,192,147014,2,0,L|352:192,1,70
80,192,147348,2,0,L|0:192,1,70
10,192,147681,2,0,L|160:192,2,140
432,192,148681,2,0,L|512:192,1,70
80,192,149015,2,0,L|0:192,1,70
432,192,149348,2,0,L|512:192,1,70
80,192,149682,2,0,L|0:192,1,70
432,192,150015,2,0,L|512:192,1,70
502,192,150348,2,0,B|432:192|432:192|516:192,2,140
256,192,151348,12,0,154930,0:0:0:0:
