osu file format v14

[General]
AudioFilename: audio.mp3
AudioLeadIn: 0
PreviewTime: -1
Countdown: 0
SampleSet: Normal
StackLeniency: 0.7
Mode: 0
LetterboxInBreaks: 0
WidescreenStoryboard: 0

[Editor]
DistanceSpacing: 2.3
BeatDivisor: 2
GridSize: 16
TimelineZoom: 1.3

[Metadata]
Title:One more time
TitleUnicode:One more time
Artist:Marmok
ArtistUnicode:Marmok
Creator:maciek0421
Version:xxx
Source:
Tags:
BeatmapID:1824998
BeatmapSetID:873083

[Difficulty]
HPDrainRate:7
CircleSize:4
OverallDifficulty:9
ApproachRate:9.6
SliderMultiplier:1.8
SliderTickRate:1

[Events]
//Background and Video events
//Break Periods
//Storyboard Layer 0 (Background)
//Storyboard Layer 1 (Fail)
//Storyboard Layer 2 (Pass)
//Storyboard Layer 3 (Foreground)
//Storyboard Sound Samples

[TimingPoints]
14,333.333333333333,4,1,0,100,1,0
94013,-400,4,1,0,100,0,0
95013,-100,4,1,0,100,0,0

[Colours]
Combo1 : 255,255,0
Combo2 : 255,0,0
Combo3 : 30,173,250
Combo4 : 0,255,0

[HitObjects]
63,213,14,6,0,P|97:319|156:339,1,180
160,240,680,1,0,0:0:0:0:
259,269,1013,2,0,P|225:163|166:143,1,180
160,240,1680,1,0,0:0:0:0:
298,195,2013,1,0,0:0:0:0:
160,150,2347,1,0,0:0:0:0:
246,268,2680,1,0,0:0:0:0:
246,122,3013,1,0,0:0:0:0:
246,268,3347,6,0,P|335:333|395:315,1,180
340,232,4013,1,0,0:0:0:0:
437,198,4346,2,0,P|347:132|287:150,1,180
340,232,5013,1,0,0:0:0:0:
340,232,5347,1,0,0:0:0:0:
340,86,5680,1,0,0:0:0:0:
254,204,6013,1,0,0:0:0:0:
392,159,6347,1,0,0:0:0:0:
133,166,6680,6,0,P|185:234|272:234,1,180
231,144,7346,1,0,0:0:0:0:
331,122,7679,2,0,P|279:54|192:54,1,180
231,144,8347,1,0,0:0:0:0:
145,262,8680,1,0,0:0:0:0:
283,217,9013,1,0,0:0:0:0:
145,172,9347,5,0,0:0:0:0:
80,256,9513,1,0,0:0:0:0:
368,159,9680,1,0,0:0:0:0:
433,75,9846,1,0,0:0:0:0:
128,218,10013,1,0,0:0:0:0:
208,314,10179,1,0,0:0:0:0:
384,166,10347,1,0,0:0:0:0:
304,70,10513,1,0,0:0:0:0:
192,48,10680,5,0,0:0:0:0:
96,96,10847,1,0,0:0:0:0:
192,160,11013,2,0,L|240:240,1,90
352,128,11347,1,0,0:0:0:0:
448,176,11514,1,0,0:0:0:0:
352,240,11680,2,0,L|304:320,1,90
144,320,12013,1,0,0:0:0:0:
48,272,12180,1,0,0:0:0:0:
144,208,12347,6,0,L|192:128,1,90
336,48,12680,1,0,0:0:0:0:
432,96,12847,1,0,0:0:0:0:
336,160,13013,2,0,L|288:240,1,90
112,96,13347,1,0,0:0:0:0:
128,16,13513,2,0,P|64:32|32:96,1,90
112,96,13847,1,0,0:0:0:0:
272,128,14013,1,0,0:0:0:0:
256,208,14179,6,0,P|320:192|352:128,1,90
272,128,14513,1,0,0:0:0:0:
128,320,14680,1,0,0:0:0:0:
144,240,14846,2,0,P|80:256|48:320,1,90
128,320,15180,1,0,0:0:0:0:
352,256,15347,1,0,0:0:0:0:
336,176,15513,2,0,P|400:192|432:256,1,90
352,256,15847,1,0,0:0:0:0:
160,112,16013,5,0,0:0:0:0:
80,144,16180,1,0,0:0:0:0:
160,112,16347,1,0,0:0:0:0:
144,224,16513,1,0,0:0:0:0:
336,144,16680,1,0,0:0:0:0:
448,208,16847,1,0,0:0:0:0:
336,144,17013,1,0,0:0:0:0:
480,80,17180,1,0,0:0:0:0:
352,272,17347,5,0,0:0:0:0:
240,192,17513,1,0,0:0:0:0:
352,272,17680,1,0,0:0:0:0:
144,288,17847,1,0,0:0:0:0:
384,112,18013,1,0,0:0:0:0:
432,256,18180,1,0,0:0:0:0:
384,112,18347,1,0,0:0:0:0:
240,256,18513,1,0,0:0:0:0:
112,64,18680,5,0,0:0:0:0:
144,224,18847,1,0,0:0:0:0:
112,64,19013,1,0,0:0:0:0:
336,176,19180,1,0,0:0:0:0:
208,304,19347,1,0,0:0:0:0:
80,208,19513,1,0,0:0:0:0:
208,304,19680,1,0,0:0:0:0:
192,64,19847,1,0,0:0:0:0:
368,224,20013,5,0,0:0:0:0:
416,80,20180,1,0,0:0:0:0:
368,224,20347,1,0,0:0:0:0:
128,144,20513,1,0,0:0:0:0:
240,320,20680,1,0,0:0:0:0:
336,192,20847,1,0,0:0:0:0:
240,320,21013,1,0,0:0:0:0:
128,64,21180,5,0,0:0:0:0:
48,272,21347,1,0,0:0:0:0:
160,176,21513,1,0,0:0:0:0:
48,272,21680,2,0,L|144:336,1,90
288,256,22013,2,0,L|192:192,1,90
128,32,22347,2,0,L|224:96,1,90
384,64,22680,5,0,0:0:0:0:
208,176,22847,1,0,0:0:0:0:
432,160,23013,1,0,0:0:0:0:
208,64,23180,1,0,0:0:0:0:
384,256,23347,1,0,0:0:0:0:
336,0,23513,1,0,0:0:0:0:
256,240,23680,1,0,0:0:0:0:
464,48,23847,1,0,0:0:0:0:
288,144,24013,6,0,L|400:64,1,90
464,48,24347,1,0,0:0:0:0:
464,48,24680,1,0,0:0:0:0:
464,48,25013,1,0,0:0:0:0:
464,48,25347,1,0,0:0:0:0:
304,80,25513,1,0,0:0:0:0:
352,288,25680,1,0,0:0:0:0:
496,144,25847,1,0,0:0:0:0:
224,112,26013,1,0,0:0:0:0:
112,288,26180,1,0,0:0:0:0:
336,304,26347,1,0,0:0:0:0:
160,208,26513,1,0,0:0:0:0:
85,137,26680,6,0,P|65:246|107:291,1,180
160,208,27347,1,0,0:0:0:0:
160,208,27680,1,0,0:0:0:0:
304,240,28013,1,0,0:0:0:0:
368,80,28180,1,0,0:0:0:0:
464,288,28347,1,0,0:0:0:0:
240,112,28513,1,0,0:0:0:0:
496,144,28680,1,0,0:0:0:0:
208,272,28847,1,0,0:0:0:0:
432,48,29013,1,0,0:0:0:0:
416,352,29180,1,0,0:0:0:0:
144,48,29347,6,0,L|208:112,1,90
320,240,29680,1,0,0:0:0:0:
320,240,30013,1,0,0:0:0:0:
320,240,30347,1,0,0:0:0:0:
144,160,30680,1,0,0:0:0:0:
160,304,30847,1,0,0:0:0:0:
288,96,31013,1,0,0:0:0:0:
336,304,31180,1,0,0:0:0:0:
80,96,31347,1,0,0:0:0:0:
112,368,31513,1,0,0:0:0:0:
336,16,31681,1,0,0:0:0:0:
432,224,32013,5,0,0:0:0:0:
240,320,32180,1,0,0:0:0:0:
432,224,32347,2,0,L|336:272,1,90
128,256,32680,2,0,L|224:208,1,90
384,16,33013,2,0,L|240:96,1,90
112,96,33347,5,0,0:0:0:0:
80,288,33513,1,0,0:0:0:0:
272,96,33680,1,0,0:0:0:0:
0,208,33847,1,0,0:0:0:0:
288,256,34013,1,0,0:0:0:0:
32,48,34180,1,0,0:0:0:0:
128,352,34347,1,0,0:0:0:0:
240,48,34513,1,0,0:0:0:0:
32,336,34680,2,0,L|131:193,1,90
192,112,35013,5,0,0:0:0:0:
192,112,35347,1,0,0:0:0:0:
192,112,35680,1,0,0:0:0:0:
352,80,36013,1,0,0:0:0:0:
176,224,36180,1,0,0:0:0:0:
272,16,36347,1,0,0:0:0:0:
320,272,36513,1,0,0:0:0:0:
144,48,36680,1,0,0:0:0:0:
448,256,36847,1,0,0:0:0:0:
64,128,37013,1,0,0:0:0:0:
64,128,37347,5,0,0:0:0:0:
448,256,37513,1,0,0:0:0:0:
64,128,37680,2,0,L|169:166,1,90
443,144,38013,2,0,L|319:102,1,90
69,240,38347,2,0,L|193:282,1,90
336,320,38680,5,0,0:0:0:0:
480,256,38847,1,0,0:0:0:0:
240,240,39013,1,0,0:0:0:0:
496,192,39180,1,0,0:0:0:0:
144,160,39347,1,0,0:0:0:0:
512,128,39513,1,0,0:0:0:0:
48,80,39680,1,0,0:0:0:0:
496,64,39847,1,0,0:0:0:0:
109,249,40013,2,0,L|224:192,1,90
496,64,40347,5,0,0:0:0:0:
496,64,40680,1,0,0:0:0:0:
496,64,41013,1,0,0:0:0:0:
381,289,41347,1,0,0:0:0:0:
288,109,41513,1,0,0:0:0:0:
176,288,41680,1,0,0:0:0:0:
421,77,41847,1,0,0:0:0:0:
304,272,42013,1,0,0:0:0:0:
169,77,42180,1,0,0:0:0:0:
32,320,42347,1,0,0:0:0:0:
256,192,42680,5,0,0:0:0:0:
256,192,43347,1,0,0:0:0:0:
256,192,44013,1,0,0:0:0:0:
256,192,44680,1,0,0:0:0:0:
256,192,45013,1,0,0:0:0:0:
256,192,45347,1,0,0:0:0:0:
256,192,45680,1,0,0:0:0:0:
112,240,46013,1,0,0:0:0:0:
400,144,46347,1,0,0:0:0:0:
112,64,46680,1,0,0:0:0:0:
400,320,47013,1,0,0:0:0:0:
144,224,49347,6,0,P|115:182|111:168,1,45
114,157,49513,1,0,0:0:0:0:
266,278,49680,1,0,0:0:0:0:
171,86,49847,1,0,0:0:0:0:
202,316,50013,1,0,0:0:0:0:
263,70,50180,1,0,0:0:0:0:
144,272,50347,1,0,0:0:0:0:
128,288,50430,1,0,0:0:0:0:
112,304,50513,1,0,0:0:0:0:
336,128,50680,5,0,0:0:0:0:
112,208,50847,1,0,0:0:0:0:
224,32,51013,1,0,0:0:0:0:
272,272,51180,1,0,0:0:0:0:
96,96,51347,1,0,0:0:0:0:
368,128,51513,1,0,0:0:0:0:
160,256,51680,1,0,0:0:0:0:
368,128,51847,1,0,0:0:0:0:
96,96,52013,1,0,0:0:0:0:
272,272,52180,5,0,0:0:0:0:
224,32,52347,1,0,0:0:0:0:
160,272,52513,1,0,0:0:0:0:
336,80,52680,1,0,0:0:0:0:
416,320,52847,1,0,0:0:0:0:
224,176,53013,1,0,0:0:0:0:
240,176,53097,1,0,0:0:0:0:
256,176,53180,1,0,0:0:0:0:
448,176,53347,1,0,0:0:0:0:
96,96,53513,1,0,0:0:0:0:
320,144,53680,1,0,0:0:0:0:
32,192,53847,1,0,0:0:0:0:
304,32,54013,1,0,0:0:0:0:
144,288,54680,5,0,0:0:0:0:
224,80,54847,1,0,0:0:0:0:
240,320,55013,1,0,0:0:0:0:
144,96,55180,1,0,0:0:0:0:
320,256,55347,1,0,0:0:0:0:
80,160,55513,1,0,0:0:0:0:
384,176,55680,1,0,0:0:0:0:
400,176,55763,1,0,0:0:0:0:
416,176,55847,1,0,0:0:0:0:
80,160,56013,5,0,0:0:0:0:
352,256,56180,1,0,0:0:0:0:
160,48,56347,1,0,0:0:0:0:
256,336,56513,1,0,0:0:0:0:
320,32,56680,1,0,0:0:0:0:
144,208,56847,1,0,0:0:0:0:
384,128,57013,1,0,0:0:0:0:
144,64,57180,1,0,0:0:0:0:
336,288,57347,5,0,0:0:0:0:
112,128,57513,1,0,0:0:0:0:
400,240,57680,1,0,0:0:0:0:
80,224,57847,1,0,0:0:0:0:
320,80,58013,1,0,0:0:0:0:
224,336,58180,1,0,0:0:0:0:
128,64,58347,1,0,0:0:0:0:
304,272,58513,1,0,0:0:0:0:
64,160,58680,6,0,P|16:112|0:96,2,90
288,112,59347,1,0,0:0:0:0:
192,240,59514,1,0,0:0:0:0:
272,96,59680,1,0,0:0:0:0:
368,304,60013,5,0,0:0:0:0:
416,96,60180,1,0,0:0:0:0:
464,272,60347,1,0,0:0:0:0:
320,96,60513,1,0,0:0:0:0:
496,160,60680,1,0,0:0:0:0:
272,240,60847,1,0,0:0:0:0:
480,16,61013,1,0,0:0:0:0:
352,336,61180,1,0,0:0:0:0:
320,80,61347,5,0,0:0:0:0:
464,272,61513,1,0,0:0:0:0:
240,176,61680,1,0,0:0:0:0:
464,112,61847,1,0,0:0:0:0:
320,304,62013,1,0,0:0:0:0:
176,192,62180,1,0,0:0:0:0:
224,336,62347,1,0,0:0:0:0:
336,224,62513,1,0,0:0:0:0:
144,80,62680,5,0,0:0:0:0:
96,288,62847,1,0,0:0:0:0:
48,112,63014,1,0,0:0:0:0:
192,288,63180,1,0,0:0:0:0:
16,224,63347,1,0,0:0:0:0:
240,144,63514,1,0,0:0:0:0:
32,368,63680,1,0,0:0:0:0:
160,48,63847,1,0,0:0:0:0:
192,304,64013,5,0,0:0:0:0:
48,112,64179,1,0,0:0:0:0:
272,208,64346,1,0,0:0:0:0:
48,272,64513,1,0,0:0:0:0:
192,80,64679,1,0,0:0:0:0:
320,304,65180,6,0,P|352:336|368:352,1,45
368,352,65347,1,0,0:0:0:0:
288,96,65513,1,0,0:0:0:0:
448,304,65680,1,0,0:0:0:0:
208,144,65847,1,0,0:0:0:0:
496,224,66013,1,0,0:0:0:0:
160,224,66180,1,0,0:0:0:0:
448,128,66347,1,0,0:0:0:0:
112,304,66513,1,0,0:0:0:0:
368,256,66680,5,0,0:0:0:0:
272,176,66847,1,0,0:0:0:0:
416,272,67013,1,0,0:0:0:0:
224,160,67180,1,0,0:0:0:0:
464,288,67347,1,0,0:0:0:0:
176,144,67513,1,0,0:0:0:0:
512,304,67680,1,0,0:0:0:0:
128,128,67847,1,0,0:0:0:0:
304,304,68013,5,0,0:0:0:0:
432,176,68180,1,0,0:0:0:0:
304,48,68347,1,0,0:0:0:0:
176,176,68513,1,0,0:0:0:0:
416,288,68680,1,0,0:0:0:0:
416,64,68847,1,0,0:0:0:0:
192,64,69013,1,0,0:0:0:0:
192,288,69180,1,0,0:0:0:0:
384,192,69347,6,0,P|480:144|512:128,1,90
192,128,69680,1,0,0:0:0:0:
320,288,69847,1,0,0:0:0:0:
160,112,70013,1,0,0:0:0:0:
128,96,70347,1,0,0:0:0:0:
208,272,70680,6,0,P|128:336|96:352,1,90
304,112,71013,2,0,P|384:48|416:32,1,90
336,272,71513,1,0,0:0:0:0:
176,112,71680,1,0,0:0:0:0:
320,256,71847,1,0,0:0:0:0:
192,128,72013,2,0,P|128:64|112:48,2,90
320,128,72680,2,0,P|384:64|400:48,2,90
192,256,73347,1,0,0:0:0:0:
320,256,73680,1,0,0:0:0:0:
144,96,74347,5,0,0:0:0:0:
256,96,74514,1,0,0:0:0:0:
368,96,74680,1,0,0:0:0:0:
144,304,75013,1,0,0:0:0:0:
256,48,75347,1,0,0:0:0:0:
368,304,75680,1,0,0:0:0:0:
256,192,76013,5,0,0:0:0:0:
256,192,76347,1,0,0:0:0:0:
368,288,76847,5,0,0:0:0:0:
256,288,77014,1,0,0:0:0:0:
144,288,77180,1,0,0:0:0:0:
208,96,77347,1,0,0:0:0:0:
304,96,77680,1,0,0:0:0:0:
112,192,78013,1,0,0:0:0:0:
400,192,78347,1,0,0:0:0:0:
128,320,78680,5,0,0:0:0:0:
256,192,78847,1,0,0:0:0:0:
384,64,79013,1,0,0:0:0:0:
192,128,79514,1,0,0:0:0:0:
256,192,79680,1,0,0:0:0:0:
320,256,79847,1,0,0:0:0:0:
160,288,80013,1,0,0:0:0:0:
352,96,80347,1,0,0:0:0:0:
208,240,80680,5,0,0:0:0:0:
304,144,80847,1,0,0:0:0:0:
112,288,81013,1,0,0:0:0:0:
400,96,81180,1,0,0:0:0:0:
160,112,81347,1,0,0:0:0:0:
352,272,81513,1,0,0:0:0:0:
96,128,81680,2,0,L|256:192,1,90
416,256,82013,2,0,L|256:192,1,90
32,160,82347,2,0,L|205:186,1,90
480,224,82680,5,0,0:0:0:0:
304,112,82847,1,0,0:0:0:0:
480,160,83013,1,0,0:0:0:0:
304,272,83180,1,0,0:0:0:0:
480,96,83347,1,0,0:0:0:0:
256,320,83513,1,0,0:0:0:0:
480,288,83680,1,0,0:0:0:0:
256,64,83847,1,0,0:0:0:0:
352,272,84013,1,0,0:0:0:0:
160,112,84179,1,0,0:0:0:0:
416,256,84346,2,0,L|256:192,1,90
96,128,84679,2,0,L|256:192,1,90
480,224,85013,2,0,L|307:198,1,90
32,160,85346,5,0,0:0:0:0:
208,272,85513,1,0,0:0:0:0:
32,224,85679,1,0,0:0:0:0:
208,112,85846,1,0,0:0:0:0:
32,288,86013,1,0,0:0:0:0:
256,64,86179,1,0,0:0:0:0:
32,96,86346,1,0,0:0:0:0:
256,320,86513,1,0,0:0:0:0:
176,128,86680,5,0,0:0:0:0:
336,256,86847,1,0,0:0:0:0:
352,96,87013,2,0,L|288:160,1,90
160,288,87347,2,0,L|224:224,1,90
448,192,87680,2,0,L|352:192,1,90
160,256,88013,5,0,0:0:0:0:
272,304,88180,1,0,0:0:0:0:
112,240,88347,1,0,0:0:0:0:
320,320,88513,1,0,0:0:0:0:
64,224,88680,1,0,0:0:0:0:
368,336,88847,1,0,0:0:0:0:
16,208,89013,1,0,0:0:0:0:
416,352,89180,1,0,0:0:0:0:
336,256,89347,5,0,0:0:0:0:
176,128,89514,1,0,0:0:0:0:
160,288,89680,2,0,L|224:224,1,90
352,96,90014,2,0,L|288:160,1,90
64,192,90347,2,0,L|160:192,1,90
352,128,90680,5,0,0:0:0:0:
240,80,90847,1,0,0:0:0:0:
400,144,91014,1,0,0:0:0:0:
192,64,91180,1,0,0:0:0:0:
448,160,91347,1,0,0:0:0:0:
144,48,91514,1,0,0:0:0:0:
496,176,91680,1,0,0:0:0:0:
96,32,92013,5,0,0:0:0:0:
80,64,92347,1,0,0:0:0:0:
64,96,92680,1,0,0:0:0:0:
48,128,92930,1,0,0:0:0:0:
64,144,93013,1,0,0:0:0:0:
80,160,93097,1,0,0:0:0:0:
192,192,93263,1,0,0:0:0:0:
176,208,93347,1,0,0:0:0:0:
160,224,93430,1,0,0:0:0:0:
64,304,93680,1,0,0:0:0:0:
208,352,94013,2,0,L|320:272,1,135
464,256,95347,5,0,0:0:0:0:
448,240,95430,1,0,0:0:0:0:
432,224,95513,1,0,0:0:0:0:
320,192,95680,1,0,0:0:0:0:
336,176,95763,1,0,0:0:0:0:
352,160,95847,1,0,0:0:0:0:
496,176,96013,1,0,0:0:0:0:
480,160,96097,1,0,0:0:0:0:
464,144,96180,1,0,0:0:0:0:
304,112,96346,1,0,0:0:0:0:
320,96,96430,1,0,0:0:0:0:
336,80,96513,1,0,0:0:0:0:
176,272,96680,6,0,P|128:320|80:352,1,90
336,112,97013,2,0,P|384:64|432:32,1,90
144,192,97347,2,0,L|16:192,1,90
368,192,97680,1,0,0:0:0:0:
112,192,97847,1,0,0:0:0:0:
416,192,98013,2,0,L|512:192,1,90
176,112,98347,2,0,P|128:64|80:32,1,90
336,272,98680,2,0,P|384:320|432:352,1,90
256,39,99347,5,0,0:0:0:0:
256,344,99513,1,0,0:0:0:0:
364,83,99680,1,0,0:0:0:0:
147,300,99847,1,0,0:0:0:0:
408,192,100013,1,0,0:0:0:0:
103,191,100180,1,0,0:0:0:0:
364,300,100347,1,0,0:0:0:0:
147,83,100513,1,0,0:0:0:0:
480,192,100680,2,0,L|320:192,1,90
256,0,101013,2,0,L|256:96,1,90
432,32,101347,1,0,0:0:0:0:
336,272,102013,6,0,P|366:304|401:333,1,90
175,111,102346,2,0,P|144:78|109:49,1,90
367,191,102680,2,0,L|457:191,1,90
143,191,103013,1,0,0:0:0:0:
399,191,103180,1,0,0:0:0:0:
95,191,103346,2,0,L|5:191,1,90
335,111,103680,2,0,P|365:78|400:49,1,90
175,272,104013,2,0,P|144:304|109:333,1,90
175,272,104680,6,0,P|144:304|109:333,1,90
176,112,105013,1,0,0:0:0:0:
338,210,105180,1,0,0:0:0:0:
149,226,105347,1,0,0:0:0:0:
292,102,105513,1,0,0:0:0:0:
250,287,105680,1,0,0:0:0:0:
336,32,105847,1,0,0:0:0:0:
192,352,106013,1,0,0:0:0:0:
160,352,106347,1,0,0:0:0:0:
128,352,106680,1,0,0:0:0:0:
112,112,106846,1,0,0:0:0:0:
336,224,107013,1,0,0:0:0:0:
