osu file format v14

[General]
AudioFilename: audio.mp3
AudioLeadIn: 0
PreviewTime: 94025
Countdown: 0
SampleSet: Soft
StackLeniency: 0.7
Mode: 0
LetterboxInBreaks: 0
WidescreenStoryboard: 1

[Editor]
DistanceSpacing: 3.9
BeatDivisor: 4
GridSize: 8
TimelineZoom: 1

[Metadata]
Title:One More Time
TitleUnicode:One More Time
Artist:Marmok
ArtistUnicode:Marmok
Creator:Maki - sempai
Version:weeee
Source:
Tags:
BeatmapID:2019162
BeatmapSetID:954281

[Difficulty]
HPDrainRate:7
CircleSize:4
OverallDifficulty:6
ApproachRate:9.7
SliderMultiplier:1.4
SliderTickRate:1

[Events]
//Background and Video events
0,0,"image2.jpg",0,0
//Break Periods
//Storyboard Layer 0 (Background)
//Storyboard Layer 1 (Fail)
//Storyboard Layer 2 (Pass)
//Storyboard Layer 3 (Foreground)
//Storyboard Layer 4 (Overlay)
//Storyboard Sound Samples

[TimingPoints]
25,666.666666666667,4,2,1,50,1,0
25,-66.6666666666667,4,2,1,50,0,0
9358,-40,4,2,1,50,0,0
10691,-76.9230769230769,4,2,1,50,0,0
14691,-66.6666666666667,4,2,1,50,0,0
21358,-50,4,2,1,50,0,0
26691,-66.6666666666667,4,2,1,50,0,0
27358,-50,4,2,1,50,0,0
42691,-100,4,2,1,50,0,0
47525,-50,4,2,1,50,0,0
49358,-50,4,2,1,50,0,1
70025,-50,4,2,1,50,0,0
94025,-50,4,2,1,50,0,0
136691,-100,4,2,1,50,0,0
137191,-50,4,2,1,50,0,0

[Colours]
Combo1 : 255,255,255
Combo2 : 128,128,255
Combo3 : 0,0,255
Combo4 : 255,255,255

[HitObjects]
392,320,25,5,0,0:0:0:0:
64,96,358,1,0,0:0:0:0:
456,136,691,1,0,0:0:0:0:
176,320,1025,1,0,0:0:0:0:
296,40,1358,1,0,0:0:0:0:
96,320,1691,1,0,0:0:0:0:
360,72,2025,1,0,0:0:0:0:
296,344,2358,1,0,0:0:0:0:
80,128,2691,5,0,0:0:0:0:
416,64,3025,1,0,0:0:0:0:
232,344,3358,1,0,0:0:0:0:
104,80,3691,1,0,0:0:0:0:
448,168,4025,1,0,0:0:0:0:
80,144,4358,1,0,0:0:0:0:
320,336,4691,1,0,0:0:0:0:
384,48,5025,1,0,0:0:0:0:
88,160,5358,5,0,0:0:0:0:
376,328,5691,1,0,0:0:0:0:
400,48,6025,1,0,0:0:0:0:
88,160,6358,1,0,0:0:0:0:
432,168,6691,1,0,0:0:0:0:
80,280,7025,1,0,0:0:0:0:
376,40,7358,1,0,0:0:0:0:
160,328,7691,1,0,0:0:0:0:
440,128,8025,5,0,0:0:0:0:
104,272,8358,1,0,0:0:0:0:
440,128,8691,1,0,0:0:0:0:
80,176,9025,1,0,0:0:0:0:
264,64,9358,6,2,L|352:40,1,87.5,2|0,0:0|0:0,0:0:0:0:
328,240,9691,2,2,L|296:336,1,87.5,2|0,0:0|0:0,0:0:0:0:
152,280,10025,2,2,P|104:264|64:272,1,87.5,2|0,0:0|0:0,0:0:0:0:
120,120,10358,2,2,P|152:104|192:48,1,87.5,2|0,0:0|0:0,0:0:0:0:
332,259,10691,5,0,0:0:0:0:
332,259,10858,1,0,0:0:0:0:
200,264,11025,2,0,L|136:256,1,45.4999979171754
144,128,11358,5,0,0:0:0:0:
144,128,11525,1,0,0:0:0:0:
248,64,11691,2,0,L|301:55,1,45.4999979171754
336,208,12025,5,0,0:0:0:0:
336,208,12191,1,0,0:0:0:0:
232,280,12358,2,0,L|176:296,1,45.4999979171754
120,120,12691,5,0,0:0:0:0:
120,120,12858,1,0,0:0:0:0:
232,128,13025,2,0,L|272:160,1,45.4999979171754
368,312,13358,5,0,0:0:0:0:
368,312,13525,1,0,0:0:0:0:
384,184,13691,2,0,L|352:128,1,45.4999979171754
208,40,14025,5,0,0:0:0:0:
208,40,14191,1,0,0:0:0:0:
104,104,14358,2,0,L|64:152,1,45.4999979171754
232,288,14691,6,0,L|304:288,1,52.5000020027161
400,240,15025,1,0,0:0:0:0:
296,120,15358,2,0,L|216:120,1,52.5000020027161
136,192,15691,1,0,0:0:0:0:
384,288,16025,6,0,L|384:216,1,52.5000020027161
368,112,16358,1,0,0:0:0:0:
248,216,16691,2,0,L|192:216,1,52.5000020027161
104,128,17025,1,0,0:0:0:0:
272,72,17358,6,0,L|324:71,1,52.5000020027161
424,176,17691,1,0,0:0:0:0:
288,280,18025,2,0,L|224:280,1,52.5000020027161
144,192,18358,1,0,0:0:0:0:
264,48,18691,5,0,0:0:0:0:
264,48,18858,1,0,0:0:0:0:
352,152,19025,2,0,L|352:216,1,52.5000020027161
224,304,19358,5,0,0:0:0:0:
224,304,19525,1,0,0:0:0:0:
128,192,19691,2,0,L|128:128,1,52.5000020027161
312,72,20025,5,0,0:0:0:0:
312,72,20191,1,0,0:0:0:0:
432,120,20358,2,0,L|488:120,1,52.5000020027161
384,304,20691,5,0,0:0:0:0:
384,304,20858,1,0,0:0:0:0:
320,184,21025,2,0,L|256:184,1,52.5000020027161
136,304,21358,6,2,L|80:248,1,70
80,104,21691,1,0,0:0:0:0:
280,40,22025,1,0,0:0:0:0:
280,256,22358,1,0,0:0:0:0:
120,248,22691,6,0,L|85:180,1,70
160,24,23025,2,0,L|196:93,1,70
352,136,23358,2,0,P|392:152|437:141,1,70
408,248,23691,2,0,L|366:319,1,70
160,256,24025,6,2,L|108:207,2,70,2|0|2,0:0|0:0|0:0,0:0:0:0:
272,224,24525,1,0,0:0:0:0:
400,248,24691,2,0,P|461:214|462:148,1,140
288,56,25358,1,0,0:0:0:0:
169,38,25525,1,0,0:0:0:0:
208,136,25691,1,0,0:0:0:0:
248,232,25858,1,0,0:0:0:0:
120,240,26025,6,0,L|78:168,1,70
192,80,26358,2,0,P|237:76|272:47,1,70
384,200,26691,6,2,B|416:168|416:168|400:200|400:256|360:288,1,157.500006008148,2|0,0:0|0:0,0:0:0:0:
240,288,27358,2,0,L|158:247,1,70
248,104,27691,2,0,L|290:185,1,70
416,224,28025,1,0,0:0:0:0:
368,335,28191,1,0,0:0:0:0:
320,223,28358,1,0,0:0:0:0:
272,112,28525,1,0,0:0:0:0:
192,200,28691,6,0,P|173:239|134:261,2,70
283,50,29358,2,2,L|319:114,1,70
432,232,29691,1,0,0:0:0:0:
272,160,30025,1,0,0:0:0:0:
200,344,30358,1,0,0:0:0:0:
139,190,30691,6,0,L|112:119,2,70
256,256,31191,1,0,0:0:0:0:
344,144,31358,2,0,L|383:216,2,70
134,80,32025,6,2,L|108:149,1,70
128,288,32358,1,0,0:0:0:0:
376,288,32691,1,0,0:0:0:0:
264,160,33025,1,0,0:0:0:0:
117,109,33358,6,0,L|84:183,2,70
256,72,33858,1,0,0:0:0:0:
368,160,34025,2,0,L|419:218,1,70
256,264,34358,2,0,L|181:247,1,70
208,96,34691,6,2,L|278:57,1,70
432,80,35025,1,0,0:0:0:0:
352,304,35358,1,0,0:0:0:0:
304,128,35691,1,0,0:0:0:0:
248,264,36025,6,0,L|168:264,1,70
72,152,36358,2,0,L|147:154,1,70
280,96,36691,1,0,0:0:0:0:
360,160,36858,1,0,0:0:0:0:
360,272,37025,1,0,0:0:0:0:
160,272,37358,6,2,P|120:272|80:256,2,70,2|0|2,0:0|0:0|0:0,0:0:0:0:
288,224,37858,1,0,0:0:0:0:
216,80,38025,2,0,L|192:152,1,70
256,264,38358,2,0,P|296:280|336:272,1,70
424,160,38691,5,0,0:0:0:0:
336,96,38858,1,0,0:0:0:0:
320,200,39025,1,0,0:0:0:0:
232,256,39191,1,0,0:0:0:0:
152,144,39358,6,0,L|176:72,1,70
312,128,39691,2,0,P|326:166|352:192,1,70
240,312,40025,6,2,L|160:280,1,70
96,168,40358,1,0,0:0:0:0:
248,40,40691,1,0,0:0:0:0:
248,248,41025,1,0,0:0:0:0:
112,224,41358,6,0,P|80:200|64:160,2,70
248,248,41858,1,0,0:0:0:0:
368,200,42025,2,0,P|405:209|440:240,2,70
112,232,42691,6,0,L|48:184,1,70
288,56,43358,2,0,L|288:136,1,70
192,288,44025,2,0,L|112:248,1,70
296,48,44691,5,0,0:0:0:0:
120,208,45025,1,0,0:0:0:0:
424,240,45358,1,0,0:0:0:0:
128,144,45691,1,0,0:0:0:0:
416,80,46025,1,0,0:0:0:0:
200,288,46358,1,0,0:0:0:0:
440,144,46691,1,2,0:0:0:0:
280,344,47025,1,2,0:0:0:0:
280,80,47358,1,2,0:0:0:0:
176,256,47525,5,2,0:0:0:0:
176,256,47691,2,2,L|120:200,1,70
184,96,48025,2,2,P|216:64|232:24,1,70
352,88,48358,2,2,L|400:144,1,70
192,216,48691,2,2,L|144:160,1,70
312,96,49025,2,2,L|368:160,1,70
360,288,49358,5,2,0:0:0:0:
80,160,49525,1,2,0:0:0:0:
400,48,49691,1,2,0:0:0:0:
112,240,49858,1,2,0:0:0:0:
304,24,50025,1,2,0:0:0:0:
480,232,50191,1,2,0:0:0:0:
200,80,50358,1,2,0:0:0:0:
424,288,50525,1,2,0:0:0:0:
224,240,50691,6,2,L|168:288,2,70
328,120,51191,1,2,0:0:0:0:
328,120,51358,2,2,L|368:200,1,70
320,304,51691,1,2,0:0:0:0:
192,240,51858,5,2,0:0:0:0:
192,240,52025,2,2,P|160:208|152:168,1,70
256,32,52358,2,2,L|272:104,1,70
256,304,52691,1,2,0:0:0:0:
40,192,52858,1,2,0:0:0:0:
176,40,53025,1,2,0:0:0:0:
218,222,53191,5,2,0:0:0:0:
218,222,53358,2,2,P|258:222|290:206,1,70
400,120,53691,1,2,0:0:0:0:
336,32,53858,1,2,0:0:0:0:
232,40,54025,1,2,0:0:0:0:
240,40,54691,6,2,L|208:104,1,70
296,200,55025,2,2,P|328:224|344:256,1,70
200,352,55358,1,2,0:0:0:0:
32,88,55525,1,2,0:0:0:0:
336,256,55691,1,2,0:0:0:0:
32,184,55858,1,2,0:0:0:0:
272,184,56025,6,2,P|312:176|344:144,2,70
144,112,56525,1,2,0:0:0:0:
144,112,56691,2,2,L|128:184,1,70
168,320,57025,1,2,0:0:0:0:
280,208,57191,5,2,0:0:0:0:
280,208,57358,2,2,P|320:208|368:240,2,70
160,288,57858,1,2,0:0:0:0:
160,288,58025,2,2,L|88:232,1,70
176,64,58358,2,2,L|184:144,1,70
328,272,58691,6,2,P|400:264|440:192,1,140
320,56,59358,2,2,L|304:128,2,70
280,312,60025,5,2,0:0:0:0:
0,136,60191,1,2,0:0:0:0:
304,240,60358,1,2,0:0:0:0:
56,96,60525,1,2,0:0:0:0:
296,176,60691,1,2,0:0:0:0:
120,80,60858,1,2,0:0:0:0:
304,240,61025,1,2,0:0:0:0:
56,96,61191,1,2,0:0:0:0:
184,224,61358,6,2,P|200:256|240:272,3,70
216,88,62025,1,2,0:0:0:0:
304,40,62191,1,2,0:0:0:0:
304,160,62358,1,2,0:0:0:0:
288,272,62525,5,2,0:0:0:0:
288,272,62691,2,2,L|208:304,1,70
120,192,63025,2,2,L|104:120,1,70
224,48,63358,2,2,P|256:80|304:88,1,70
392,160,63691,2,2,L|384:232,1,70
256,296,64025,6,2,P|216:304|184:296,2,70
368,200,64525,1,2,0:0:0:0:
352,88,64691,1,2,0:0:0:0:
352,88,65191,5,2,0:0:0:0:
352,88,65358,2,2,L|296:136,1,70
152,104,65691,2,2,L|160:184,1,70
224,320,66025,1,2,0:0:0:0:
304,40,66191,1,2,0:0:0:0:
344,344,66358,1,2,0:0:0:0:
416,56,66525,1,2,0:0:0:0:
312,216,66691,6,2,L|240:256,2,70
304,48,67191,1,2,0:0:0:0:
304,48,67358,2,2,L|288:120,1,70
208,240,67691,1,2,0:0:0:0:
96,136,67858,5,2,0:0:0:0:
96,136,68025,2,2,P|112:104|144:72,1,70
312,112,68358,2,2,L|352:192,1,70
272,280,68691,2,2,P|232:288|192:312,1,70
176,120,69025,2,2,L|160:192,1,70
312,272,69358,6,2,P|352:264|384:240,2,70
200,208,69858,1,2,0:0:0:0:
288,112,70025,2,2,B|352:48|352:48|408:56,1,140
96,152,70691,5,0,0:0:0:0:
304,96,71025,1,0,0:0:0:0:
272,240,71358,2,2,P|297:265|334:277,2,70
361,136,71858,5,0,0:0:0:0:
361,136,72025,2,0,P|354:99|369:68,1,70
248,112,72358,2,0,L|221:187,1,70
80,248,72691,6,0,P|114:270|149:279,1,70
248,112,73025,2,0,L|248:184,1,70
334,316,73358,5,0,0:0:0:0:
448,136,73691,1,0,0:0:0:0:
296,192,74025,2,0,P|273:216|229:228,1,70
144,136,74358,1,0,0:0:0:0:
144,136,74525,1,0,0:0:0:0:
272,72,74691,6,0,P|298:48|337:40,2,70
200,200,75191,1,0,0:0:0:0:
368,208,75358,2,0,P|392:232|438:237,1,70
336,344,75691,2,0,L|261:361,1,70
120,256,76025,5,0,0:0:0:0:
192,64,76358,1,0,0:0:0:0:
384,192,76691,1,0,0:0:0:0:
192,64,76858,5,0,0:0:0:0:
192,72,77025,2,0,L|179:152,1,70
304,280,77358,2,0,L|373:233,1,70
336,112,77691,2,0,P|299:99|281:67,1,70
216,200,78025,2,0,L|263:267,1,70
336,72,78358,2,0,L|333:149,1,70
169,236,78691,6,0,P|127:240|90:224,2,70
260,182,79191,1,0,0:0:0:0:
344,104,79358,2,0,P|382:97|422:112,2,70
260,182,79858,1,0,0:0:0:0:
344,272,80025,2,0,P|383:283|423:278,2,70
260,182,80525,5,0,0:0:0:0:
128,184,80691,2,0,P|108:157|99:117,1,70
248,32,81025,2,0,L|245:109,1,70
368,216,81358,6,2,L|308:261,1,70,2|0,0:0|0:0,0:0:0:0:
128,256,81691,1,0,0:0:0:0:
152,56,82025,1,0,0:0:0:0:
312,168,82358,1,0,0:0:0:0:
208,256,82691,6,0,P|171:268|128:261,2,70
104,144,83191,1,0,0:0:0:0:
232,32,83358,2,0,L|246:108,1,70
344,176,83691,2,0,L|365:110,1,70
209,69,84025,6,2,L|137:112,2,70,2|0|2,0:0|0:0|0:0,0:0:0:0:
320,88,84525,1,0,0:0:0:0:
251,199,84691,2,0,P|248:237|256:269,1,70
376,184,85025,2,0,L|402:112,1,70
232,40,85358,5,0,0:0:0:0:
344,336,85525,1,0,0:0:0:0:
48,160,85691,1,0,0:0:0:0:
384,128,85858,1,0,0:0:0:0:
120,88,86025,5,0,0:0:0:0:
392,216,86191,1,0,0:0:0:0:
80,168,86358,1,0,0:0:0:0:
352,288,86525,1,0,0:0:0:0:
168,136,86691,6,2,L|128:193,2,70,2|0|2,0:0|0:0|0:0,0:0:0:0:
286,107,87191,1,0,0:0:0:0:
408,192,87358,2,0,L|423:274,1,70
296,304,87691,2,0,P|272:278|239:262,1,70
80,176,88025,5,0,0:0:0:0:
304,32,88191,1,0,0:0:0:0:
312,320,88358,1,0,0:0:0:0:
87,195,88525,1,0,0:0:0:0:
256,102,88691,5,0,0:0:0:0:
256,102,88858,1,0,0:0:0:0:
256,102,89025,1,0,0:0:0:0:
256,102,89191,1,0,0:0:0:0:
392,208,89358,6,0,L|357:281,1,70,2|2,0:0|0:0,0:0:0:0:
248,312,89691,1,0,0:0:0:0:
160,280,90025,1,0,0:0:0:0:
128,192,90358,1,0,0:0:0:0:
288,112,90691,6,0,P|315:85|324:46,2,70
328,216,91191,1,0,0:0:0:0:
200,256,91358,2,0,P|160:254|129:232,2,70
264,88,92025,5,2,0:0:0:0:
264,88,92358,1,2,0:0:0:0:
264,88,92691,2,2,L|304:152,1,70
232,256,93025,2,2,P|200:232|160:232,1,70
264,104,93358,6,2,B|304:80|328:24|328:24|344:64,1,140
360,200,94025,6,0,B|353:234|359:293|359:293|304:247,1,140
208,176,94525,2,0,B|178:162|159:130|159:130|163:166|160:203|141:231|119:245|91:251,1,210
352,296,95358,6,0,P|384:312|424:304,2,70
336,160,95858,1,0,0:0:0:0:
336,160,96025,2,0,L|272:208,1,70
168,120,96358,2,0,P|154:159|128:184,1,70
152,312,96691,5,0,0:0:0:0:
408,304,97025,1,0,0:0:0:0:
264,88,97358,1,0,0:0:0:0:
216,232,97691,6,0,L|245:312,2,70
288,48,98358,1,0,0:0:0:0:
424,112,98691,1,0,0:0:0:0:
424,112,99358,6,0,L|394:184,2,70
224,160,99858,1,0,0:0:0:0:
224,160,100025,2,0,P|259:137|285:97,1,70
104,72,100358,2,0,L|107:143,1,70
224,232,100691,6,0,P|248:210|286:196,1,70
464,232,101025,1,0,0:0:0:0:
280,352,101358,1,0,0:0:0:0:
280,352,102025,6,0,P|206:311|154:323,1,140
88,176,102691,1,0,0:0:0:0:
88,176,103025,2,0,P|98:143|126:118,2,70
312,232,103525,5,0,0:0:0:0:
312,232,103691,2,0,L|400:242,1,70
496,152,104025,1,0,0:0:0:0:
320,208,104691,6,0,P|272:256|200:253,1,140
176,96,105191,1,0,0:0:0:0:
176,96,105358,2,0,L|204:172,2,70
316,262,105858,5,0,0:0:0:0:
316,262,106025,2,0,L|367:205,1,70
448,112,106358,2,0,L|370:105,1,70
272,208,106691,2,0,L|298:273,2,70
80,80,107358,5,0,0:0:0:0:
432,280,107691,1,0,0:0:0:0:
96,224,108025,1,0,0:0:0:0:
256,96,108358,5,0,0:0:0:0:
360,80,108525,1,0,0:0:0:0:
408,160,108691,1,0,0:0:0:0:
343,277,109025,1,0,0:0:0:0:
343,277,109358,6,0,P|303:333|239:317,1,140
183,188,110025,6,0,P|249:177|290:118,2,140
144,78,111025,1,0,0:0:0:0:
144,176,111191,1,0,0:0:0:0:
184,272,111358,1,0,0:0:0:0:
184,272,111691,1,0,0:0:0:0:
184,272,112025,6,0,P|256:280|313:245,1,140
192,56,112691,1,0,0:0:0:0:
440,272,112858,1,0,0:0:0:0:
96,168,113025,1,0,0:0:0:0:
392,56,113191,1,0,0:0:0:0:
96,168,113358,5,0,0:0:0:0:
432,144,113525,1,0,0:0:0:0:
128,240,113691,1,0,0:0:0:0:
392,56,113858,1,0,0:0:0:0:
248,168,114025,6,0,L|288:240,1,70
408,288,114358,1,0,0:0:0:0:
464,160,114691,1,0,0:0:0:0:
296,40,115358,5,0,0:0:0:0:
344,336,115691,1,0,0:0:0:0:
112,104,116025,1,0,0:0:0:0:
288,176,116358,6,0,L|320:256,2,70
176,88,116858,1,0,0:0:0:0:
176,88,117025,2,0,L|144:168,1,70
200,264,117358,1,0,0:0:0:0:
336,264,118025,6,0,P|424:248|448:208,1,140
368,80,118525,1,0,0:0:0:0:
368,80,118691,2,0,L|360:160,1,70
264,240,119025,2,0,P|230:237|192:256,1,70
72,224,119358,5,0,0:0:0:0:
64,120,119691,1,0,0:0:0:0:
176,112,120025,2,0,P|208:88|248:80,2,70
112,296,120691,5,0,0:0:0:0:
456,240,121025,1,0,0:0:0:0:
88,208,121358,1,0,0:0:0:0:
424,80,121691,1,0,0:0:0:0:
336,224,122025,2,0,P|288:256|192:256,2,140
288,112,122858,5,0,0:0:0:0:
288,112,123025,2,0,L|216:96,1,70
56,264,123358,1,0,0:0:0:0:
304,40,123691,1,0,0:0:0:0:
240,328,124025,1,0,0:0:0:0:
176,88,124358,1,0,0:0:0:0:
288,224,124691,6,0,P|320:240|360:240,1,70
472,168,125025,1,0,0:0:0:0:
432,56,125358,1,0,0:0:0:0:
320,192,125525,6,0,P|288:216|248:224,2,70
312,40,126025,1,0,0:0:0:0:
432,344,126358,1,0,0:0:0:0:
192,200,126691,1,0,0:0:0:0:
352,144,126858,5,0,0:0:0:0:
352,144,127025,2,0,L|408:200,2,70
240,152,127525,1,0,0:0:0:0:
240,152,127691,2,0,L|176:104,1,70
72,120,128025,1,0,0:0:0:0:
32,224,128358,1,0,0:0:0:0:
184,288,128691,6,0,L|256:264,1,70
328,104,129025,2,0,L|328:184,1,70
240,296,129358,1,0,0:0:0:0:
56,120,129525,1,0,0:0:0:0:
288,224,129691,1,0,0:0:0:0:
128,64,129858,1,0,0:0:0:0:
200,160,130025,6,0,L|160:240,2,70
280,80,130525,1,0,0:0:0:0:
344,168,130691,2,0,L|368:240,2,70
105,146,131358,6,2,L|171:200,1,70
280,288,131691,1,0,0:0:0:0:
472,112,132025,1,0,0:0:0:0:
216,96,132358,1,0,0:0:0:0:
293,254,132691,6,0,P|325:272|366:276,2,70
250,136,133191,5,0,0:0:0:0:
250,136,133358,2,0,L|188:184,1,70
136,16,133691,2,0,L|139:98,1,70
256,200,134025,6,2,P|269:234|265:283,2,70,2|0|2,0:0|0:0|0:0,0:0:0:0:
139,141,134525,1,0,0:0:0:0:
139,141,134691,2,0,P|161:108|191:80,1,70
280,192,135025,2,0,L|285:282,1,70
456,192,135358,5,0,0:0:0:0:
192,32,135525,1,0,0:0:0:0:
360,280,135691,1,0,0:0:0:0:
80,96,135858,1,0,0:0:0:0:
416,80,136025,5,0,0:0:0:0:
112,168,136191,1,0,0:0:0:0:
424,168,136358,1,0,0:0:0:0:
162,241,136525,1,0,0:0:0:0:
308,233,136691,6,2,P|335:207|332:169,1,70
252,64,137191,1,0,0:0:0:0:
252,64,137358,2,0,L|249:149,1,70
340,205,137691,2,0,P|367:234|395:240,1,70
440,45,138025,5,0,0:0:0:0:
345,332,138191,1,0,0:0:0:0:
237,34,138358,1,0,0:0:0:0:
463,262,138525,1,0,0:0:0:0:
280,315,138691,5,0,0:0:0:0:
280,315,138858,1,0,0:0:0:0:
280,315,139025,1,0,0:0:0:0:
359,191,139358,6,2,P|353:155|327:126,1,70
185,45,139691,1,2,0:0:0:0:
324,319,140025,1,2,0:0:0:0:
87,169,140358,1,2,0:0:0:0:
226,123,140691,6,0,L|293:149,2,70
102,140,141191,1,0,0:0:0:0:
184,246,141358,2,0,L|198:330,2,70
270,62,142025,6,2,L|317:144,1,70,2|2,0:0|0:0,0:0:0:0:
331,236,142358,1,2,0:0:0:0:
244,294,142691,1,2,0:0:0:0:
168,224,143025,1,2,0:0:0:0:
168,224,143191,1,2,0:0:0:0:
276,160,143358,6,2,P|316:160|348:136,2,70
173,101,143858,1,2,0:0:0:0:
240,193,144025,2,2,L|248:273,1,70
159,303,144358,2,2,L|167:383,1,70
336,280,144691,6,2,L|408:240,1,70
451,151,145025,1,2,0:0:0:0:
395,67,145358,1,2,0:0:0:0:
305,106,145691,1,2,0:0:0:0:
305,106,145858,1,2,0:0:0:0:
275,230,146025,6,2,L|251:302,2,70
217,121,146525,1,2,0:0:0:0:
217,121,146691,2,2,L|145:145,1,70
165,241,147025,2,2,L|93:265,1,70
160,64,147358,6,2,L|176:136,1,70
242,201,147691,1,2,0:0:0:0:
334,217,148025,1,2,0:0:0:0:
390,150,148358,1,2,0:0:0:0:
390,150,148525,1,2,0:0:0:0:
273,111,148691,6,2,L|281:191,2,70
176,72,149191,1,2,0:0:0:0:
176,72,149358,2,2,L|112:112,1,70
152,192,149691,2,2,L|88:232,1,70
294,132,150025,6,2,L|294:204,1,70
224,293,150358,1,2,0:0:0:0:
136,277,150691,1,2,0:0:0:0:
107,191,151025,1,2,0:0:0:0:
107,191,151191,1,0,0:0:0:0:
216,160,151358,6,2,L|288:192,1,70
212,294,151691,2,2,L|132:326,1,70
66,267,152025,5,2,0:0:0:0:
47,169,152191,1,2,0:0:0:0:
100,103,152358,1,2,0:0:0:0:
256,192,152525,12,0,154025,0:0:0:0:
