osu file format v14

[General]
AudioFilename: audio.mp3
AudioLeadIn: 0
PreviewTime: 94025
Countdown: 0
SampleSet: Soft
StackLeniency: 0.7
Mode: 0
LetterboxInBreaks: 0
WidescreenStoryboard: 1

[Editor]
DistanceSpacing: 4.1
BeatDivisor: 4
GridSize: 8
TimelineZoom: 1

[Metadata]
Title:One More Time
TitleUnicode:One More Time
Artist:Marmok
ArtistUnicode:Marmok
Creator:Maki - sempai
Version:Music from nothing
Source:
Tags:
BeatmapID:1997099
BeatmapSetID:954281

[Difficulty]
HPDrainRate:7
CircleSize:4
OverallDifficulty:6
ApproachRate:9.6
SliderMultiplier:1.4
SliderTickRate:1

[Events]
//Background and Video events
0,0,"image1.jpg",0,0
//Break Periods
//Storyboard Layer 0 (Background)
//Storyboard Layer 1 (Fail)
//Storyboard Layer 2 (Pass)
//Storyboard Layer 3 (Foreground)
//Storyboard Layer 4 (Overlay)
//Storyboard Sound Samples

[TimingPoints]
25,666.666666666667,4,2,1,50,1,0
25,-58.8235294117647,4,2,1,50,0,0
9358,-40,4,2,1,50,0,0
21358,-50,4,2,1,50,0,0
49358,-50,4,2,1,50,0,1
70025,-50,4,2,1,50,0,0
94025,-50,4,2,1,50,0,0

[Colours]
Combo1 : 255,255,255
Combo2 : 128,128,255
Combo3 : 0,0,255
Combo4 : 255,255,255

[HitObjects]
368,72,25,5,0,0:0:0:0:
368,72,358,2,0,P|404:120|412:192,2,119.000002269745
296,268,1358,1,0,0:0:0:0:
296,268,1691,2,0,P|232:288|160:264,2,119.000002269745
92,132,2691,6,0,P|144:84|196:84,1,119.000002269745
272,144,3358,1,0,0:0:0:0:
232,240,3691,1,0,0:0:0:0:
232,240,4025,5,0,2:2:0:0:
232,240,4358,2,0,P|164:256|120:236,2,119.000002269745
188,128,5358,6,0,B|256:88|256:88|312:104,1,119.000002269745
272,212,6025,2,0,B|208:256|208:256|140:248,1,119.000002269745
128,128,6691,1,0,0:0:0:0:
128,128,7025,6,0,B|192:92|192:92|256:72,2,119.000002269745
312,160,8025,2,0,L|286:285,1,119.000002269745
174,292,8691,2,0,L|100:177,1,119.000002269745
269,59,9358,5,0,0:0:0:0:
114,253,9525,1,0,0:0:0:0:
217,20,9691,1,0,0:0:0:0:
181,274,9858,1,0,0:0:0:0:
292,136,10025,6,0,P|344:136|392:164,1,87.5
356,248,10358,2,0,L|284:328,1,87.5
124,292,10691,2,0,L|64:212,1,87.5
92,144,11025,1,0,0:0:0:0:
208,100,11358,6,0,L|296:140,1,87.5
320,204,11691,1,0,0:0:0:0:
128,228,12025,2,0,L|40:168,1,87.5
48,92,12358,1,0,0:0:0:0:
224,64,12691,6,0,P|268:80|296:128,1,87.5
280,192,13025,1,0,0:0:0:0:
96,120,13358,6,0,L|44:200,2,87.5
264,88,14025,2,0,L|216:164,2,87.5
376,188,14691,6,0,L|428:108,2,87.5
212,232,15358,2,0,L|264:152,2,87.5
156,64,16025,6,0,P|112:72|84:104,2,87.5
224,168,16691,2,0,P|272:156|296:120,2,87.5
88,240,17358,6,0,P|104:280|160:304,2,87.5
188,160,18025,2,0,P|172:116|136:96,2,87.5
304,76,18691,6,0,L|380:128,1,87.5
400,200,19025,1,0,0:0:0:0:
264,244,19358,6,0,L|184:188,1,87.5
180,120,19691,1,0,0:0:0:0:
320,52,20025,5,0,0:0:0:0:
320,52,20191,1,0,0:0:0:0:
320,52,20358,1,0,0:0:0:0:
408,144,20691,5,0,0:0:0:0:
408,144,20858,1,0,0:0:0:0:
408,144,21025,1,0,0:0:0:0:
307,242,21358,5,2,0:0:0:0:
307,242,21525,1,2,0:0:0:0:
191,244,21691,2,2,P|134:246|48:182,2,140,2|0|0,0:0|0:0|0:0,0:0:0:0:
406,190,22691,5,2,0:0:0:0:
61,132,22858,1,2,0:0:0:0:
396,66,23025,1,2,0:0:0:0:
102,235,23191,1,2,0:0:0:0:
248,117,23358,6,2,L|307:189,1,70
247,241,23691,2,2,L|308:319,1,70
139,290,24025,6,2,L|82:219,1,70,0|0,0:0|0:0,0:0:0:0:
115,129,24358,1,2,0:0:0:0:
115,129,24691,2,2,P|174:77|259:77,1,140
430,233,25358,5,2,0:0:0:0:
139,88,25525,1,2,0:0:0:0:
441,171,25691,1,2,0:0:0:0:
181,51,25858,1,2,0:0:0:0:
308,122,26025,6,0,L|342:187,1,70
301,288,26358,1,0,0:0:0:0:
301,288,26525,1,2,0:0:0:0:
179,238,26691,6,2,L|116:268,2,70,2|0|2,0:0|0:0|0:0,0:0:0:0:
146,128,27358,1,2,0:0:0:0:
146,128,27691,1,2,0:0:0:0:
238,59,28025,5,2,0:0:0:0:
238,59,28191,1,2,0:0:0:0:
326,130,28358,1,2,0:0:0:0:
326,130,28525,1,2,0:0:0:0:
318,241,28691,6,2,P|290:273|234:282,1,70
177,236,29025,1,2,0:0:0:0:
168,116,29358,6,2,L|236:64,1,70
328,92,29691,1,2,0:0:0:0:
328,92,30025,2,2,P|372:156|380:232,1,140
328,328,30691,5,2,0:0:0:0:
72,276,30858,1,2,0:0:0:0:
300,272,31025,1,2,0:0:0:0:
116,232,31191,1,2,0:0:0:0:
232,156,31358,6,2,L|308:120,1,70
380,152,31691,1,2,0:0:0:0:
300,252,32025,6,2,L|228:300,1,70
132,264,32358,1,2,0:0:0:0:
132,264,32691,2,2,B|112:204|112:204|112:128,1,140
256,36,33358,5,2,0:0:0:0:
412,212,33525,1,2,0:0:0:0:
172,120,33691,1,2,0:0:0:0:
388,88,33858,1,2,0:0:0:0:
364,184,34025,6,2,L|292:236,1,70
204,208,34358,1,2,0:0:0:0:
204,208,34525,1,2,0:0:0:0:
344,164,34691,6,2,P|380:176|408:224,1,70
392,312,35025,1,2,0:0:0:0:
392,312,35358,1,2,0:0:0:0:
392,312,35691,1,2,0:0:0:0:
256,312,36025,5,2,0:0:0:0:
256,312,36191,1,2,0:0:0:0:
180,232,36358,1,2,0:0:0:0:
180,232,36525,1,2,0:0:0:0:
224,128,36691,6,2,L|308:120,1,70
368,180,37025,1,2,0:0:0:0:
260,288,37358,6,2,P|216:304|168:292,2,70
264,164,37858,1,0,0:0:0:0:
264,164,38025,2,2,P|324:136|400:156,1,140
420,304,38691,1,2,0:0:0:0:
260,112,38858,1,2,0:0:0:0:
256,324,39025,1,2,0:0:0:0:
420,168,39191,1,2,0:0:0:0:
296,176,39358,6,2,L|208:192,1,70
168,104,39691,2,2,L|96:112,1,70
116,232,40025,2,2,P|144:264|188:272,2,70
264,204,40691,1,2,0:0:0:0:
264,204,41025,1,2,0:0:0:0:
192,96,41358,5,2,0:0:0:0:
192,96,41525,1,2,0:0:0:0:
128,192,41691,1,2,0:0:0:0:
128,192,41858,1,2,0:0:0:0:
248,192,42025,6,2,L|324:164,1,70
404,176,42358,1,2,0:0:0:0:
441,332,42691,5,2,0:0:0:0:
74,69,43358,1,2,0:0:0:0:
256,336,44025,1,2,0:0:0:0:
405,62,44691,1,2,0:0:0:0:
87,190,45025,1,2,0:0:0:0:
392,292,45358,5,2,0:0:0:0:
160,120,45691,1,2,0:0:0:0:
416,212,46025,1,2,0:0:0:0:
180,312,46358,1,2,0:0:0:0:
320,88,46691,1,2,0:0:0:0:
336,284,47025,1,2,0:0:0:0:
168,164,47358,1,2,0:0:0:0:
331,148,47525,5,0,0:0:0:0:
331,148,47691,2,2,L|411:192,1,70
220,258,48025,2,0,L|152:206,1,70
331,148,48358,2,0,L|405:195,1,70
220,255,48691,2,0,L|152:204,1,70
331,146,49025,2,0,L|405:202,1,70
112,264,49358,5,2,0:0:0:0:
372,140,49525,1,2,0:0:0:0:
252,336,49691,1,2,0:0:0:0:
196,76,49858,1,2,0:0:0:0:
372,300,50025,1,2,0:0:0:0:
312,40,50191,1,2,0:0:0:0:
140,244,50358,1,2,0:0:0:0:
380,104,50525,1,2,0:0:0:0:
164,96,50691,5,2,0:0:0:0:
404,232,50858,1,2,0:0:0:0:
104,204,51025,1,2,0:0:0:0:
376,80,51191,1,2,0:0:0:0:
344,224,51358,6,2,L|316:292,1,70
228,320,51691,1,2,0:0:0:0:
152,196,51858,5,2,0:0:0:0:
152,196,52025,2,2,L|192:116,1,70
328,104,52358,2,2,L|300:168,1,70
120,280,52691,1,2,0:0:0:0:
256,52,52858,1,2,0:0:0:0:
352,252,53025,1,2,0:0:0:0:
240,112,53191,5,2,0:0:0:0:
240,112,53358,2,2,L|156:152,1,70
160,248,53691,2,2,L|96:280,1,70
108,136,54025,2,2,B|172:112|172:112|240:132|312:100,1,210
396,192,54691,6,2,L|408:276,1,70
368,340,55025,1,2,0:0:0:0:
240,268,55191,1,2,0:0:0:0:
240,268,55358,2,2,L|176:216,1,70
192,84,55691,2,2,L|252:136,1,70
308,268,56025,5,2,0:0:0:0:
68,236,56191,1,2,0:0:0:0:
256,116,56358,1,2,0:0:0:0:
220,240,56525,5,2,0:0:0:0:
220,240,56691,2,2,L|136:276,1,70
60,237,57025,1,2,0:0:0:0:
152,120,57191,5,2,0:0:0:0:
152,120,57358,2,2,L|244:80,1,70
196,240,57691,2,2,L|112:284,1,70
40,220,58025,1,2,0:0:0:0:
40,220,58191,1,2,0:0:0:0:
40,220,58358,1,2,0:0:0:0:
40,220,58525,1,2,0:0:0:0:
88,88,58691,5,2,0:0:0:0:
188,56,59025,1,2,0:0:0:0:
248,148,59358,2,2,L|272:220,2,70
408,168,60025,5,2,0:0:0:0:
160,296,60191,1,2,0:0:0:0:
416,224,60358,1,2,0:0:0:0:
208,320,60525,1,2,0:0:0:0:
408,272,60691,1,2,0:0:0:0:
256,336,60858,1,2,0:0:0:0:
408,208,61025,1,2,0:0:0:0:
200,304,61191,1,2,0:0:0:0:
256,184,61358,6,2,P|272:160|328:152,3,70
416,192,62025,2,2,L|464:272,1,70
408,328,62358,1,2,0:0:0:0:
240,296,62525,5,2,0:0:0:0:
240,296,62691,2,2,L|176:264,1,70
152,128,63025,2,2,L|224:160,1,70
336,168,63358,1,2,0:0:0:0:
336,168,63525,1,2,0:0:0:0:
336,168,63691,1,2,0:0:0:0:
336,168,63858,1,2,0:0:0:0:
232,264,64025,6,2,L|160:272,1,70
88,192,64358,1,2,0:0:0:0:
96,104,64525,1,2,0:0:0:0:
160,48,64691,1,2,0:0:0:0:
160,48,65191,5,2,0:0:0:0:
160,48,65358,2,2,L|232:88,1,70
240,192,65691,2,2,L|304:232,1,70
440,248,66025,5,2,0:0:0:0:
144,304,66191,1,2,0:0:0:0:
392,176,66358,1,2,0:0:0:0:
160,216,66525,1,2,0:0:0:0:
312,192,66691,6,2,L|368:256,1,70
328,328,67025,1,2,0:0:0:0:
328,328,67191,1,2,0:0:0:0:
192,288,67358,6,2,L|128:232,1,70
112,160,67691,1,2,0:0:0:0:
216,96,67858,5,2,0:0:0:0:
216,96,68025,2,2,L|280:144,1,70
296,240,68358,2,2,P|304:272|296:312,1,70
144,336,68691,5,2,0:0:0:0:
216,88,68858,1,2,0:0:0:0:
264,240,69025,1,2,0:0:0:0:
128,96,69191,1,2,0:0:0:0:
144,216,69358,6,2,P|168:248|200:264,1,70
272,144,69691,2,2,P|248:112|216:96,1,70
112,152,70025,6,2,B|104:232|104:232|144:296,1,140
261,298,70691,1,2,0:0:0:0:
346,210,71025,1,2,0:0:0:0:
346,210,71525,1,2,0:0:0:0:
346,210,71691,2,2,L|402:262,1,70
278,312,72025,6,2,L|192:306,1,70
114,220,72358,2,2,L|193:224,1,70
310,141,72691,2,2,L|231:137,1,70
131,42,73025,2,2,L|217:47,1,70
322,96,73358,5,2,0:0:0:0:
402,186,73691,1,2,0:0:0:0:
402,186,74358,1,2,0:0:0:0:
402,186,74525,1,2,0:0:0:0:
342,258,74691,6,2,L|276:313,1,70
155,306,75025,2,2,L|228:246,1,70
242,132,75358,2,2,L|182:181,1,70
48,185,75691,2,2,L|121:128,1,70
233,74,76025,5,2,0:0:0:0:
332,92,76358,1,2,0:0:0:0:
332,92,76858,1,2,0:0:0:0:
332,92,77025,2,2,L|385:164,1,70
319,243,77358,6,2,L|246:256,1,70
199,188,77691,1,2,0:0:0:0:
199,188,77858,1,2,0:0:0:0:
262,98,78025,6,2,L|349:91,1,70
416,149,78358,1,2,0:0:0:0:
416,149,78525,1,2,0:0:0:0:
343,250,78691,6,2,L|269:272,2,70
227,218,79358,2,2,L|154:202,2,70
103,251,80025,2,2,L|18:266,2,70
63,142,80691,6,2,P|92:108|131:93,1,70
217,117,81025,1,2,0:0:0:0:
217,117,81191,1,2,0:0:0:0:
350,146,81358,6,2,L|415:211,1,70
390,304,81691,1,2,0:0:0:0:
390,304,82025,2,2,P|296:331|248:315,1,140
106,205,82691,5,2,0:0:0:0:
251,53,82858,1,2,0:0:0:0:
266,291,83025,1,2,0:0:0:0:
167,114,83191,1,2,0:0:0:0:
267,193,83358,6,2,P|304:198|355:171,1,70
357,105,83691,1,2,0:0:0:0:
357,105,83858,1,2,0:0:0:0:
343,236,84025,6,2,L|285:297,2,70
288,136,84691,1,2,0:0:0:0:
288,136,85025,1,2,0:0:0:0:
168,113,85358,5,2,0:0:0:0:
168,113,85525,1,2,0:0:0:0:
145,222,85691,1,2,0:0:0:0:
145,222,85858,1,2,0:0:0:0:
249,258,86025,6,2,L|325:229,1,70
380,114,86358,2,2,L|310:145,1,70
170,142,86691,6,2,P|145:166|139:207,1,70
248,258,87025,1,2,0:0:0:0:
248,258,87358,2,2,P|321:228|346:160,1,140
214,91,88025,5,2,0:0:0:0:
342,284,88191,1,2,0:0:0:0:
183,173,88358,1,2,0:0:0:0:
367,143,88525,1,2,0:0:0:0:
209,280,88691,5,2,0:0:0:0:
290,73,88858,1,2,0:0:0:0:
168,245,89025,1,2,0:0:0:0:
236,77,89191,1,2,0:0:0:0:
249,202,89358,6,2,L|275:281,1,70
368,298,89691,1,2,0:0:0:0:
368,298,90025,1,2,0:0:0:0:
368,298,90358,1,2,0:0:0:0:
368,298,90691,6,2,L|279:297,1,70
193,222,91025,2,2,L|279:222,1,70
357,164,91358,1,2,0:0:0:0:
307,94,91525,1,2,0:0:0:0:
224,71,91691,1,2,0:0:0:0:
140,183,92025,6,2,P|175:258|239:288,1,140
318,223,92691,2,2,L|358:157,1,70,2|0,0:0|0:0,0:0:0:0:
313,53,93025,2,2,L|271:118,1,70,2|0,0:0|0:0,0:0:0:0:
208,184,93358,1,2,0:0:0:0:
233,270,93691,1,2,0:0:0:0:
398,235,94025,6,2,B|434:193|434:193|423:136|366:133,1,140
294,182,94525,2,2,B|266:193|263:233|263:233|278:296|252:333|173:322,1,210,2|0,0:0|0:0,0:0:0:0:
109,198,95358,5,2,0:0:0:0:
109,198,95525,1,2,0:0:0:0:
109,198,95691,2,2,L|154:133,1,70
245,184,96025,5,2,0:0:0:0:
245,184,96191,1,2,0:0:0:0:
245,184,96358,2,2,L|291:249,1,70
430,188,96691,6,2,P|419:146|381:124,1,70
297,209,97025,2,2,P|310:250|343:270,1,70
434,258,97358,1,2,0:0:0:0:
434,258,97691,5,2,0:0:0:0:
392,190,97858,1,2,0:0:0:0:
351,128,98025,1,2,0:0:0:0:
351,128,98358,5,2,0:0:0:0:
351,128,98691,2,2,P|331:199|278:251,1,140
195,291,99358,2,2,L|130:267,1,70
98,182,99691,1,2,0:0:0:0:
98,182,99858,1,2,0:0:0:0:
233,138,100025,6,2,L|316:169,1,70
328,255,100358,1,2,0:0:0:0:
328,255,100525,1,2,0:0:0:0:
206,284,100691,6,2,P|168:255|148:219,1,70
174,133,101025,1,2,0:0:0:0:
174,133,101358,2,2,P|234:106|313:116,1,140
346,162,102025,6,2,L|311:237,1,70
232,238,102358,2,2,L|199:308,1,70
84,315,102691,1,2,0:0:0:0:
84,315,103025,5,2,0:0:0:0:
118,246,103191,1,2,0:0:0:0:
153,175,103358,1,2,0:0:0:0:
153,175,103691,1,0,0:0:0:0:
153,175,104025,6,2,P|220:211|295:206,1,140
328,79,104691,1,2,0:0:0:0:
196,38,105025,1,0,0:0:0:0:
196,38,105191,1,2,0:0:0:0:
264,150,105358,6,2,L|297:231,1,70
446,179,105691,2,2,L|375:121,1,70
270,139,106025,1,2,0:0:0:0:
270,139,106358,1,2,0:0:0:0:
270,139,106691,2,2,P|222:143|182:128,2,70
350,57,107358,6,2,L|391:128,1,70
359,198,107691,2,2,L|401:263,1,70
366,349,108025,1,2,0:0:0:0:
366,349,108358,5,2,0:0:0:0:
317,271,108525,1,2,0:0:0:0:
272,195,108691,1,2,0:0:0:0:
272,195,109025,5,0,0:0:0:0:
272,195,109358,2,2,P|198:160|266:80,1,210
376,128,110025,6,2,L|452:158,1,70
352,240,110358,2,2,L|267:207,1,70
200,168,110691,1,2,0:0:0:0:
200,168,111025,5,2,0:0:0:0:
272,112,111191,1,2,0:0:0:0:
360,128,111358,1,2,0:0:0:0:
360,128,111691,5,2,0:0:0:0:
360,128,112025,2,2,L|374:273,1,140
260,278,112691,5,2,0:0:0:0:
260,278,112858,1,2,0:0:0:0:
260,278,113025,2,2,L|188:268,1,70
178,164,113358,5,2,0:0:0:0:
178,164,113525,1,2,0:0:0:0:
178,164,113691,2,2,L|261:173,1,70
382,203,114025,6,2,L|418:270,1,70
359,335,114358,1,2,0:0:0:0:
359,335,114691,2,2,P|288:340|221:295,1,140,2|0,0:0|0:0,0:0:0:0:
114,172,115358,6,2,L|103:90,1,70
252,143,115691,2,2,L|266:218,1,70
199,295,116025,1,2,0:0:0:0:
199,295,116358,5,2,0:0:0:0:
168,225,116525,1,2,0:0:0:0:
138,157,116691,1,2,0:0:0:0:
138,157,117025,5,2,0:0:0:0:
138,157,117358,2,2,P|189:93|252:70,1,140
353,145,118025,5,2,0:0:0:0:
353,145,118358,1,2,0:0:0:0:
353,145,118525,1,2,0:0:0:0:
303,248,118691,6,2,L|242:293,1,70
82,258,119025,2,2,L|146:212,1,70
221,123,119358,1,2,0:0:0:0:
221,123,119691,1,2,0:0:0:0:
221,123,120025,6,2,P|263:136|292:157,2,70
81,251,120691,6,2,P|105:322|171:336,1,140
325,179,121358,2,2,P|299:112|232:94,1,140
128,183,122025,1,2,0:0:0:0:
128,183,122358,1,2,0:0:0:0:
128,183,122691,6,2,P|169:235|256:232,1,140,2|2,0:0|0:0,0:0:0:0:
376,169,123358,6,2,P|356:107|294:73,1,140
140,199,124025,2,2,P|154:265|219:305,1,140
365,239,124691,1,2,0:0:0:0:
365,239,124858,1,2,0:0:0:0:
365,239,125025,1,2,0:0:0:0:
240,166,125358,6,2,B|173:180|173:180|106:236,1,140,2|2,0:0|0:0,0:0:0:0:
302,297,126025,1,2,0:0:0:0:
302,297,126358,1,2,0:0:0:0:
302,297,126691,1,2,0:0:0:0:
302,297,127025,6,2,L|383:258,1,70
398,171,127358,1,2,0:0:0:0:
398,171,127691,1,2,0:0:0:0:
398,171,128025,6,2,B|335:145|335:145|254:144,1,140
133,171,128691,1,2,0:0:0:0:
205,259,129025,1,2,0:0:0:0:
205,259,129191,1,2,0:0:0:0:
301,209,129358,6,2,L|374:166,1,70
248,97,129691,2,2,L|181:130,1,70
264,232,130025,2,2,P|296:248|344:232,1,70
456,160,130358,2,0,L|432:232,1,70
352,112,130691,2,2,P|315:105|284:116,2,70,2|0|2,0:0|0:0|0:0,0:0:0:0:
141,186,131358,6,2,L|146:268,1,70
217,318,131691,1,2,0:0:0:0:
217,318,132025,2,2,P|267:272|339:251,1,140
421,167,132691,5,2,0:0:0:0:
188,38,132858,1,2,0:0:0:0:
321,289,133025,1,2,0:0:0:0:
277,95,133191,1,2,0:0:0:0:
363,174,133358,6,2,L|420:254,1,70
262,268,133691,2,2,L|189:225,1,70
241,112,134025,6,2,P|292:96|335:101,1,70
399,153,134358,1,2,0:0:0:0:
399,153,134691,2,2,L|352:290,1,140
180,314,135358,5,2,0:0:0:0:
243,69,135525,1,2,0:0:0:0:
338,293,135691,1,2,0:0:0:0:
179,163,135858,1,2,0:0:0:0:
326,166,136025,6,2,L|403:218,1,70
399,275,136358,1,2,0:0:0:0:
399,275,136525,1,2,0:0:0:0:
225,276,136691,6,2,P|150:251|98:214,1,140
170,117,137358,2,2,L|249:89,1,70
311,172,137691,2,2,L|307:253,1,70
208,300,138025,5,2,0:0:0:0:
30,164,138191,1,2,0:0:0:0:
217,93,138358,1,2,0:0:0:0:
130,248,138525,1,2,0:0:0:0:
203,131,138691,6,2,P|250:113|292:124,1,70
345,180,139025,1,2,0:0:0:0:
296,266,139358,6,2,L|200:300,1,70
121,258,139691,1,2,0:0:0:0:
121,258,140025,2,2,L|143:182,1,70,2|0,0:0|0:0,0:0:0:0:
249,139,140358,2,2,L|262:233,1,70
316,309,140691,5,2,0:0:0:0:
445,100,140858,1,2,0:0:0:0:
272,247,141025,1,2,0:0:0:0:
383,73,141191,1,2,0:0:0:0:
355,182,141358,5,2,0:0:0:0:
355,182,141525,1,2,0:0:0:0:
355,182,141691,1,2,0:0:0:0:
259,266,142025,6,2,L|163:275,1,70
104,200,142358,1,2,0:0:0:0:
104,200,142691,1,2,0:0:0:0:
175,134,143025,1,2,0:0:0:0:
175,134,143191,1,2,0:0:0:0:
281,137,143358,6,2,L|326:197,1,70
225,266,143691,2,2,L|145:257,1,70
160,143,144025,2,2,L|226:97,1,70
299,181,144358,2,2,L|325:258,1,70
155,183,144691,6,2,L|112:260,1,70
193,313,145025,1,2,0:0:0:0:
193,313,145358,1,2,0:0:0:0:
308,257,145691,5,2,0:0:0:0:
308,257,145858,1,2,0:0:0:0:
258,151,146025,2,2,L|184:91,1,70
129,197,146358,2,2,L|154:270,1,70
258,222,146691,2,2,L|308:166,1,70
229,91,147025,2,2,L|148:76,1,70
163,217,147358,6,2,L|205:290,2,70
260,137,148025,1,2,0:0:0:0:
260,137,148358,1,2,0:0:0:0:
351,195,148691,2,2,L|398:269,1,70
265,288,149025,2,2,L|195:237,1,70
179,153,149358,5,2,0:0:0:0:
232,65,149525,1,2,0:0:0:0:
323,78,149691,1,2,0:0:0:0:
385,151,149858,1,2,0:0:0:0:
302,257,150025,6,2,L|225:266,1,70
126,201,150358,6,2,P|99:110|139:71,2,140
268,148,151358,2,2,L|291:82,1,70
360,212,151691,2,2,L|338:302,1,70
239,311,152025,5,2,0:0:0:0:
167,257,152191,1,2,0:0:0:0:
147,178,152358,1,2,0:0:0:0:
256,192,152525,12,0,154358,0:0:0:0:
