osu file format v14

[General]
AudioFilename: audio.mp3
AudioLeadIn: 0
PreviewTime: 166732
Countdown: 0
SampleSet: Soft
StackLeniency: 0.7
Mode: 0
LetterboxInBreaks: 0
WidescreenStoryboard: 0

[Editor]
Bookmarks: 10596,30806,41070,42017,42175,52280,62543,70122,71701,73280,92226,93491,103594,108647,112436,113700,123805,131068,136436,146542,150331,155384,156647,166752,173383,180015,193276,210961,213329,232652,232671,232691,232711,232731,232750,232770,232790,232810,232829,232849,232869,232888,232908,232928,232948,232967,233540,243645,253908,258961,274119,278856,279171,294329,304435
DistanceSpacing: 0.75
BeatDivisor: 4
GridSize: 32
TimelineZoom: 2.899999

[Metadata]
Title:Y/M/K/M
TitleUnicode:Y/M/K/M
Artist:Marmalade butcher
ArtistUnicode:Marmalade butcher
Creator:Lasse
Version:E/X
Source:
Tags:ymkm instrumental math rock alternative Uteruchesis
BeatmapID:3079151
BeatmapSetID:1502963

[Difficulty]
HPDrainRate:5
CircleSize:4
OverallDifficulty:9.3
ApproachRate:9.7
SliderMultiplier:2
SliderTickRate:1

[Events]
//Background and Video events
0,0,"b.jpg",0,0
//Break Periods
//Storyboard Layer 0 (Background)
//Storyboard Layer 1 (Fail)
//Storyboard Layer 2 (Pass)
//Storyboard Layer 3 (Foreground)
//Storyboard Layer 4 (Overlay)
//Storyboard Sound Samples

[TimingPoints]
649,315.789473684211,4,2,1,40,1,0
8227,-100,4,2,1,45,0,0
8701,-100,4,2,1,50,0,0
9175,-100,4,2,1,40,0,0
9491,-100,4,2,1,50,0,0
10438,-100,4,2,1,60,0,0
10596,-83.3333333333333,4,1,64,75,0,0
10675,-83.3333333333333,4,1,1,75,0,0
15175,-111.111111111111,4,1,1,75,0,0
15649,-83.3333333333333,4,1,1,75,0,0
20227,-111.111111111111,4,1,1,75,0,0
20701,-83.3333333333333,4,1,64,75,0,0
20780,-83.3333333333333,4,1,1,75,0,0
25280,-125,4,1,1,75,0,0
25754,-83.3333333333333,4,1,1,75,0,0
30806,-71.4285714285714,4,1,1,80,0,0
40280,-62.5,4,1,1,80,0,0
40912,-200,4,1,1,50,0,0
42017,-133.333333333333,4,1,1,65,0,0
42096,-133.333333333333,4,1,1,5,0,0
42175,-66.6666666666667,4,1,1,75,0,0
42412,-66.6666666666667,4,2,1,40,0,0
42491,-66.6666666666667,4,1,1,75,0,0
44938,-66.6666666666667,4,2,1,40,0,0
45017,-66.6666666666667,4,1,1,75,0,0
47464,-66.6666666666667,4,2,1,40,0,0
47543,-66.6666666666667,4,1,1,75,0,0
49991,-66.6666666666667,4,2,1,40,0,0
50070,-66.6666666666667,4,1,1,75,0,0
51806,-100,4,2,2,75,0,0
51846,-100,4,2,2,5,0,0
51964,-100,4,2,2,75,0,0
52004,-100,4,2,2,5,0,0
52122,-100,4,2,2,75,0,0
52162,-100,4,2,2,5,0,0
52280,-111.111111111111,4,2,2,65,0,0
62543,-100,4,2,2,70,0,0
69649,-90.9090909090909,4,2,2,70,0,0
70122,315.789473684211,5,1,1,75,1,0
70122,-66.6666666666667,5,1,1,75,0,0
70832,-66.6666666666667,5,2,1,40,0,0
70911,-100,5,1,1,75,0,0
70950,-100,5,2,1,5,0,0
71069,-100,5,1,1,75,0,0
71108,-100,5,2,1,5,0,0
71227,-100,5,1,1,75,0,0
71266,-100,5,2,1,5,0,0
71385,-100,5,3,2,70,0,0
71700,-66.6666666666667,5,1,1,75,0,0
71937,-66.6666666666667,5,2,1,40,0,0
72016,-66.6666666666667,5,3,2,70,0,0
72332,-66.6666666666667,5,1,1,75,0,0
72569,-66.6666666666667,5,2,1,40,0,0
72648,-100,5,1,1,70,0,0
72687,-100,5,2,1,5,0,0
72806,-100,5,1,1,70,0,0
72845,-100,5,2,1,5,0,0
72964,-100,5,1,1,70,0,0
73279,315.789473684211,4,1,1,75,1,0
73279,-76.9230769230769,4,1,1,75,0,0
75173,-100,4,1,1,75,0,0
75647,-76.9230769230769,4,1,1,75,0,0
77739,-76.9230769230769,4,2,1,5,0,0
77857,-76.9230769230769,4,1,1,75,0,0
77897,-76.9230769230769,4,2,1,5,0,0
78015,-76.9230769230769,4,1,1,75,0,0
78055,-76.9230769230769,4,2,1,5,0,0
78173,-76.9230769230769,4,1,1,75,0,0
80226,-100,4,1,1,75,0,0
80700,-76.9230769230769,4,1,1,75,0,0
82792,-76.9230769230769,4,2,1,5,0,0
82910,-76.9230769230769,4,1,1,75,0,0
82950,-76.9230769230769,4,2,1,5,0,0
83068,-76.9230769230769,4,1,1,75,0,0
83107,-76.9230769230769,4,2,1,5,0,0
83226,-76.9230769230769,4,1,1,75,0,0
85594,-100,4,1,1,75,0,0
85752,-76.9230769230769,4,1,1,75,0,0
87844,-76.9230769230769,4,2,1,5,0,0
87963,-76.9230769230769,4,1,1,75,0,0
88002,-76.9230769230769,4,2,1,5,0,0
88121,-76.9230769230769,4,1,1,75,0,0
88160,-76.9230769230769,4,2,1,5,0,0
88279,-76.9230769230769,4,1,1,75,0,0
90647,-100,4,1,1,75,0,0
90805,-76.9230769230769,4,1,1,75,0,0
92226,-400,4,2,1,60,0,0
92305,-400,4,2,2,30,0,0
93094,-400,4,2,1,5,0,0
93173,-66.6666666666667,4,1,1,60,0,0
93331,-66.6666666666667,4,2,1,50,0,0
93489,-133.333333333333,4,2,2,60,0,0
103594,-117.647058823529,4,1,2,65,0,0
108015,-117.647058823529,4,1,2,70,0,0
108647,-66.6666666666667,4,1,1,75,0,0
109279,-64.5161290322581,4,1,1,75,0,0
109910,-62.5,4,1,1,75,0,0
110542,-60.6060606060606,4,1,1,75,0,0
111489,-58.8235294117647,4,1,1,80,0,0
113384,-133.333333333333,4,2,64,55,0,0
113423,-133.333333333333,4,2,64,5,0,0
113700,-133.333333333333,4,2,2,60,0,0
123805,-111.111111111111,4,2,2,65,0,0
131068,-100,7,1,1,70,0,0
132252,-100,7,2,1,40,0,0
132331,-100,7,1,1,70,0,0
133910,-100,7,1,1,60,0,0
134857,-100,7,1,1,70,0,0
135094,-100,7,2,1,40,0,0
135173,-100,7,1,1,65,0,0
136436,-83.3333333333333,7,1,1,70,0,0
140226,-71.4285714285714,7,1,1,75,0,0
141489,-76.9230769230769,7,1,1,70,0,0
145279,-66.6666666666667,7,1,1,75,0,0
146542,-71.4285714285714,7,1,1,75,0,0
150331,-71.4285714285714,7,1,1,80,0,0
151594,-71.4285714285714,7,1,1,75,0,0
155384,-71.4285714285714,7,1,1,80,0,0
156647,-76.9230769230769,7,1,1,75,0,0
160436,-62.5,7,1,1,80,0,0
161700,-71.4285714285714,7,1,1,75,0,0
165489,-71.4285714285714,7,1,1,80,0,0
166752,315.789473684211,3,2,1,60,1,0
166752,-666.666666666667,3,2,64,60,0,0
166830,-666.666666666667,3,2,2,30,0,0
173383,-666.666666666667,3,2,2,40,0,0
173699,-666.666666666667,3,2,64,50,0,0
179067,-100,3,1,1,60,0,0
179699,-100,3,2,2,65,0,0
180015,315.789473684211,5,2,3,65,1,0
184751,315.789473684211,6,2,3,65,1,0
186646,315.789473684211,5,2,3,65,1,0
191382,315.789473684211,6,2,3,65,1,0
192960,-100,6,2,2,65,0,0
193277,315.789473684211,5,2,3,70,1,0
198013,315.789473684211,6,2,3,70,1,0
199591,-100,6,2,2,70,0,0
199909,315.789473684211,5,2,3,70,1,0
204645,315.789473684211,6,2,3,70,1,0
206540,-133.333333333333,6,2,3,50,0,0
208118,-500,6,2,3,60,0,0
208276,-500,6,2,3,35,0,0
208435,315.789473684211,4,2,2,47,1,0
208435,-100,4,2,2,47,0,0
208592,-100,4,2,2,48,0,0
208750,-100,4,2,2,49,0,0
208908,-100,4,2,2,50,0,0
209066,-100,4,2,2,51,0,0
209224,-100,4,2,2,52,0,0
209382,-100,4,2,2,53,0,0
209540,-100,4,2,2,54,0,0
209698,-100,4,2,2,55,0,0
209856,-100,4,2,2,56,0,0
210013,-100,4,2,2,57,0,0
210171,-100,4,2,2,58,0,0
210329,-100,4,2,2,59,0,0
210487,-100,4,2,2,60,0,0
210645,-100,4,2,2,61,0,0
210803,-100,4,2,2,62,0,0
210961,-100,4,2,2,63,0,0
211119,-100,4,2,2,64,0,0
211277,-100,4,2,2,65,0,0
211435,-100,4,2,2,66,0,0
211592,-100,4,2,2,67,0,0
211750,-100,4,2,2,68,0,0
211908,-100,4,2,2,69,0,0
212066,-83.3333333333333,4,2,2,70,0,0
212145,-83.3333333333333,4,2,2,71,0,0
212224,-83.3333333333333,4,2,2,72,0,0
212303,-83.3333333333333,4,2,2,73,0,0
212382,-83.3333333333333,4,2,2,74,0,0
212461,-83.3333333333333,4,2,2,75,0,0
212540,-83.3333333333333,4,2,2,76,0,0
212619,-83.3333333333333,4,2,2,77,0,0
212698,-83.3333333333333,4,2,2,78,0,0
212777,-83.3333333333333,4,2,2,79,0,0
212856,-83.3333333333333,4,2,2,80,0,0
212935,-83.3333333333333,4,2,2,81,0,0
213013,-83.3333333333333,4,2,2,82,0,0
213092,-83.3333333333333,4,2,2,83,0,0
213171,-83.3333333333333,4,2,2,84,0,0
213250,-83.3333333333333,4,2,2,40,0,0
213329,-71.4285714285714,4,1,64,80,0,0
213408,-71.4285714285714,4,1,1,80,0,0
217908,-100,4,1,1,80,0,0
218382,-71.4285714285714,4,1,1,80,0,0
222961,-100,4,1,1,80,0,0
223435,-71.4285714285714,4,1,64,80,0,0
223513,-71.4285714285714,4,1,1,80,0,0
228013,-100,4,1,1,80,0,0
228487,-71.4285714285714,4,1,1,80,0,0
233540,-66.6666666666667,4,1,64,80,0,0
233619,-66.6666666666667,4,1,1,80,0,0
233777,-66.6666666666667,4,1,1,40,0,0
233856,-66.6666666666667,4,1,1,80,0,0
235908,-83.3333333333333,4,1,1,80,0,0
235987,-83.3333333333333,4,1,1,40,0,0
236066,-66.6666666666667,4,1,1,80,0,0
236303,-66.6666666666667,4,1,1,40,0,0
236382,-66.6666666666667,4,1,1,80,0,0
238119,-76.9230769230769,4,1,1,80,0,0
238592,-66.6666666666667,4,1,1,80,0,0
238829,-66.6666666666667,4,1,1,40,0,0
238908,-66.6666666666667,4,1,1,80,0,0
240961,-83.3333333333333,4,1,1,80,0,0
241040,-83.3333333333333,4,1,1,40,0,0
241119,-66.6666666666667,4,1,1,80,0,0
241356,-66.6666666666667,4,1,1,40,0,0
241435,-66.6666666666667,4,1,1,80,0,0
243171,-76.9230769230769,4,1,1,80,0,0
243645,-66.6666666666667,4,1,64,80,0,0
243724,-66.6666666666667,4,1,1,80,0,0
243882,-66.6666666666667,4,1,1,40,0,0
243961,-66.6666666666667,4,1,1,80,0,0
246013,-83.3333333333333,4,1,1,80,0,0
246092,-83.3333333333333,4,1,1,40,0,0
246171,-66.6666666666667,4,1,1,80,0,0
246408,-66.6666666666667,4,1,1,40,0,0
246487,-66.6666666666667,4,1,1,80,0,0
248224,-76.9230769230769,4,1,1,80,0,0
248698,-66.6666666666667,4,1,1,80,0,0
248935,-66.6666666666667,4,1,1,40,0,0
249013,-66.6666666666667,4,1,1,80,0,0
251066,-83.3333333333333,4,1,1,80,0,0
251145,-83.3333333333333,4,1,1,40,0,0
251224,-66.6666666666667,4,1,1,80,0,0
251461,-66.6666666666667,4,1,1,40,0,0
251540,-66.6666666666667,4,1,1,80,0,0
253908,-62.5,4,1,64,85,0,0
253987,-62.5,4,1,1,85,0,0
254540,-71.4285714285714,4,1,1,85,0,0
255171,-62.5,4,1,1,85,0,0
255408,-62.5,4,1,1,60,0,0
255487,-71.4285714285714,4,1,1,85,0,0
255803,-83.3333333333333,4,1,1,85,0,0
256277,-62.5,4,1,1,85,0,0
256513,-62.5,4,1,1,60,0,0
256592,-62.5,4,1,1,85,0,0
256671,-62.5,4,1,1,60,0,0
256750,-58.8235294117647,4,1,1,85,0,0
257540,-62.5,4,1,1,85,0,0
258013,-71.4285714285714,4,1,1,85,0,0
262750,-62.5,4,1,1,85,0,0
263698,-76.9230769230769,4,1,1,85,0,0
267803,-62.5,4,1,1,85,0,0
268435,-66.6666666666667,4,1,1,85,0,0
272856,-66.6666666666667,4,1,4,90,0,0
274119,-416.666666666667,4,1,64,60,0,0
274198,-416.666666666667,4,2,2,30,0,0
278856,-416.666666666667,4,2,2,40,0,0
279171,-166.666666666667,4,2,1,50,0,0
294329,-200,4,2,1,45,0,0
296856,-222.222222222222,4,2,1,42,0,0
299382,-250,4,2,1,40,0,0
301908,-285.714285714286,4,2,1,38,0,0
302856,-285.714285714286,4,2,1,36,0,0
303171,-285.714285714286,4,2,1,34,0,0
303803,-285.714285714286,4,2,1,32,0,0
303961,-285.714285714286,4,2,1,30,0,0
304119,-285.714285714286,4,2,1,28,0,0
304435,-333.333333333333,4,2,4,25,0,0

[Colours]
Combo1 : 240,140,140
Combo2 : 200,180,220
Combo3 : 240,200,155
Combo4 : 150,185,220

[HitObjects]
256,192,649,5,2,0:0:0:0:
256,192,727,12,2,5701,0:0:0:0:
256,192,5780,12,2,7912,0:0:0:0:
207,203,8227,5,2,0:2:0:0:
270,144,8701,5,2,0:2:0:0:
290,228,9175,5,2,0:2:0:0:
164,49,9491,5,2,0:3:0:0:
113,283,9806,1,2,0:3:0:0:
347,334,10122,1,2,0:3:0:0:
398,100,10438,1,8,0:0:0:0:
241,367,10596,6,2,B|197:262|307:254|264:136,1,239.999992675781,14|0,0:1|0:0,0:1:0:0:
135,285,11070,2,0,B|81:309|81:309|9:270,1,119.999996337891,10|0,0:0|0:0,0:0:0:0:
138,27,11385,2,0,B|84:3|84:3|12:42,1,119.999996337891,2|0,0:0|0:0,0:0:0:0:
288,186,11701,1,10,0:2:0:0:
111,154,11859,2,2,B|205:142|205:142|241:106|241:106|343:92,1,239.999992675781,2|0,0:1|0:0,0:1:0:0:
507,149,12333,2,0,P|515:88|493:32,1,119.999996337891,10|0,0:0|0:0,0:0:0:0:
266,237,12649,5,10,0:0:0:0:
322,254,12727,1,8,0:0:0:0:
378,271,12806,1,8,0:0:0:0:
434,288,12885,1,8,0:0:0:0:
490,305,12964,2,2,L|411:320,1,59.9999981689454,10|0,0:2|0:0,0:1:0:0:
374,384,13122,6,2,B|398:284|335:268|370:146,1,239.999992675781,6|0,0:2|0:0,0:1:0:0:
287,337,13596,2,0,P|227:340|160:297,1,119.999996337891,10|0,0:0|0:0,0:0:0:0:
57,214,13912,1,2,0:0:0:0:
0,291,14070,1,0,0:0:0:0:
35,379,14227,1,10,0:1:0:0:
172,219,14385,1,2,0:2:0:0:
172,219,14464,1,2,0:2:0:0:
172,219,14543,2,0,P|224:192|284:195,1,119.999996337891,2|0,0:1|0:0,0:1:0:0:
111,106,14859,2,0,P|51:109|0:81,1,119.999996337891,10|0,0:0|0:0,0:0:0:0:
196,0,15175,5,2,0:0:0:0:
228,31,15254,1,0,0:0:0:0:
272,23,15333,1,0,0:0:0:0:
305,52,15412,1,0,0:0:0:0:
343,29,15491,2,2,L|357:113,1,44.999998626709,10|0,0:2|0:0,0:1:0:0:
511,108,15649,6,2,B|395:79|395:79|294:149,1,239.999992675781,6|0,0:1|0:0,0:1:0:0:
109,248,16122,2,0,L|128:128,1,119.999996337891,10|0,0:0|0:0,0:0:0:0:
127,129,16359,1,0,0:0:0:0:
127,129,16438,1,2,0:0:0:0:
219,214,16596,1,0,0:0:0:0:
19,172,16754,1,10,0:2:0:0:
242,230,16912,2,2,P|359:204|478:201,1,239.999992675781,2|0,0:1|0:0,0:1:0:0:
329,328,17385,2,0,B|384:354|384:354|431:316,1,119.999996337891,10|0,0:0|0:0,0:0:0:0:
294,129,17701,5,10,0:0:0:0:
358,158,17780,1,8,0:0:0:0:
415,116,17859,1,8,0:0:0:0:
407,45,17938,1,8,0:0:0:0:
342,17,18017,2,2,L|264:38,1,59.9999981689454,10|0,0:2|0:0,0:1:0:0:
210,119,18175,6,2,B|74:119|160:18|-12:19,1,239.999992675781,6|0,0:2|0:0,0:1:0:0:
159,211,18649,1,10,0:0:0:0:
159,211,18806,1,0,0:0:0:0:
0,271,18964,1,2,0:0:0:0:
179,330,19122,1,0,0:0:0:0:
31,384,19280,1,10,0:1:0:0:
166,218,19438,1,2,0:2:0:0:
166,218,19517,1,2,0:2:0:0:
166,218,19596,2,0,L|150:95,1,119.999996337891,2|0,0:1|0:0,0:1:0:0:
323,335,19912,2,0,L|204:350,1,119.999996337891,10|0,0:0|0:0,0:0:0:0:
426,166,20227,5,10,0:0:0:0:
434,210,20306,1,0,0:0:0:0:
450,175,20385,1,0,0:0:0:0:
451,196,20464,1,0,0:0:0:0:
467,183,20543,2,2,L|532:175,1,44.999998626709,10|0,0:2|0:0,0:0:0:0:
394,24,20701,6,2,P|333:115|185:92,1,239.999992675781,14|0,0:1|0:0,0:1:0:0:
9,150,21175,2,0,B|38:27,1,119.999996337891,10|0,0:0|0:0,0:0:0:0:
156,211,21491,1,2,0:0:0:0:
2,275,21649,1,0,0:0:0:0:
135,371,21806,1,10,0:2:0:0:
289,307,21964,2,0,B|422:316|377:225|521:229,1,239.999992675781,2|0,0:1|0:0,0:0:0:0:
347,88,22438,2,0,L|477:111,1,119.999996337891,10|0,0:0|0:0,0:0:0:0:
295,384,22754,5,10,0:0:0:0:
268,317,22833,1,8,0:0:0:0:
241,250,22912,1,8,0:0:0:0:
214,183,22991,1,8,0:0:0:0:
187,116,23070,2,2,L|170:213,1,59.9999981689454,10|0,0:2|0:0,0:0:0:0:
289,280,23227,6,2,B|137:246|246:214|68:181,1,239.999992675781,6|0,0:2|0:0,0:1:0:0:
141,356,23701,2,0,P|87:363|7:387,1,119.999996337891,10|0,0:0|0:0,0:0:0:0:
176,175,24017,1,2,0:1:0:0:
263,238,24175,1,0,0:0:0:0:
365,205,24333,1,8,0:1:0:0:
198,66,24491,1,2,0:2:0:0:
198,66,24570,1,2,0:2:0:0:
198,66,24649,2,0,P|257:57|315:41,1,119.999996337891,2|0,0:1|0:0,0:0:0:0:
301,353,24964,2,0,P|241:361|183:377,1,119.999996337891,10|0,0:0|0:0,0:0:0:0:
12,164,25280,5,10,0:1:0:0:
24,203,25359,1,0,0:0:0:0:
37,163,25438,1,0,0:0:0:0:
49,197,25517,1,0,0:0:0:0:
63,158,25596,2,2,L|79:209,1,40,10|0,0:2|0:0,0:0:0:0:
215,260,25754,6,2,B|97:235|97:235|-13:327,1,239.999992675781,6|0,0:1|0:0,0:1:0:0:
223,128,26227,2,0,L|206:9,1,119.999996337891,10|0,0:0|0:0,0:0:0:0:
206,9,26464,1,0,0:0:0:0:
206,9,26543,1,2,0:0:0:0:
119,121,26701,1,0,0:0:0:0:
327,227,26859,1,10,0:2:0:0:
170,384,27017,2,2,P|181:291|236:130,1,239.999992675781,2|0,0:1|0:0,0:1:0:0:
386,344,27491,2,0,P|450:333|524:333,1,119.999996337891,10|0,0:0|0:0,0:0:0:0:
258,140,27806,5,10,0:0:0:0:
207,198,27885,1,8,0:0:0:0:
133,219,27964,1,8,0:0:0:0:
59,196,28043,1,8,0:0:0:0:
9,136,28122,2,2,L|28:76,1,59.9999981689454,10|0,0:2|0:0,0:0:0:0:
266,6,28280,6,2,P|151:24|98:138,1,239.999992675781,6|0,0:2|0:0,0:1:0:0:
144,285,28754,1,10,0:0:0:0:
41,357,28912,1,0,0:0:0:0:
161,269,29070,1,2,0:1:0:0:
287,326,29227,1,0,0:0:0:0:
138,262,29385,1,10,0:1:0:0:
120,109,29543,1,0,0:0:0:0:
298,222,29701,6,0,L|381:202,1,59.9999981689454,10|0,0:0|0:0,0:0:0:0:
438,230,29859,6,0,L|363:203,1,59.9999981689454,2|0,0:2|0:0,0:0:0:0:
363,117,30017,6,0,L|373:200,1,59.9999981689454,2|0,0:2|0:0,0:0:0:0:
263,290,30175,6,0,L|326:253,1,59.9999981689454,10|0,0:0|0:0,0:0:0:0:
470,272,30333,6,0,L|393:228,1,59.9999981689454,2|0,0:2|0:0,0:0:0:0:
326,36,30491,6,0,L|349:95,1,59.9999981689454,10|0,0:1|0:0,0:0:0:0:
201,346,30649,6,0,L|286:327,1,59.9999981689454,2|0,0:2|0:0,0:0:0:0:
512,236,30806,6,0,B|410:214|410:214|378:157|378:157|258:129,1,279.999991455078,6|0,0:1|0:0,0:0:0:0:
100,17,31280,1,10,0:0:0:0:
218,0,31438,1,0,0:0:0:0:
142,189,31596,1,2,0:0:0:0:
260,172,31754,1,0,0:0:0:0:
54,119,31912,1,10,0:0:0:0:
222,256,32070,5,2,0:2:0:0:
222,256,32149,1,2,0:2:0:0:
222,256,32227,1,2,0:0:0:0:
63,284,32385,1,0,0:0:0:0:
302,344,32543,1,10,0:0:0:0:
143,372,32701,1,0,0:0:0:0:
337,227,32859,5,2,0:2:0:0:
445,355,33017,1,2,0:2:0:0:
500,196,33175,1,10,0:2:0:0:
295,155,33333,6,2,P|427:155|485:275,1,279.999991455078,6|0,0:2|0:0,0:1:0:0:
266,334,33806,1,10,0:1:0:0:
431,374,33964,1,0,0:0:0:0:
242,342,34122,1,2,0:0:0:0:
393,223,34280,1,0,0:0:0:0:
218,350,34438,1,2,0:0:0:0:
137,97,34596,5,2,0:2:0:0:
137,97,34675,1,2,0:2:0:0:
137,97,34754,1,2,0:0:0:0:
99,230,34912,1,0,0:0:0:0:
229,195,35070,1,10,0:0:0:0:
6,131,35227,1,0,0:0:0:0:
280,22,35385,5,2,0:2:0:0:
153,174,35543,1,2,0:2:0:0:
221,360,35701,1,10,0:2:0:0:
53,257,35859,6,2,B|191:280|191:280|294:185,1,279.999991455078,6|0,0:1|0:0,0:1:0:0:
240,115,36333,1,10,0:0:0:0:
377,210,36491,1,0,0:0:0:0:
210,213,36649,1,2,0:0:0:0:
343,112,36806,1,0,0:0:0:0:
294,271,36964,1,10,0:0:0:0:
467,131,37122,5,2,0:2:0:0:
467,131,37201,1,2,0:2:0:0:
467,131,37280,1,2,0:0:0:0:
500,334,37438,1,0,0:0:0:0:
297,367,37596,1,10,0:0:0:0:
264,164,37754,1,0,0:0:0:0:
175,60,37912,5,2,0:2:0:0:
102,313,38070,1,2,0:2:0:0:
175,60,38227,1,10,0:2:0:0:
282,283,38385,6,2,B|195:244|195:244|159:183|159:183|30:135,1,279.999991455078,6|0,0:2|0:0,0:1:0:0:
318,89,38859,1,10,0:0:0:0:
175,25,39017,1,0,0:0:0:0:
321,122,39175,1,2,0:0:0:0:
486,17,39333,1,0,0:0:0:0:
324,155,39491,1,10,0:0:0:0:
104,151,39649,5,2,0:2:0:0:
104,151,39727,1,2,0:2:0:0:
104,151,39806,2,0,L|13:176,1,69.9999978637696,10|0,0:0|0:0,0:0:0:0:
140,163,39964,2,0,L|207:229,1,69.9999978637696,2|0,0:2|0:0,0:2:0:0:
133,126,40122,2,0,L|156:34,1,69.9999978637696,2|0,0:2|0:0,0:0:0:0:
283,272,40280,5,10,0:2:0:0:
283,272,40359,1,10,0:2:0:0:
283,272,40438,2,0,L|192:297,1,80,2|0,0:2|0:0,0:0:0:0:
444,328,40596,2,0,L|511:394,1,80,2|0,0:1|0:0,0:0:0:0:
412,161,40754,2,0,L|435:69,1,80,2|0,0:1|0:0,0:0:0:0:
385,242,40912,6,0,L|373:276,2,25,0|0|2,0:0|0:0|0:3,0:0:0:0:
126,150,42017,6,2,L|67:144,1,37.5000014305115,10|0,0:0|2:0,0:1:0:0:
2,193,42175,6,2,B|138:181|74:116|197:94,1,225.000008583069,6|0,0:2|2:0,0:1:0:0:
272,86,42491,1,2,0:2:0:0:
164,24,42649,1,10,0:1:0:0:
238,169,42806,1,0,0:0:0:0:
359,104,42964,1,2,0:1:0:0:
166,224,43122,1,0,0:0:0:0:
363,260,43280,1,10,0:1:0:0:
272,86,43438,1,0,0:0:0:0:
225,318,43596,1,2,0:1:0:0:
361,381,43754,1,0,0:0:0:0:
276,242,43912,1,10,0:1:0:0:
153,371,44070,1,0,0:0:0:0:
43,180,44227,5,10,0:1:0:0:
473,116,44385,1,10,0:1:0:0:
400,146,44701,6,2,B|263:134|327:69|204:47,1,225.000008583069,6|0,0:2|2:0,0:1:0:0:
139,4,45017,1,2,0:2:0:0:
187,124,45175,1,10,0:0:0:0:
38,88,45333,1,0,0:0:0:0:
204,138,45491,1,2,0:0:0:0:
37,211,45649,1,0,0:0:0:0:
132,26,45806,1,10,0:0:0:0:
221,151,45964,1,0,0:0:0:0:
21,227,46122,1,2,0:0:0:0:
239,164,46280,1,0,0:0:0:0:
15,92,46438,1,10,0:0:0:0:
257,177,46596,1,0,0:0:0:0:
137,4,46754,5,10,0:0:0:0:
64,372,46912,1,10,0:0:0:0:
130,321,47227,6,2,B|243:345|243:345|341:296,1,225.000008583069,6|0,0:2|2:0,0:1:0:0:
407,251,47543,1,2,0:2:0:0:
362,374,47701,1,10,0:1:0:0:
338,212,47859,1,0,0:0:0:0:
499,331,48017,1,2,0:0:0:0:
295,283,48175,1,0,0:0:0:0:
459,121,48333,1,10,0:0:0:0:
366,322,48491,1,0,0:0:0:0:
257,177,48649,1,2,0:0:0:0:
457,235,48806,1,0,0:0:0:0:
216,304,48964,1,10,0:0:0:0:
457,235,49122,1,0,0:0:0:0:
248,11,49280,5,10,0:0:0:0:
310,384,49438,1,10,0:0:0:0:
377,339,49754,6,2,B|324:276|371:194|371:194|344:119,1,225.000008583069,6|0,0:2|2:0,0:1:0:0:
312,62,50070,1,2,0:2:0:0:
273,216,50227,1,10,0:1:0:0:
322,42,50385,1,0,0:0:0:0:
351,248,50543,1,2,0:0:0:0:
333,22,50701,1,0,0:0:0:0:
191,245,50859,1,10,0:0:0:0:
157,7,51017,1,0,0:0:0:0:
197,266,51175,1,2,0:0:0:0:
83,64,51333,1,0,0:0:0:0:
203,287,51491,1,10,0:0:0:0:
238,43,51649,1,0,0:0:0:0:
24,182,51806,6,0,L|-14:187,1,25,8|0,0:0|0:0,0:0:0:0:
132,144,51964,6,0,L|93:140,1,25,8|0,0:0|0:0,0:0:0:0:
236,182,52122,6,0,L|198:187,1,25,8|0,0:0|0:0,0:0:0:0:
324,150,52280,6,0,B|413:167|413:167|513:133,1,179.999994506836,6|0,1:2|1:0,0:0:0:0:
379,243,52754,2,0,L|280:255,1,89.9999972534181,8|0,0:0|1:0,0:0:0:0:
308,332,53070,2,0,L|209:344,2,89.9999972534181,2|0|8,0:2|1:0|0:0,0:0:0:0:
433,384,53543,2,0,P|409:321|417:199,1,179.999994506836,0|0,1:2|1:0,0:0:0:0:
312,138,54017,2,0,L|401:127,1,89.9999972534181,8|0,0:0|0:0,0:0:0:0:
252,19,54333,5,2,1:0:0:0:
202,174,54491,1,0,1:0:0:0:
47,124,54649,1,8,0:0:0:0:
47,124,54806,1,0,0:0:0:0:
25,45,54964,6,0,P|-2:130|5:219,1,179.999994506836,2|8,1:2|0:0,0:0:0:0:
71,262,55438,1,0,1:0:0:0:
117,367,55596,2,0,P|61:374|0:395,1,89.9999972534181,2|0,0:2|1:0,0:0:0:0:
154,213,55912,1,10,0:0:0:0:
211,267,56070,2,0,P|314:257|366:196,1,179.999994506836,0|0,1:0|1:0,0:0:0:0:
512,354,56543,5,10,0:2:0:0:
436,377,56701,1,0,1:0:0:0:
413,301,56859,1,0,1:0:0:0:
489,278,57017,1,0,1:0:0:0:
321,187,57175,5,8,2:2:0:0:
365,192,57254,1,8,2:2:0:0:
405,165,57333,1,8,2:2:0:0:
458,172,57412,1,8,2:2:0:0:
505,111,57491,6,0,P|474:47|343:46,2,179.999994506836,6|8|2,1:2|0:0|0:2,0:0:0:0:
392,296,58280,2,0,P|444:286|491:282,1,89.9999972534181,0|8,1:0|0:0,0:0:0:0:
300,134,58596,2,0,P|255:208|169:217,1,179.999994506836,0|0,1:0|0:0,0:0:0:0:
109,162,59070,5,10,0:0:0:0:
109,162,59227,1,0,1:0:0:0:
0,291,59385,5,2,0:1:0:0:
164,242,59543,1,0,1:0:0:0:
279,368,59701,1,8,0:0:0:0:
279,368,59859,1,0,0:0:0:0:
235,298,60017,6,0,P|213:216|223:119,1,179.999994506836,2|8,1:2|0:0,0:0:0:0:
168,63,60491,1,0,1:0:0:0:
292,168,60649,2,0,L|380:151,1,89.9999972534181,2|0,0:0|1:0,0:0:0:0:
231,219,60964,1,10,0:0:0:0:
390,74,61122,2,0,P|475:87|512:166,1,179.999994506836,0|0,1:0|1:0,0:0:0:0:
292,168,61596,5,10,0:2:0:0:
351,309,61754,1,0,1:0:0:0:
215,378,61912,1,2,1:2:0:0:
258,286,62070,5,8,0:0:0:0:
250,235,62149,1,8,0:0:0:0:
243,185,62227,1,8,0:0:0:0:
235,134,62306,1,8,0:0:0:0:
228,84,62385,1,8,0:0:0:0:
221,34,62464,1,8,0:0:0:0:
254,0,62543,6,0,L|215:201,1,200,6|8,1:2|0:0,0:0:0:0:
154,241,63017,1,0,0:0:0:0:
102,127,63175,2,0,P|56:116|-17:107,1,100,2|0,1:2|1:0,0:0:0:0:
153,264,63491,1,10,0:0:0:0:
221,337,63649,1,2,0:0:0:0:
221,337,63727,1,2,0:0:0:0:
221,337,63806,2,0,P|270:329|319:317,1,100,0|0,1:0|0:0,0:0:0:0:
411,164,64122,2,0,P|459:152|509:144,1,100,10|0,0:0|0:0,0:0:0:0:
451,258,64438,5,2,1:1:0:0:
307,198,64596,1,0,1:0:0:0:
163,138,64754,1,8,0:0:0:0:
256,78,64912,5,2,0:2:0:0:
256,78,64991,1,2,0:2:0:0:
256,78,65070,2,0,B|352:98|352:98|457:41,1,200,2|8,1:2|0:0,0:0:0:0:
512,84,65543,1,0,0:0:0:0:
362,178,65701,2,0,P|356:225|376:300,1,100,2|0,1:2|1:0,0:0:0:0:
180,112,66017,1,10,0:0:0:0:
202,187,66175,2,0,B|106:207|106:207|1:150,1,200,2|0,0:2|0:0,0:0:0:0:
94,295,66649,5,10,0:0:0:0:
94,295,66806,1,0,0:0:0:0:
225,198,66964,5,2,1:2:0:0:
247,359,67122,1,0,1:0:0:0:
408,337,67280,1,10,0:2:0:0:
497,384,67438,5,2,0:0:0:0:
497,384,67517,1,2,0:0:0:0:
497,384,67596,2,0,B|459:300|534:289|495:181,1,200,6|8,1:2|0:0,0:0:0:0:
458,126,68070,1,0,0:0:0:0:
370,259,68227,2,0,P|319:261|272:238,1,100,2|0,1:2|1:0,0:0:0:0:
190,106,68543,2,0,P|139:104|92:126,1,100,8|0,0:0|0:0,0:0:0:0:
18,180,68859,5,2,1:2:0:0:
13,78,69017,1,0,0:0:0:0:
102,231,69175,1,8,0:2:0:0:
95,123,69333,1,0,0:0:0:0:
0,285,69491,1,2,1:0:0:0:
118,370,69649,5,8,2:0:0:0:
167,347,69727,5,8,2:0:0:0:
226,365,69806,5,8,2:0:0:0:
287,328,69885,5,8,2:0:0:0:
346,370,69964,5,8,2:0:0:0:
410,328,70043,5,8,2:0:0:0:
484,368,70122,6,2,P|507:194|465:72,1,300.000011444092,6|8,1:1|0:0,0:1:0:0:
396,295,70595,2,2,P|267:313|155:270,1,225.000008583069,6|0,0:2|0:0,0:1:0:0:
108,343,70911,6,2,L|111:381,1,25,8|0,0:3|0:0,0:1:0:0:
208,260,71069,6,2,L|211:298,1,25,8|0,0:1|0:0,0:1:0:0:
48,200,71227,6,2,L|51:238,1,25,4|0,0:3|0:0,0:1:0:0:
144,108,71385,5,8,3:2:0:0:
148,95,71464,1,8,3:2:0:0:
152,82,71543,1,8,3:2:0:0:
156,69,71622,1,8,3:2:0:0:
80,39,71700,6,2,P|209:18|312:20,1,225.000008583069,6|0,1:2|0:0,0:1:0:0:
364,123,72016,5,8,3:2:0:0:
359,109,72095,1,8,3:2:0:0:
355,96,72174,1,8,3:2:0:0:
351,82,72253,1,8,3:2:0:0:
425,54,72332,6,2,P|295:30|192:30,1,225.000008583069,6|0,0:2|0:0,0:1:0:0:
86,73,72648,6,2,L|48:64,1,25,10|0,0:0|0:0,0:1:0:0:
158,230,72806,6,2,L|120:221,1,25,10|0,0:0|0:0,0:1:0:0:
289,153,72964,5,10,0:1:0:0:
345,131,73043,5,8,0:0:0:0:
396,162,73122,5,8,0:0:0:0:
451,142,73200,5,8,0:0:0:0:
505,207,73279,6,2,P|514:298|509:361,1,129.999994049073,6|0,0:0|0:0,0:1:0:0:
259,384,73594,2,2,P|250:293|255:230,1,129.999994049073,10|0,0:0|0:0,0:0:0:0:
413,131,73910,5,2,0:2:0:0:
396,162,73989,1,0,0:0:0:0:
393,197,74068,1,0,0:0:0:0:
400,232,74147,1,0,0:0:0:0:
421,261,74226,2,2,P|422:196|413:131,1,129.999994049073,10|0,0:2|0:0,0:1:0:0:
220,44,74542,5,2,0:2:0:0:
203,75,74621,1,0,0:0:0:0:
200,110,74700,1,0,0:0:0:0:
207,145,74779,1,0,0:0:0:0:
228,174,74857,2,2,P|229:109|220:44,1,129.999994049073,10|0,0:2|0:0,0:1:0:0:
36,125,75173,5,2,0:2:0:0:
19,156,75252,1,0,0:0:0:0:
16,191,75331,1,0,0:0:0:0:
23,226,75410,1,0,0:0:0:0:
44,255,75489,2,2,L|112:247,1,50,10|0,0:2|0:0,0:1:0:0:
201,269,75647,6,2,B|51:240|146:151|0:126,1,259.999988098145,4|0,0:2|0:0,0:1:0:0:
155,369,76121,2,2,L|301:352,1,129.999994049073,8|0,0:0|0:0,0:1:0:0:
432,189,76436,5,2,0:2:0:0:
449,225,76515,1,0,0:0:0:0:
465,260,76594,1,0,0:0:0:0:
481,295,76673,1,0,0:0:0:0:
497,330,76752,2,2,L|351:313,1,129.999994049073,10|0,0:2|0:0,0:1:0:0:
227,137,77068,5,2,0:2:0:0:
211,172,77147,1,0,0:0:0:0:
195,207,77226,1,0,0:0:0:0:
179,242,77305,1,0,0:0:0:0:
163,277,77384,2,2,L|309:260,1,129.999994049073,10|0,0:2|0:0,0:1:0:0:
471,141,77700,6,2,L|522:149,1,32.4999985122681,10|0,0:1|0:0,0:1:0:0:
366,26,77857,6,2,L|417:34,1,32.4999985122681,10|0,0:1|0:0,0:1:0:0:
248,126,78015,6,2,L|299:134,1,32.4999985122681,10|0,0:1|0:0,0:1:0:0:
200,31,78173,6,2,P|74:33|0:134,1,259.999988098145,6|0,0:1|0:0,0:1:0:0:
119,283,78647,2,2,B|62:314|62:314|-15:291,1,129.999994049073,10|0,0:1|0:0,0:1:0:0:
136,134,78963,5,2,0:2:0:0:
154,172,79042,1,0,0:0:0:0:
192,189,79121,1,0,0:0:0:0:
233,182,79200,1,0,0:0:0:0:
256,147,79279,2,2,B|199:116|199:116|136:134,1,129.999994049073,10|0,0:2|0:0,0:1:0:0:
224,314,79594,5,2,0:2:0:0:
242,352,79673,1,0,0:0:0:0:
280,369,79752,1,0,0:0:0:0:
321,362,79831,1,0,0:0:0:0:
344,327,79910,2,2,B|287:296|287:296|224:314,1,129.999994049073,10|0,0:2|0:0,0:1:0:0:
392,193,80226,5,2,0:2:0:0:
410,231,80305,1,0,0:0:0:0:
448,248,80384,1,0,0:0:0:0:
489,241,80463,1,0,0:0:0:0:
512,206,80542,2,2,B|498:150,1,50,10|0,0:2|0:0,0:1:0:0:
512,37,80700,6,2,B|394:91|394:91|263:52,1,259.999988098145,6|0,0:2|0:0,0:1:0:0:
70,144,81173,2,2,P|64:80|107:6,1,129.999994049073,10|0,0:1|0:0,0:1:0:0:
273,97,81489,5,2,0:2:0:0:
289,139,81568,1,0,0:0:0:0:
271,180,81647,1,0,0:0:0:0:
232,203,81726,1,0,0:0:0:0:
190,189,81805,2,2,P|219:132|296:93,1,129.999994049073,10|0,0:2|0:0,0:1:0:0:
386,260,82121,5,2,0:2:0:0:
376,303,82200,1,0,0:0:0:0:
338,327,82279,1,0,0:0:0:0:
293,325,82357,1,0,0:0:0:0:
266,291,82436,2,2,P|322:259|407:268,1,129.999994049073,10|0,0:2|0:0,0:1:0:0:
469,344,82752,6,2,L|473:399,1,32.4999985122681,10|0,0:1|0:0,0:1:0:0:
396,242,82910,6,2,L|395:285,1,32.4999985122681,10|0,0:1|0:0,0:1:0:0:
512,152,83068,6,2,L|511:195,1,32.4999985122681,10|0,0:1|0:0,0:1:0:0:
394,49,83226,6,2,B|311:14|224:55|224:55|138:32,1,259.999988098145,6|0,0:1|0:0,0:1:0:0:
128,177,83700,2,2,L|0:195,1,129.999994049073,10|0,0:1|0:0,0:1:0:0:
209,384,84015,5,0,0:2:0:0:
193,337,84094,1,0,0:0:0:0:
228,304,84173,1,0,0:0:0:0:
214,257,84252,1,0,0:0:0:0:
247,221,84331,2,2,L|118:202,1,129.999994049073,10|0,0:2|0:0,0:1:0:0:
328,14,84647,5,2,0:2:0:0:
312,61,84726,1,0,0:0:0:0:
347,94,84805,1,0,0:0:0:0:
333,141,84884,1,0,0:0:0:0:
366,177,84963,2,2,L|237:196,1,129.999994049073,10|0,0:2|0:0,0:1:0:0:
447,384,85279,5,2,0:2:0:0:
431,337,85357,1,0,0:0:0:0:
466,304,85436,1,0,0:0:0:0:
452,257,85515,1,0,0:0:0:0:
485,221,85594,2,2,L|474:164,1,50,10|0,0:2|0:0,0:1:0:0:
512,80,85752,6,2,B|413:63|413:63|384:18|384:18|280:0,1,259.999988098145,6|0,0:2|0:0,0:1:0:0:
334,176,86226,2,2,B|346:239|346:239|312:319,1,129.999994049073,10|0,0:1|0:0,0:1:0:0:
217,124,86542,5,2,0:2:0:0:
196,170,86621,1,0,0:0:0:0:
147,184,86700,1,0,0:0:0:0:
102,159,86779,1,0,0:0:0:0:
94,110,86857,2,2,B|157:98|157:98|237:132,1,129.999994049073,10|0,0:2|0:0,0:1:0:0:
348,241,87173,5,2,0:2:0:0:
369,287,87252,1,0,0:0:0:0:
418,301,87331,1,0,0:0:0:0:
463,276,87410,1,0,0:0:0:0:
471,227,87489,2,2,B|408:215|408:215|328:249,1,129.999994049073,10|0,0:2|0:0,0:1:0:0:
260,344,87805,6,2,L|258:392,1,32.4999985122681,2|0,0:1|0:1,0:1:0:0:
176,232,87963,6,2,L|178:280,1,32.4999985122681,10|0,0:1|0:1,0:1:0:0:
330,129,88121,6,2,L|328:177,1,32.4999985122681,10|0,0:1|0:1,0:1:0:0:
222,34,88279,6,2,B|104:86|104:86|-21:-8,1,259.999988098145,6|0,0:1|0:0,0:1:0:0:
33,238,88752,2,2,L|12:381,1,129.999994049073,10|0,0:1|0:0,0:1:0:0:
154,170,89068,5,2,0:2:0:0:
190,211,89147,1,0,0:0:0:0:
157,254,89226,1,0,0:0:0:0:
171,307,89305,1,0,0:0:0:0:
127,338,89384,2,2,L|143:209,1,129.999994049073,10|0,0:2|0:0,0:1:0:0:
321,208,89700,5,2,0:2:0:0:
285,249,89779,1,0,0:0:0:0:
318,292,89857,1,0,0:0:0:0:
304,345,89936,1,0,0:0:0:0:
348,376,90015,2,2,L|332:247,1,129.999994049073,10|0,0:2|0:0,0:1:0:0:
476,185,90331,5,2,0:2:0:0:
512,226,90410,1,0,0:0:0:0:
479,269,90489,1,0,0:0:0:0:
493,322,90568,1,0,0:0:0:0:
449,353,90647,2,2,L|457:287,1,50,10|0,0:2|0:0,0:1:0:0:
312,207,90805,6,2,B|450:186|351:80|525:66,1,259.999988098145,6|0,0:2|0:0,0:1:0:0:
299,114,91279,2,2,L|153:92,1,129.999994049073,10|0,0:0|0:0,0:1:0:0:
70,5,91594,5,10,0:1:0:0:
24,28,91673,5,8,0:0:0:0:
5,79,91752,5,8,0:0:0:0:
30,138,91831,5,8,0:0:0:0:
96,150,91910,5,10,0:1:0:0:
146,205,91989,5,8,0:0:0:0:
140,282,92068,5,8,0:0:0:0:
73,330,92147,5,8,0:0:0:0:
1,267,92226,6,0,B|48:258|48:258|70:236|70:236|127:226,1,137.5,6|0,1:2|0:0,2:0:0:0:
139,214,93173,6,2,B|124:299|193:272|175:364,1,150.000005722046,10|0,0:0|0:0,2:1:0:0:
168,370,93489,6,0,L|335:346,1,150.000005722046,6|0,1:2|1:0,0:0:0:0:
316,348,94121,2,0,L|465:327,1,150.000005722046,8|0,0:2|1:0,0:0:0:0:
512,190,94752,6,0,L|345:166,1,150.000005722046,2|0,1:2|1:0,0:0:0:0:
364,168,95384,2,0,L|197:144,1,150.000005722046,10|0,0:2|1:0,0:0:0:0:
149,45,95857,5,8,0:0:0:0:
80,83,96015,2,0,P|47:138|58:240,1,150.000005722046,2|0,1:2|1:0,0:0:0:0:
149,45,96647,1,10,0:0:0:0:
217,83,96805,2,0,P|250:138|239:240,1,150.000005722046,0|0,1:0|1:0,0:0:0:0:
184,274,97279,5,8,0:0:0:0:
164,278,97357,1,8,0:0:0:0:
314,370,97594,1,8,0:0:0:0:
294,374,97673,1,8,0:0:0:0:
376,247,97910,1,8,0:0:0:0:
376,247,97989,1,8,0:0:0:0:
376,247,98068,1,8,0:0:0:0:
376,247,98147,1,8,0:0:0:0:
376,247,98226,2,0,L|318:257,2,37.5000014305115,8|8|8,0:3|0:3|0:3,0:0:0:0:
479,304,98542,6,0,P|492:236|461:155,1,150.000005722046,6|0,1:2|1:0,0:0:0:0:
466,161,99173,2,0,P|453:229|484:310,1,150.000005722046,10|0,0:0|1:0,0:0:0:0:
346,156,99805,6,0,P|359:88|328:7,1,150.000005722046,2|0,1:2|1:0,0:0:0:0:
333,13,100436,2,0,P|320:81|351:162,1,150.000005722046,10|0,0:0|1:0,0:0:0:0:
437,239,100910,5,8,0:0:0:0:
364,266,101068,2,0,L|195:249,1,150.000005722046,2|0,1:2|1:0,0:0:0:0:
346,155,101700,1,10,0:0:0:0:
273,128,101857,2,0,L|104:145,1,150.000005722046,0|0,1:0|1:0,0:0:0:0:
60,93,102331,5,2,1:0:0:0:
109,294,102489,1,8,0:0:0:0:
0,350,102647,1,8,0:0:0:0:
231,110,102963,5,2,1:0:0:0:
280,311,103121,1,8,0:0:0:0:
171,367,103279,1,8,0:0:0:0:
390,277,103594,6,0,L|215:260,2,170.000003242493,6|8|0,1:2|0:2|1:0,0:0:0:0:
449,325,104384,1,0,1:0:0:0:
505,273,104542,2,0,P|514:231|501:179,1,85.0000016212464,8|0,0:2|1:0,0:0:0:0:
437,93,104857,5,2,0:2:0:0:
437,93,105015,1,0,0:0:0:0:
325,115,105173,1,8,0:2:0:0:
325,115,105331,1,0,0:0:0:0:
367,33,105489,1,2,0:2:0:0:
367,33,105647,1,0,0:0:0:0:
394,174,105805,1,8,0:2:0:0:
394,174,105963,1,0,0:0:0:0:
246,72,106121,6,0,P|178:49|71:55,1,170.000003242493,2|8,0:2|0:2,0:0:0:0:
11,84,106594,1,0,0:0:0:0:
116,129,106752,2,0,P|113:160|94:226,1,85.0000016212464,2|0,0:2|0:0,0:0:0:0:
209,107,107068,2,0,P|206:76|187:10,1,85.0000016212464,8|0,0:2|0:0,0:0:0:0:
291,156,107384,5,2,0:2:0:0:
362,182,107542,1,0,0:0:0:0:
435,165,107700,1,8,0:2:0:0:
486,110,107857,1,0,0:0:0:0:
466,250,108015,5,8,2:2:0:0:
435,226,108094,1,8,2:2:0:0:
400,202,108173,1,8,2:2:0:0:
362,182,108252,1,8,2:2:0:0:
321,169,108331,1,8,2:2:0:0:
278,162,108410,1,8,2:2:0:0:
235,161,108489,1,8,2:2:0:0:
192,167,108568,1,8,2:2:0:0:
125,225,108647,6,2,L|142:393,1,150.000005722046,10|0,0:1|0:0,0:1:0:0:
387,225,108963,2,2,L|370:393,1,150.000005722046,10|0,0:1|0:0,0:1:0:0:
97,203,109279,2,2,L|114:371,1,155.000001182556,10|0,0:1|0:1,0:1:0:0:
415,203,109594,2,2,L|398:371,1,155.000001182556,10|0,0:1|0:1,0:1:0:0:
69,181,109910,2,2,L|86:349,1,160,10|0,0:1|0:1,0:1:0:0:
443,181,110226,2,2,L|426:349,1,160,10|0,0:1|0:1,0:1:0:0:
41,159,110542,2,2,L|58:327,1,165.000001573563,10|0,0:1|0:1,0:1:0:0:
471,159,110857,2,2,L|454:327,1,165.000001573563,10|0,0:1|0:1,0:1:0:0:
167,232,111173,5,10,0:0:0:0:
345,152,111331,1,10,0:0:0:0:
311,357,111489,6,2,P|206:358|123:386,1,170.000003242493,10|0,0:0|0:0,0:1:0:0:
201,27,111805,2,2,P|306:26|389:-2,1,170.000003242493,10|0,0:0|0:0,0:1:0:0:
0,135,112121,5,10,0:0:0:0:
512,249,112279,1,10,0:0:0:0:
254,342,113384,6,0,L|251:370,1,18.7500007152558,8|0,3:2|0:0,0:0:0:0:
254,342,113700,6,0,P|180:326|105:324,1,150.000005722046,2|0,1:2|3:0,0:0:0:0:
180,363,114173,1,2,0:2:0:0:
180,363,114331,2,0,P|106:378|32:380,1,150.000005722046,0|0,3:0|3:0,0:0:0:0:
184,206,114963,5,2,1:2:0:0:
184,206,115121,2,0,P|191:167|193:119,1,75.0000028610231,0|0,1:0|3:0,0:0:0:0:
304,247,115436,2,0,P|266:260|224:283,1,75.0000028610231,2|0,0:2|3:0,0:0:0:0:
279,122,115752,2,0,P|310:148|350:173,1,75.0000028610231,0|0,1:0|3:0,0:0:0:0:
459,127,116068,6,0,L|450:93,2,25.0000009536744,2|0|0,1:2|0:0|0:0,0:0:0:0:
465,144,116226,2,0,B|484:73|428:75|450:-1,1,150.000005722046,2|0,1:2|3:0,0:0:0:0:
418,75,116700,1,2,0:0:0:0:
418,75,116857,2,0,P|385:80|261:57,1,150.000005722046,0|0,3:2|3:0,0:0:0:0:
85,0,117489,5,2,1:2:0:0:
85,0,117647,1,0,1:0:0:0:
27,101,117805,2,0,L|120:76,1,75.0000028610231,2|0,3:2|0:0,0:0:0:0:
19,255,118121,2,0,L|-6:162,1,75.0000028610231,2|0,3:2|1:0,0:0:0:0:
173,263,118436,2,0,L|80:288,1,75.0000028610231,2|0,3:2|0:0,0:0:0:0:
207,146,118752,6,0,B|292:142|256:94|345:90,1,150.000005722046,2|0,1:2|3:0,0:0:0:0:
291,165,119226,1,2,0:0:0:0:
291,165,119384,2,0,B|384:163|340:211|431:219,1,150.000005722046,0|0,3:0|3:0,0:0:0:0:
231,363,120015,5,2,1:2:0:0:
231,363,120173,2,0,P|277:354|315:352,1,75.0000028610231,0|0,1:0|3:0,0:0:0:0:
189,226,120489,2,0,P|173:270|156:304,1,75.0000028610231,2|0,0:2|3:0,0:0:0:0:
328,258,120805,2,0,P|297:222|276:190,1,75.0000028610231,0|0,1:0|3:0,0:0:0:0:
284,73,121121,6,0,L|272:35,2,25.0000009536744,2|0|0,1:2|0:0|0:0,0:0:0:0:
300,91,121279,2,0,B|380:79|342:32|438:19,1,150.000005722046,2|0,1:2|3:0,0:0:0:0:
386,86,121752,1,2,0:0:0:0:
386,86,121910,2,0,P|419:128|431:232,1,150.000005722046,0|0,3:0|3:0,0:0:0:0:
232,264,122542,5,2,1:2:0:0:
321,299,122700,1,0,1:0:0:0:
226,382,122857,2,0,L|216:289,1,75.0000028610231,2|0,3:2|0:0,0:0:0:0:
100,175,123173,5,2,3:2:0:0:
0,204,123331,1,0,1:0:0:0:
105,291,123489,2,0,L|115:198,1,75.0000028610231,2|0,3:2|0:0,0:0:0:0:
170,33,123805,6,0,B|88:69|88:69|0:48,1,179.999994506836,6|8,1:2|0:0,0:0:0:0:
177,143,124279,1,2,1:2:0:0:
177,143,124436,2,0,L|281:136,1,89.9999972534181,0|0,0:2|1:0,0:0:0:0:
149,239,124752,2,0,L|238:232,1,89.9999972534181,10|0,0:2|1:0,0:0:0:0:
453,285,125068,5,2,0:0:0:0:
402,356,125226,1,0,1:0:0:0:
366,276,125384,1,8,0:0:0:0:
504,214,125542,5,2,1:2:0:0:
352,286,125700,1,0,1:0:0:0:
280,134,125857,1,0,1:0:0:0:
432,62,126015,1,8,0:0:0:0:
374,125,126331,6,0,L|178:90,1,179.999994506836,2|8,1:2|0:0,0:0:0:0:
67,115,126805,1,2,1:2:0:0:
67,115,126963,2,0,B|60:70|60:70|85:29,1,89.9999972534181,0|0,2:2|1:0,0:0:0:0:
179,176,127279,2,0,B|202:137|202:137|196:93,1,89.9999972534181,8|0,0:2|1:0,0:0:0:0:
9,225,127594,5,0,1:2:0:0:
9,225,127752,1,0,1:0:0:0:
219,304,127910,5,10,0:2:0:0:
219,304,128068,1,0,1:0:0:0:
179,176,128226,5,2,1:2:0:0:
113,381,128384,1,0,1:0:0:0:
324,335,128542,1,8,0:0:0:0:
397,382,128857,6,0,P|412:325|381:199,1,179.999994506836,2|8,1:2|0:0,0:0:0:0:
328,339,129331,1,2,1:2:0:0:
328,339,129489,2,0,P|289:343|234:324,1,89.9999972534181,0|0,0:0|1:0,0:0:0:0:
211,161,129805,2,0,P|172:156|117:176,1,89.9999972534181,8|0,0:0|1:0,0:0:0:0:
22,240,130121,5,8,0:0:0:0:
50,98,130279,1,8,0:3:0:0:
490,144,130594,5,8,0:0:0:0:
462,286,130752,1,4,0:3:0:0:
120,4,131068,5,10,0:1:0:0:
401,41,131226,1,10,0:1:0:0:
120,4,131384,1,10,0:1:0:0:
401,41,131542,1,10,0:1:0:0:
51,100,131700,1,10,0:1:0:0:
315,160,132015,6,2,P|389:144|463:135,1,150,10|0,0:0|0:0,0:1:0:0:
476,116,132331,5,10,0:0:0:0:
504,295,132489,1,10,0:0:0:0:
36,116,132805,5,10,0:0:0:0:
8,295,132963,1,10,0:0:0:0:
270,147,133279,5,10,0:0:0:0:
218,164,133357,1,8,0:0:0:0:
218,219,133436,1,8,0:0:0:0:
270,236,133515,1,8,0:0:0:0:
302,191,133594,2,2,L|97:166,1,200,2|2,0:0|0:3,0:1:0:0:
0,366,134857,6,2,L|185:351,1,150,10|0,0:0|0:0,0:1:0:0:
180,373,135173,5,0,0:0:0:0:
182,351,135252,1,0,0:0:0:0:
184,329,135331,1,0,0:0:0:0:
187,307,135410,1,0,0:0:0:0:
189,286,135489,1,0,0:0:0:0:
192,264,135568,1,0,0:0:0:0:
194,242,135647,1,0,0:0:0:0:
197,220,135726,1,0,0:0:0:0:
199,199,135805,1,0,0:0:0:0:
201,177,135884,1,0,0:0:0:0:
204,155,135963,1,0,0:0:0:0:
206,133,136042,1,0,0:0:0:0:
209,112,136121,1,0,0:0:0:0:
211,90,136200,1,0,0:0:0:0:
214,68,136279,1,0,0:0:0:0:
216,46,136357,1,0,0:0:0:0:
219,25,136436,6,0,L|244:88,1,59.9999981689454,14|0,0:1|0:0,0:0:0:0:
270,150,136594,2,0,L|295:213,3,59.9999981689454,4|0|0|0,1:3|0:0|0:0|0:0,0:0:0:0:
246,270,136910,6,0,L|178:260,1,59.9999981689454,10|0,0:0|0:0,0:0:0:0:
112,251,137068,2,0,L|44:241,3,59.9999981689454,4|0|0|0,0:3|0:0|0:0|0:0,0:0:0:0:
20,170,137384,6,0,L|62:116,1,59.9999981689454,10|0,0:0|0:0,0:0:0:0:
103,63,137542,2,0,L|145:9,1,59.9999981689454,4|0,0:3|0:0,0:0:0:0:
245,36,137700,6,0,L|252:103,1,59.9999981689454,10|0,0:0|0:0,0:0:0:0:
261,169,137857,2,0,L|268:236,3,59.9999981689454,4|0|0|0,0:3|0:0|0:0|0:0,0:0:0:0:
207,279,138173,6,0,L|144:252,1,59.9999981689454,10|0,0:0|0:0,0:0:0:0:
83,226,138331,2,0,L|20:199,3,59.9999981689454,4|0|0|0,0:3|0:0|0:0|0:0,0:0:0:0:
15,124,138647,6,0,L|69:83,1,59.9999981689454,10|0,0:0|0:0,0:0:0:0:
123,42,138805,2,0,L|177:1,1,59.9999981689454,4|0,0:3|0:0,0:0:0:0:
267,52,138963,6,0,L|257:119,1,59.9999981689454,10|0,0:0|0:0,0:0:0:0:
248,185,139121,2,0,L|238:252,3,59.9999981689454,4|0|0|0,0:3|0:0|0:0|0:0,0:0:0:0:
167,277,139436,6,0,L|113:234,1,59.9999981689454,10|0,0:0|0:0,0:0:0:0:
61,194,139594,2,0,L|7:151,3,59.9999981689454,4|0|0|0,0:3|0:0|0:0|0:0,0:0:0:0:
22,78,139910,6,0,L|84:53,1,59.9999981689454,10|0,0:0|0:0,0:0:0:0:
147,26,140068,2,0,L|210:1,1,59.9999981689454,4|0,0:3|0:0,0:0:0:0:
322,76,140226,6,2,B|391:92|391:92|478:52,1,139.999995727539,10|0,0:0|0:0,0:1:0:0:
331,154,140463,1,4,0:3:0:0:
331,154,140542,2,2,B|400:170|400:170|487:130,1,139.999995727539,10|0,0:1|0:0,0:1:0:0:
340,232,140779,1,4,0:3:0:0:
340,232,140857,2,2,B|409:248|409:248|496:208,1,139.999995727539,10|0,0:1|0:0,0:1:0:0:
349,310,141094,1,4,0:3:0:0:
349,310,141173,2,2,B|418:326|418:326|505:286,1,139.999995727539,10|0,0:0|0:0,0:1:0:0:
307,117,141489,6,0,L|234:107,1,64.9999970245363,14|0,0:0|0:0,0:0:0:0:
169,94,141647,2,0,L|96:84,3,64.9999970245363,4|0|0|0,0:3|0:0|0:0|0:0,0:0:0:0:
51,141,141963,6,0,L|78:209,1,64.9999970245363,10|0,0:0|0:0,0:0:0:0:
100,272,142121,2,0,L|127:340,3,64.9999970245363,4|0|0|0,0:3|0:0|0:0|0:0,0:0:0:0:
199,350,142436,6,0,L|244:291,1,64.9999970245363,10|0,0:0|0:0,0:0:0:0:
288,242,142594,2,0,L|333:183,1,64.9999970245363,4|0,0:3|0:0,0:0:0:0:
273,97,142752,6,0,L|199:106,1,64.9999970245363,10|0,0:0|0:0,0:0:0:0:
133,110,142910,2,0,L|59:119,3,64.9999970245363,4|0|0|0,0:3|0:0|0:0|0:0,0:0:0:0:
31,186,143226,6,0,L|75:244,1,64.9999970245363,10|0,0:0|0:0,0:0:0:0:
113,300,143384,2,0,L|157:358,3,64.9999970245363,4|0|0|0,0:3|0:0|0:0|0:0,0:0:0:0:
228,350,143700,6,0,L|256:282,1,64.9999970245363,10|0,0:0|0:0,0:0:0:0:
286,222,143857,2,0,L|314:154,1,64.9999970245363,4|0,0:3|0:0,0:0:0:0:
233,85,144015,6,0,L|164:112,1,64.9999970245363,10|0,0:0|0:0,0:0:0:0:
102,134,144173,2,0,L|33:161,3,64.9999970245363,4|0|0|0,0:3|0:0|0:0|0:0,0:0:0:0:
23,234,144489,6,0,L|81:279,1,64.9999970245363,10|0,0:1|0:0,0:0:0:0:
131,323,144647,2,0,L|189:368,3,64.9999970245363,4|0|0|0,0:3|0:0|0:0|0:0,0:0:0:0:
255,341,144963,6,0,L|265:268,1,64.9999970245363,8|0,0:1|0:0,0:0:0:0:
278,203,145121,2,0,L|288:129,1,64.9999970245363,4|0,0:3|0:0,0:0:0:0:
172,42,145279,6,2,B|98:57|98:57|16:18,1,150.000005722046,10|0,0:0|0:0,0:1:0:0:
163,127,145515,1,4,0:3:0:0:
163,127,145594,2,2,B|89:142|89:142|7:103,1,150.000005722046,10|0,0:0|0:0,0:1:0:0:
154,212,145831,1,4,0:3:0:0:
154,212,145910,2,2,B|80:227|80:227|-2:188,1,150.000005722046,10|0,0:0|0:0,0:1:0:0:
145,297,146147,1,4,0:3:0:0:
145,297,146226,2,2,B|71:312|71:312|-11:273,1,150.000005722046,10|0,0:0|0:0,0:1:0:0:
261,103,146542,5,14,0:0:0:0:
290,122,146621,1,0,0:0:0:0:
323,131,146700,1,0,0:0:0:0:
358,128,146779,1,0,0:0:0:0:
390,114,146857,1,0,0:0:0:0:
415,90,146936,1,0,0:0:0:0:
432,59,147015,5,10,0:0:0:0:
396,55,147094,1,0,0:0:0:0:
363,65,147173,1,0,0:0:0:0:
335,84,147252,1,0,0:0:0:0:
314,113,147331,1,0,0:0:0:0:
303,146,147410,1,0,0:0:0:0:
305,180,147489,5,10,0:1:0:0:
318,185,147568,1,0,0:0:0:0:
331,189,147647,1,0,0:0:0:0:
343,194,147726,1,0,0:0:0:0:
356,197,147805,5,10,0:0:0:0:
378,232,147884,1,0,0:0:0:0:
376,273,147963,1,0,0:0:0:0:
355,309,148042,1,0,0:0:0:0:
317,328,148121,1,0,0:0:0:0:
275,321,148200,1,0,0:0:0:0:
249,287,148279,5,10,0:0:0:0:
274,254,148357,1,0,0:0:0:0:
281,212,148436,1,0,0:0:0:0:
258,176,148515,1,0,0:0:0:0:
216,167,148594,1,0,0:0:0:0:
177,184,148673,1,0,0:0:0:0:
159,222,148752,5,10,0:0:0:0:
165,234,148831,1,0,0:0:0:0:
171,246,148910,1,0,0:0:0:0:
177,258,148989,1,0,0:0:0:0:
183,270,149068,5,10,0:0:0:0:
165,312,149147,1,0,0:0:0:0:
128,339,149226,1,0,0:0:0:0:
82,343,149305,1,0,0:0:0:0:
41,322,149384,1,0,0:0:0:0:
17,282,149463,1,0,0:0:0:0:
18,236,149542,5,10,0:0:0:0:
55,261,149621,1,0,0:0:0:0:
100,264,149700,1,0,0:0:0:0:
141,242,149779,1,0,0:0:0:0:
164,202,149857,1,0,0:0:0:0:
162,156,149936,1,0,0:0:0:0:
137,118,150015,5,10,0:0:0:0:
131,130,150094,1,0,0:0:0:0:
125,143,150173,1,0,0:0:0:0:
119,155,150252,1,0,0:0:0:0:
112,167,150331,5,10,0:1:0:0:
95,136,150410,1,0,0:0:0:0:
78,105,150489,1,0,0:0:0:0:
61,74,150568,1,0,0:0:0:0:
157,82,150647,5,10,0:1:0:0:
188,65,150726,1,0,0:0:0:0:
219,48,150805,1,0,0:0:0:0:
250,31,150884,1,0,0:0:0:0:
242,127,150963,5,10,0:1:0:0:
259,158,151042,1,0,0:0:0:0:
276,189,151121,1,0,0:0:0:0:
293,220,151200,1,0,0:0:0:0:
197,212,151279,5,10,0:1:0:0:
166,229,151357,1,0,0:0:0:0:
135,246,151436,1,0,0:0:0:0:
104,263,151515,1,0,0:0:0:0:
27,259,151594,5,14,0:1:0:0:
54,262,151673,1,0,0:0:0:0:
82,275,151752,1,0,0:0:0:0:
101,297,151831,1,0,0:0:0:0:
112,325,151910,1,0,0:0:0:0:
116,355,151989,1,0,0:0:0:0:
108,384,152068,5,10,0:1:0:0:
85,364,152147,1,0,0:0:0:0:
67,339,152226,1,0,0:0:0:0:
63,309,152305,1,0,0:0:0:0:
64,278,152384,1,0,0:0:0:0:
78,251,152463,1,0,0:0:0:0:
99,230,152542,5,10,0:0:0:0:
112,232,152621,1,0,0:0:0:0:
125,234,152700,1,0,0:0:0:0:
138,237,152779,1,0,0:0:0:0:
151,239,152857,5,10,0:0:0:0:
189,232,152936,1,0,0:0:0:0:
210,199,153015,1,0,0:0:0:0:
210,160,153094,1,0,0:0:0:0:
190,126,153173,1,0,0:0:0:0:
153,113,153252,1,0,0:0:0:0:
115,122,153331,5,10,0:0:0:0:
149,138,153410,1,0,0:0:0:0:
187,135,153489,1,0,0:0:0:0:
215,109,153568,1,0,0:0:0:0:
229,73,153647,1,0,0:0:0:0:
214,37,153726,1,0,0:0:0:0:
181,16,153805,5,10,0:0:0:0:
169,23,153884,1,0,0:0:0:0:
157,31,153963,1,0,0:0:0:0:
145,38,154042,1,0,0:0:0:0:
133,46,154121,5,10,0:0:0:0:
88,26,154200,1,0,0:0:0:0:
39,31,154279,1,0,0:0:0:0:
14,72,154357,1,0,0:0:0:0:
16,120,154436,1,0,0:0:0:0:
53,151,154515,1,0,0:0:0:0:
102,151,154594,5,10,0:0:0:0:
138,117,154673,1,0,0:0:0:0:
187,117,154752,1,0,0:0:0:0:
223,149,154831,1,0,0:0:0:0:
225,197,154910,1,0,0:0:0:0:
193,234,154989,1,0,0:0:0:0:
144,241,155068,5,10,0:0:0:0:
137,228,155147,1,0,0:0:0:0:
131,214,155226,1,0,0:0:0:0:
125,201,155305,1,0,0:0:0:0:
119,187,155384,5,10,0:0:0:0:
102,225,155463,1,0,0:0:0:0:
85,263,155542,1,0,0:0:0:0:
68,300,155621,1,0,0:0:0:0:
157,300,155700,5,10,0:0:0:0:
187,327,155779,1,0,0:0:0:0:
218,355,155857,1,0,0:0:0:0:
249,383,155936,1,0,0:0:0:0:
275,298,156015,5,10,0:0:0:0:
310,277,156094,1,0,0:0:0:0:
346,257,156173,1,0,0:0:0:0:
382,236,156252,1,0,0:0:0:0:
309,185,156331,5,10,0:0:0:0:
300,145,156410,1,0,0:0:0:0:
292,104,156489,1,0,0:0:0:0:
283,64,156568,1,0,0:0:0:0:
206,110,156647,6,0,L|119:99,1,64.9999970245363,14|0,0:0|0:0,0:0:0:0:
64,140,156805,2,0,L|-22:129,3,64.9999970245363,4|0|0|0,0:3|0:0|0:0|0:0,0:0:0:0:
90,250,157121,6,0,L|177:239,1,64.9999970245363,10|0,0:0|0:0,0:0:0:0:
232,273,157279,2,0,L|318:262,3,64.9999970245363,4|0|0|0,0:3|0:0|0:0|0:0,0:0:0:0:
378,372,157594,5,10,0:0:0:0:
371,333,157673,1,0,0:0:0:0:
381,295,157752,1,0,0:0:0:0:
411,270,157831,1,0,0:0:0:0:
447,257,157910,6,0,L|523:301,1,64.9999970245363,10|0,0:0|0:0,0:0:0:0:
423,169,158068,2,0,L|347:125,3,64.9999970245363,4|0|0|0,0:3|0:0|0:0|0:0,0:0:0:0:
269,198,158384,6,0,L|193:154,1,64.9999970245363,10|0,0:0|0:0,0:0:0:0:
293,286,158542,2,0,L|369:330,3,64.9999970245363,4|0|0|0,0:3|0:0|0:0|0:0,0:0:0:0:
207,384,158857,6,0,L|191:282,1,64.9999970245363,10|0,0:0|0:0,0:0:0:0:
128,246,159015,2,0,L|112:144,1,64.9999970245363,8|0,0:0|0:0,0:0:0:0:
70,88,159173,6,0,B|39:95|39:95|5:93,1,64.9999970245363,10|0,0:0|0:0,0:0:0:0:
143,15,159331,2,0,B|174:8|174:8|208:10,3,64.9999970245363,4|0|0|0,0:3|0:0|0:0|0:0,0:0:0:0:
266,149,159647,6,0,B|235:156|235:156|201:154,1,64.9999970245363,10|0,0:0|0:0,0:0:0:0:
339,73,159805,2,0,B|370:66|370:66|404:68,3,64.9999970245363,4|0|0|0,0:3|0:0|0:0|0:0,0:0:0:0:
507,143,160121,5,10,0:0:0:0:
498,181,160200,1,0,0:0:0:0:
489,219,160279,1,0,0:0:0:0:
480,257,160357,1,0,0:0:0:0:
471,295,160436,6,2,P|405:315|322:251,1,160,10|0,0:0|0:0,0:1:0:0:
413,217,160673,1,4,0:3:0:0:
413,217,160752,2,2,P|347:237|264:173,1,160,10|0,0:0|0:0,0:1:0:0:
355,139,160989,1,4,0:3:0:0:
355,139,161068,2,2,P|289:159|206:95,1,160,10|0,0:0|0:0,0:1:0:0:
297,61,161305,1,4,0:3:0:0:
297,61,161384,2,2,P|231:81|148:17,1,160,10|0,0:0|0:0,0:1:0:0:
9,133,161700,6,0,L|15:256,1,69.9999978637696,14|0,0:0|0:0,0:0:0:0:
43,288,161857,2,0,L|49:411,3,69.9999978637696,4|0|0|0,0:3|0:0|0:0|0:0,0:0:0:0:
132,222,162173,6,0,L|255:216,1,69.9999978637696,10|0,0:0|0:0,0:0:0:0:
287,188,162331,2,0,L|410:182,3,69.9999978637696,4|0|0|0,0:3|0:0|0:0|0:0,0:0:0:0:
461,249,162647,5,10,0:0:0:0:
480,211,162726,1,0,0:0:0:0:
485,169,162805,1,0,0:0:0:0:
471,129,162884,1,0,0:0:0:0:
442,98,162963,6,0,L|319:92,1,69.9999978637696,10|0,0:0|0:0,0:0:0:0:
303,39,163121,2,0,L|180:33,3,69.9999978637696,4|0|0|0,0:3|0:0|0:0|0:0,0:0:0:0:
110,98,163436,6,0,L|113:28,1,69.9999978637696,10|0,0:0|0:0,0:0:0:0:
210,169,163594,2,0,L|206:238,3,69.9999978637696,4|0|0|0,0:3|0:0|0:0|0:0,0:0:0:0:
152,343,163910,5,10,0:0:0:0:
117,366,163989,1,0,0:0:0:0:
75,373,164068,1,0,0:0:0:0:
34,360,164147,1,0,0:0:0:0:
10,325,164226,6,0,L|6:249,1,69.9999978637696,10|0,0:1|0:0,0:0:0:0:
23,156,164384,2,0,L|19:80,3,69.9999978637696,4|0|0|0,0:3|0:0|0:0|0:0,0:0:0:0:
125,212,164700,6,0,B|154:210|154:210|163:212|163:212|194:210,1,69.9999978637696,10|0,0:0|0:0,0:0:0:0:
283,229,164857,2,0,B|312:227|312:227|321:229|321:229|352:227,3,69.9999978637696,4|0|0|0,0:3|0:0|0:0|0:0,0:0:0:0:
485,326,165173,6,0,L|481:250,1,69.9999978637696,10|0,0:0|0:0,0:0:0:0:
498,157,165331,2,0,L|494:81,1,69.9999978637696,4|0,0:3|0:0,0:0:0:0:
383,30,165489,5,10,0:0:0:0:
356,66,165568,1,0,0:0:0:0:
317,89,165647,1,0,0:0:0:0:
272,97,165726,1,0,0:0:0:0:
320,176,165805,5,10,0:0:0:0:
274,183,165884,1,0,0:0:0:0:
230,174,165963,1,0,0:0:0:0:
192,147,166042,1,0,0:0:0:0:
171,237,166121,5,10,0:0:0:0:
134,211,166200,1,0,0:0:0:0:
108,172,166279,1,0,0:0:0:0:
100,127,166357,1,0,0:0:0:0:
22,177,166436,5,10,0:0:0:0:
14,132,166515,1,0,0:0:0:0:
22,87,166594,1,0,0:0:0:0:
47,48,166673,1,0,0:0:0:0:
85,25,166752,6,0,B|106:33|128:28|128:28|161:50|210:43|210:43|253:69|324:73|383:38|383:38|323:72|331:127|331:127|288:82|242:79|195:100|195:100|181:72|147:64,1,629.999980773926,14|2,1:1|0:2,2:0:0:0:
82,108,173699,5,2,2:3:0:0:
29,161,174015,1,2,2:3:0:0:
9,233,174330,1,2,2:3:0:0:
30,304,174646,1,2,2:3:0:0:
87,351,174962,1,2,2:3:0:0:
160,355,175278,1,2,2:3:0:0:
219,313,175594,1,2,2:3:0:0:
237,242,175909,1,2,2:3:0:0:
202,177,176225,1,2,2:3:0:0:
131,154,176541,1,2,2:3:0:0:
65,189,176857,1,2,2:3:0:0:
46,261,177173,1,2,2:3:0:0:
88,321,177488,1,2,2:3:0:0:
162,326,177804,1,2,2:3:0:0:
206,266,178120,1,2,2:3:0:0:
183,196,178436,1,2,2:3:0:0:
111,178,178752,1,2,2:3:0:0:
27,272,179067,5,8,0:3:0:0:
146,343,179225,1,4,0:3:0:0:
315,296,179383,1,8,0:0:0:0:
346,81,179541,1,4,0:3:0:0:
251,12,179699,5,8,2:0:0:0:
217,49,179778,1,8,2:0:0:0:
170,66,179857,1,8,2:0:0:0:
120,59,179936,1,8,2:0:0:0:
79,29,180015,5,6,0:2:0:0:
47,113,180172,1,0,0:0:0:0:
131,144,180330,1,0,0:0:0:0:
217,122,180488,1,10,2:2:0:0:
240,208,180646,1,0,0:0:0:0:
153,231,180804,1,0,1:0:0:0:
67,209,180962,1,10,2:2:0:0:
44,295,181120,1,0,0:0:0:0:
131,318,181278,1,2,1:1:0:0:
378,362,181593,5,2,1:2:0:0:
289,377,181751,1,0,0:0:0:0:
321,293,181909,1,0,0:0:0:0:
410,278,182067,1,10,2:2:0:0:
353,209,182225,1,0,2:0:0:0:
264,224,182383,1,0,1:0:0:0:
296,140,182541,1,10,2:2:0:0:
385,125,182699,1,0,0:0:0:0:
328,57,182857,5,2,1:0:0:0:
353,209,183015,1,8,2:0:0:0:
207,155,183172,5,2,1:2:0:0:
175,239,183330,1,0,0:2:0:0:
87,254,183488,1,0,0:2:0:0:
31,186,183646,1,10,2:2:0:0:
119,171,183804,1,0,0:2:0:0:
175,239,183962,1,0,1:2:0:0:
143,323,184120,1,10,2:2:0:0:
87,254,184278,1,0,0:2:0:0:
175,239,184436,1,2,1:1:0:0:
271,92,184751,5,2,1:2:0:0:
300,175,184908,1,0,0:2:0:0:
329,258,185066,1,0,0:2:0:0:
412,229,185224,1,10,2:2:0:0:
495,200,185382,1,0,0:2:0:0:
466,117,185540,1,0,1:2:0:0:
383,146,185698,1,10,2:2:0:0:
412,229,185856,1,0,0:2:0:0:
495,200,186014,5,2,1:1:0:0:
300,175,186172,1,10,2:2:0:0:
437,34,186329,1,2,1:1:0:0:
219,0,186645,5,2,1:2:0:0:
142,47,186803,1,0,0:2:0:0:
52,33,186961,1,0,0:2:0:0:
70,121,187119,1,10,2:2:0:0:
160,135,187277,1,0,0:2:0:0:
237,88,187435,1,0,1:2:0:0:
254,176,187593,1,10,2:2:0:0:
177,223,187751,1,0,0:2:0:0:
87,209,187909,1,2,1:1:0:0:
0,356,188224,5,2,1:2:0:0:
86,380,188382,1,0,0:2:0:0:
172,357,188540,1,0,0:2:0:0:
235,295,188698,1,10,2:2:0:0:
150,272,188856,1,0,0:2:0:0:
87,209,189014,1,0,1:2:0:0:
63,122,189172,1,10,2:2:0:0:
150,144,189330,1,0,0:2:0:0:
126,57,189488,5,2,1:1:0:0:
87,209,189646,1,8,0:2:0:0:
237,166,189803,5,2,1:2:0:0:
324,187,189961,1,0,0:2:0:0:
411,208,190119,1,0,0:2:0:0:
385,122,190277,1,10,0:2:0:0:
324,187,190435,1,0,0:2:0:0:
262,251,190593,1,0,1:2:0:0:
350,273,190751,1,10,0:2:0:0:
324,187,190909,1,0,0:2:0:0:
299,101,191067,1,2,1:1:0:0:
512,64,191382,5,2,1:2:0:0:
444,123,191539,1,0,0:2:0:0:
427,35,191697,1,0,0:2:0:0:
341,6,191855,1,10,0:2:0:0:
360,95,192013,1,0,0:2:0:0:
427,35,192171,1,0,1:2:0:0:
274,66,192329,5,10,0:1:0:0:
274,66,192487,1,8,0:3:0:0:
379,184,192645,5,10,0:1:0:0:
379,184,192803,1,8,0:2:0:0:
224,215,192960,5,8,0:2:0:0:
179,206,193039,1,8,0:2:0:0:
134,197,193118,1,8,0:2:0:0:
89,188,193197,1,8,0:2:0:0:
44,179,193276,5,6,1:1:0:0:
134,118,193434,1,0,0:0:0:0:
37,71,193592,1,0,0:0:0:0:
197,4,193750,5,10,0:1:0:0:
155,116,193908,1,0,0:0:0:0:
273,97,194066,1,0,1:0:0:0:
345,194,194224,5,10,0:1:0:0:
282,79,194382,1,0,0:0:0:0:
413,81,194540,1,2,1:1:0:0:
495,301,194855,5,2,1:1:0:0:
388,272,195013,1,0,0:0:0:0:
338,370,195171,1,0,0:0:0:0:
276,237,195329,5,10,0:1:0:0:
179,308,195487,1,0,0:0:0:0:
79,240,195645,1,0,1:0:0:0:
0,334,195803,5,10,0:1:0:0:
0,334,195961,1,0,0:0:0:0:
80,147,196119,5,2,1:1:0:0:
122,384,196277,1,10,0:0:0:0:
203,300,196434,5,2,1:0:0:0:
310,322,196592,1,0,0:0:0:0:
417,344,196750,1,0,0:0:0:0:
312,225,196908,5,10,2:1:0:0:
197,248,197066,1,0,0:0:0:0:
83,272,197224,1,0,1:0:0:0:
199,148,197382,5,10,0:1:0:0:
321,173,197540,1,0,0:0:0:0:
444,198,197698,1,2,1:0:0:0:
242,12,198013,5,2,1:0:0:0:
181,103,198170,1,0,0:0:0:0:
90,42,198328,1,0,0:0:0:0:
269,94,198486,5,10,0:1:0:0:
335,193,198644,1,0,0:0:0:0:
434,127,198802,1,0,1:0:0:0:
247,179,198960,5,10,2:1:0:0:
247,179,199118,1,0,0:0:0:0:
376,55,199276,5,2,1:0:0:0:
349,305,199434,1,10,0:0:0:0:
262,362,199591,5,8,0:0:0:0:
218,336,199670,1,8,0:0:0:0:
171,321,199749,1,8,0:0:0:0:
121,316,199828,1,8,0:0:0:0:
72,322,199909,5,6,1:0:0:0:
155,237,200066,1,0,0:0:0:0:
39,208,200224,1,0,0:0:0:0:
196,124,200382,5,10,0:1:0:0:
171,251,200540,1,0,0:0:0:0:
294,210,200698,1,0,1:0:0:0:
354,325,200856,5,10,0:1:0:0:
308,191,201014,1,0,0:0:0:0:
446,218,201172,1,2,1:0:0:0:
342,27,201487,5,2,1:0:0:0:
238,87,201645,1,0,0:0:0:0:
121,58,201803,1,0,0:0:0:0:
253,104,201961,5,10,2:1:0:0:
135,159,202119,1,0,0:0:0:0:
102,284,202277,1,0,1:0:0:0:
30,200,202435,5,10,0:1:0:0:
30,200,202593,1,0,0:0:0:0:
219,269,202751,5,2,1:0:0:0:
0,324,202909,1,10,0:2:0:0:
138,382,203066,5,2,1:0:0:0:
94,270,203224,1,0,0:0:0:0:
142,160,203382,1,0,0:0:0:0:
247,320,203540,5,10,2:1:0:0:
232,192,203698,1,0,0:0:0:0:
312,91,203856,1,0,1:0:0:0:
372,273,204014,5,10,0:1:0:0:
392,138,204172,1,0,0:0:0:0:
501,56,204330,1,2,1:0:0:0:
256,2,204645,5,10,3:1:0:0:
234,40,204723,1,8,3:3:0:0:
196,65,204802,1,8,3:3:0:0:
151,71,204881,1,8,3:3:0:0:
106,66,204960,2,0,P|77:50|29:35,1,50,8|0,3:3|3:0,2:0:0:0:
244,143,205118,5,10,3:1:0:0:
266,181,205197,1,4,3:3:0:0:
304,206,205276,1,4,3:3:0:0:
349,212,205355,1,4,3:3:0:0:
394,207,205434,2,0,P|423:191|471:176,1,50,4|0,3:3|3:0,0:0:0:0:
229,265,205592,5,10,0:1:0:0:
365,311,205750,1,2,0:2:0:0:
142,382,205908,5,2,1:1:0:0:
274,350,206066,1,2,1:2:0:0:
19,264,206223,5,10,0:1:0:0:
150,303,206381,1,0,1:2:0:0:
101,231,206540,6,0,L|86:148,2,75.0000028610231,2|0|0,1:2|0:0|0:0,0:0:0:0:
150,303,207013,2,0,L|229:331,2,75.0000028610231,2|0|0,0:2|0:0|0:0,0:0:0:0:
63,309,207487,2,0,L|-1:363,2,75.0000028610231,2|0|0,2:0|0:0|0:2,0:0:0:0:
354,140,208118,6,2,L|329:137,1,20,2|0,3:1|0:0,0:1:0:0:
246,201,208434,5,0,1:0:0:0:
241,195,208592,1,0,0:0:0:0:
243,187,208750,1,0,0:0:0:0:
252,183,208908,1,0,0:0:0:0:
259,188,209066,1,0,0:0:0:0:
258,196,209224,1,0,0:0:0:0:
249,200,209382,1,0,0:0:0:0:
239,194,209540,1,0,0:0:0:0:
238,180,209698,1,0,0:0:0:0:
248,169,209856,1,0,0:0:0:0:
264,169,210013,1,0,0:0:0:0:
274,183,210171,1,0,0:0:0:0:
268,200,210329,1,0,0:0:0:0:
248,206,210487,1,0,0:0:0:0:
228,194,210645,1,0,0:0:0:0:
222,168,210803,1,0,0:0:0:0:
237,142,210961,1,0,0:0:0:0:
268,132,211119,1,0,0:0:0:0:
299,147,211277,1,0,0:0:0:0:
313,180,211435,1,0,0:0:0:0:
299,216,211592,1,0,0:0:0:0:
261,235,211750,1,0,0:0:0:0:
214,220,211908,1,0,0:0:0:0:
110,67,212066,5,8,0:0:0:0:
91,67,212145,1,8,0:0:0:0:
79,82,212224,1,8,0:0:0:0:
86,101,212303,1,8,0:0:0:0:
110,108,212382,1,8,0:0:0:0:
132,94,212461,1,8,0:0:0:0:
139,64,212540,1,8,0:0:0:0:
122,34,212619,1,8,0:0:0:0:
86,23,212698,1,8,0:0:0:0:
50,40,212777,1,8,0:0:0:0:
35,79,212856,1,8,0:0:0:0:
50,120,212935,1,8,0:0:0:0:
94,142,213013,1,8,0:0:0:0:
149,127,213092,1,8,0:0:0:0:
175,74,213171,2,2,L|191:-2,1,59.9999981689454,4|0,1:3|0:0,0:1:0:0:
266,145,213329,6,2,B|399:191|399:191|517:107,1,279.999991455078,14|0,0:1|0:0,0:1:0:0:
369,288,213803,2,0,L|510:270,1,139.999995727539,10|0,0:0|0:0,0:0:0:0:
262,384,214119,2,0,B|250:336|250:336|255:303|255:303|240:244,1,139.999995727539,2|0,0:0|0:0,0:0:0:0:
405,67,214435,1,10,0:2:0:0:
254,116,214592,2,2,B|100:109|151:14|-9:16,1,279.999991455078,2|0,0:1|0:0,0:0:0:0:
138,197,215066,2,0,L|-3:215,1,139.999995727539,10|0,0:0|0:0,0:0:0:0:
260,384,215382,5,10,0:0:0:0:
273,313,215461,1,8,0:0:0:0:
286,242,215540,1,8,0:0:0:0:
299,171,215619,1,8,0:0:0:0:
312,100,215698,2,2,L|330:195,1,69.9999978637696,10|0,0:2|0:0,0:0:0:0:
461,345,215856,6,2,P|377:300|149:283,1,279.999991455078,6|0,0:2|0:0,0:1:0:0:
5,309,216329,1,10,0:0:0:0:
5,309,216487,1,0,0:0:0:0:
142,377,216645,1,2,0:0:0:0:
5,309,216803,1,0,0:0:0:0:
195,275,216961,1,10,0:0:0:0:
30,174,217119,1,2,0:2:0:0:
30,174,217198,1,2,0:2:0:0:
30,174,217277,2,0,P|17:105|45:38,1,139.999995727539,2|0,0:1|0:0,0:0:0:0:
283,162,217592,2,0,B|222:154|222:154|200:164|200:164|133:155,1,139.999995727539,10|0,0:0|0:0,0:0:0:0:
362,0,217908,5,10,0:0:0:0:
373,47,217987,1,0,0:0:0:0:
420,60,218066,1,0,0:3:0:0:
422,109,218145,1,0,0:0:0:0:
465,134,218224,2,2,L|473:217,1,50,10|0,0:2|0:0,0:0:0:0:
512,308,218382,6,2,B|344:294|420:199|268:190,1,279.999991455078,6|0,0:1|0:0,0:1:0:0:
80,365,218856,2,0,P|152:345|227:339,1,139.999995727539,10|0,0:0|0:0,0:0:0:0:
216,338,219092,1,0,0:0:0:0:
216,338,219171,1,2,0:0:0:0:
30,258,219329,1,0,0:0:0:0:
170,126,219487,1,10,0:2:0:0:
226,348,219645,2,2,P|342:368|466:271,1,279.999991455078,2|0,0:1|0:0,0:1:0:0:
243,203,220119,2,0,B|291:190|291:190|310:166|310:166|367:149,1,139.999995727539,10|0,0:0|0:0,0:0:0:0:
106,3,220435,5,10,0:0:0:0:
130,75,220513,1,8,0:0:0:0:
100,146,220592,1,8,0:0:0:0:
121,219,220671,1,8,0:0:0:0:
80,284,220750,2,2,B|46:289|46:289|14:271,1,69.9999978637696,10|0,0:2|0:0,0:0:0:0:
211,117,220908,6,2,B|370:63|324:167|485:117,1,279.999991455078,6|0,0:2|0:0,0:1:0:0:
288,214,221382,1,10,0:0:0:0:
288,214,221540,1,0,0:0:0:0:
493,292,221698,1,2,0:0:0:0:
309,357,221856,1,0,0:0:0:0:
395,180,222013,1,10,0:0:0:0:
267,45,222171,1,2,0:2:0:0:
267,45,222250,1,2,0:2:0:0:
267,45,222329,2,0,P|191:36|125:10,1,139.999995727539,2|0,0:0|0:0,0:0:0:0:
185,351,222645,2,0,P|261:360|327:386,1,139.999995727539,10|0,0:0|0:0,0:0:0:0:
92,195,222961,5,10,0:0:0:0:
83,250,223040,1,0,0:0:0:0:
71,205,223119,1,0,0:0:0:0:
64,235,223198,1,0,0:0:0:0:
49,214,223277,2,2,B|28:210|28:210|16:212|16:212|-16:206,1,50,10|0,0:2|0:0,0:0:0:0:
165,104,223435,6,2,B|265:86|265:86|314:24|314:24|434:7,1,279.999991455078,14|0,0:1|0:0,0:1:0:0:
322,197,223908,1,10,0:0:0:0:
322,197,224066,1,0,0:0:0:0:
512,231,224224,1,2,0:0:0:0:
372,341,224382,1,0,0:0:0:0:
454,98,224540,1,10,0:2:0:0:
245,129,224698,2,2,B|77:112|182:22|-9:21,1,279.999991455078,2|0,0:1|0:0,0:0:0:0:
132,225,225171,2,0,B|77:239|77:239|60:259|60:259|-16:278,1,139.999995727539,10|0,0:0|0:0,0:0:0:0:
280,378,225487,5,10,0:0:0:0:
230,318,225566,1,8,0:0:0:0:
220,240,225645,1,8,0:0:0:0:
255,170,225724,1,8,0:0:0:0:
322,129,225803,2,2,L|420:156,1,69.9999978637696,10|0,0:2|0:0,0:0:0:0:
512,90,225961,6,2,B|333:86|431:10|253:-1,1,279.999991455078,6|0,0:2|0:0,0:1:0:0:
51,102,226435,1,10,0:0:0:0:
51,102,226592,1,0,0:0:0:0:
255,170,226750,1,2,0:0:0:0:
46,227,226908,1,0,0:0:0:0:
166,23,227066,1,10,0:0:0:0:
302,278,227224,1,2,0:2:0:0:
302,278,227303,1,2,0:2:0:0:
302,278,227382,2,0,P|361:299|450:297,1,139.999995727539,2|0,0:1|0:0,0:0:0:0:
154,362,227698,2,0,P|84:361|18:383,1,139.999995727539,10|0,0:0|0:0,0:0:0:0:
333,151,228013,5,10,0:0:0:0:
351,200,228092,1,0,0:0:0:0:
363,150,228171,1,0,0:0:0:0:
381,193,228250,1,0,0:0:0:0:
394,145,228329,2,2,L|410:202,1,50,10|0,0:2|0:0,0:0:0:0:
512,70,228487,6,2,B|377:113|377:113|240:36,1,279.999991455078,6|0,0:1|0:0,0:1:0:0:
66,181,228961,2,0,P|63:116|111:38,1,139.999995727539,10|0,0:0|0:0,0:0:0:0:
96,50,229198,1,0,0:0:0:0:
96,50,229277,1,2,0:0:0:0:
226,207,229435,1,0,0:0:0:0:
34,313,229592,1,10,0:2:0:0:
253,383,229750,2,2,B|367:363|367:363|404:317|404:317|521:297,1,279.999991455078,2|0,0:1|0:0,0:1:0:0:
413,208,230224,1,10,0:0:0:0:
505,127,230382,1,0,0:0:0:0:
343,19,230540,5,10,0:0:0:0:
322,96,230619,1,8,0:0:0:0:
262,149,230698,1,8,0:0:0:0:
182,160,230777,1,8,0:0:0:0:
109,125,230856,2,2,L|129:56,1,69.9999978637696,10|0,0:2|0:0,0:0:0:0:
206,17,231013,6,2,P|84:27|44:188,1,279.999991455078,6|0,0:2|0:0,0:1:0:0:
256,288,231487,1,10,0:0:0:0:
256,288,231645,1,0,0:0:0:0:
117,370,231803,1,2,0:0:0:0:
180,192,231961,1,0,0:0:0:0:
391,375,232119,1,10,0:0:0:0:
332,192,232277,1,0,0:0:0:0:
493,248,232435,6,2,P|485:182|485:108,1,139.999995727539,10|0,0:1|0:0,0:0:0:0:
19,136,232750,2,2,P|27:202|26:275,1,139.999995727539,2|8,0:0|0:0,0:0:0:0:
410,19,233066,5,2,0:1:0:0:
256,192,233224,1,2,0:2:0:0:
102,19,233382,1,10,0:2:0:0:
331,267,233540,6,2,B|248:246|248:246|230:203|230:203|103:173,1,225.000008583069,14|0,0:1|0:0,0:1:0:0:
258,134,233856,5,2,0:1:0:0:
274,175,233935,1,0,0:0:0:0:
258,216,234013,1,8,0:0:0:0:
218,236,234092,1,0,0:0:0:0:
193,273,234171,1,0,0:0:0:0:
192,318,234250,1,0,0:0:0:0:
221,351,234329,1,2,0:0:0:0:
264,361,234408,1,0,0:0:0:0:
302,337,234487,1,0,0:0:0:0:
316,294,234566,1,0,0:0:0:0:
296,253,234645,1,8,0:0:0:0:
303,208,234724,1,0,0:0:0:0:
339,181,234803,1,0,0:0:0:0:
383,185,234882,1,0,0:0:0:0:
411,219,234961,1,2,0:0:0:0:
447,246,235040,1,0,0:0:0:0:
491,236,235119,1,0,0:0:0:0:
511,196,235198,1,0,0:0:0:0:
500,152,235277,1,8,0:0:0:0:
458,134,235356,1,0,0:0:0:0:
417,153,235435,1,0,0:0:0:0:
403,195,235513,1,0,0:0:0:0:
363,216,235592,1,2,0:0:0:0:
318,208,235671,1,0,0:0:0:0:
291,171,235750,1,0,0:0:0:0:
299,126,235829,1,0,0:0:0:0:
329,94,235908,2,2,L|419:72,1,59.9999981689454,8|0,0:0|0:0,0:1:0:0:
228,23,236066,6,2,P|121:35|77:134,1,225.000008583069,6|0,0:2|0:0,0:1:0:0:
11,202,236382,5,2,0:0:0:0:
55,173,236461,1,0,0:0:0:0:
107,174,236540,1,8,0:0:0:0:
148,205,236619,1,0,0:0:0:0:
159,256,236698,1,0,0:0:0:0:
133,302,236777,1,0,0:0:0:0:
83,318,236856,1,2,0:0:0:0:
31,308,236935,1,0,0:0:0:0:
3,264,237013,1,0,0:0:0:0:
17,213,237092,1,0,0:0:0:0:
66,195,237171,1,8,0:0:0:0:
113,218,237250,1,0,0:0:0:0:
125,269,237329,1,0,0:0:0:0:
168,299,237408,1,0,0:0:0:0:
220,296,237487,1,2,0:0:0:0:
252,254,237566,1,0,0:0:0:0:
255,201,237645,1,0,0:0:0:0:
223,159,237724,1,0,0:0:0:0:
171,149,237803,1,8,0:0:0:0:
137,108,237882,1,0,0:0:0:0:
150,57,237961,1,0,0:0:0:0:
196,33,238040,1,0,0:0:0:0:
240,44,238119,6,2,P|273:42|319:19,1,64.9999970245363,8|0,0:0|0:0,0:0:0:0:
265,166,238277,2,2,P|267:199|290:245,1,64.9999970245363,4|0,0:3|0:0,0:0:0:0:
143,191,238435,2,2,P|109:193|63:216,1,64.9999970245363,8|0,0:0|0:0,0:0:0:0:
252,75,238592,6,2,B|391:73|325:3|493:4,1,225.000008583069,6|0,0:2|0:0,0:1:0:0:
371,92,238908,5,2,0:0:0:0:
415,72,238987,1,0,0:0:0:0:
461,87,239066,1,8,0:0:0:0:
475,133,239145,1,0,0:0:0:0:
455,177,239224,1,0,0:0:0:0:
408,193,239303,1,0,0:0:0:0:
363,173,239382,1,2,0:0:0:0:
314,178,239461,1,0,0:0:0:0:
285,217,239540,1,0,0:0:0:0:
279,265,239619,1,0,0:0:0:0:
309,302,239698,1,8,0:0:0:0:
355,317,239777,1,0,0:0:0:0:
401,302,239856,1,0,0:0:0:0:
425,259,239935,1,0,0:0:0:0:
415,211,240013,1,2,0:0:0:0:
372,186,240092,1,0,0:0:0:0:
325,202,240171,1,0,0:0:0:0:
307,247,240250,1,0,0:0:0:0:
332,288,240329,1,8,0:0:0:0:
379,299,240408,1,0,0:0:0:0:
411,262,240487,1,0,0:0:0:0:
401,214,240566,1,0,0:0:0:0:
352,205,240645,1,2,0:0:0:0:
321,243,240724,1,0,0:0:0:0:
347,283,240803,1,0,0:0:0:0:
394,272,240882,1,0,0:0:0:0:
395,227,240961,2,2,L|373:168,1,59.9999981689454,8|0,0:0|0:0,0:1:0:0:
286,98,241119,6,2,B|180:132|180:132|78:74,1,225.000008583069,6|0,0:2|0:0,0:1:0:0:
91,181,241435,5,2,0:0:0:0:
37,195,241513,1,0,0:0:0:0:
9,243,241592,1,8,0:0:0:0:
14,299,241671,1,0,0:0:0:0:
56,336,241750,1,0,0:0:0:0:
112,340,241829,1,0,0:0:0:0:
156,306,241908,1,2,0:0:0:0:
167,250,241987,1,0,0:0:0:0:
143,198,242066,1,0,0:0:0:0:
96,166,242145,1,0,0:0:0:0:
84,110,242224,1,8,0:0:0:0:
113,62,242303,1,0,0:0:0:0:
167,48,242382,1,0,0:0:0:0:
220,65,242461,1,0,0:0:0:0:
243,116,242540,1,2,0:0:0:0:
225,169,242619,1,0,0:0:0:0:
178,200,242698,1,0,0:0:0:0:
158,252,242777,1,0,0:0:0:0:
173,306,242856,1,8,0:0:0:0:
218,339,242935,1,0,0:0:0:0:
273,339,243013,1,0,0:0:0:0:
323,313,243092,1,0,0:0:0:0:
342,263,243171,6,10,B|331:220|331:220|336:194|336:194|318:118,1,129.999994049073,10|0,0:0|0:0,0:0:0:0:
322,136,243408,1,8,0:0:0:0:
322,136,243487,1,2,0:1:0:0:
509,104,243645,6,2,B|423:87|423:87|397:54|397:54|281:30,1,225.000008583069,14|0,0:0|0:0,0:1:0:0:
244,114,243961,5,2,0:0:0:0:
214,80,244040,1,0,0:0:0:0:
170,69,244119,1,8,0:0:0:0:
127,82,244198,1,0,0:0:0:0:
97,116,244277,1,0,0:0:0:0:
91,160,244356,1,0,0:0:0:0:
115,197,244435,1,2,0:0:0:0:
154,217,244513,1,0,0:0:0:0:
198,219,244592,1,0,0:0:0:0:
234,192,244671,1,0,0:0:0:0:
250,150,244750,1,8,0:0:0:0:
228,110,244829,1,0,0:0:0:0:
184,95,244908,1,0,0:0:0:0:
144,116,244987,1,0,0:0:0:0:
139,160,245066,1,2,0:0:0:0:
171,190,245145,1,0,0:0:0:0:
215,183,245224,1,0,0:0:0:0:
237,144,245303,1,0,0:0:0:0:
234,99,245382,1,8,0:0:0:0:
256,59,245461,1,0,0:0:0:0:
299,49,245540,1,0,0:0:0:0:
341,63,245619,1,0,0:0:0:0:
363,101,245698,1,2,0:0:0:0:
355,145,245777,1,0,0:0:0:0:
317,171,245856,1,0,0:0:0:0:
271,169,245935,1,0,0:0:0:0:
246,134,246013,2,2,L|226:56,1,59.9999981689454,8|0,0:0|0:0,0:1:0:0:
136,18,246171,6,2,P|31:42|0:145,1,225.000008583069,6|0,0:2|0:0,0:1:0:0:
64,211,246487,5,2,0:0:0:0:
106,180,246566,1,0,0:0:0:0:
157,185,246645,1,8,0:0:0:0:
192,223,246724,1,0,0:0:0:0:
188,275,246803,1,0,0:0:0:0:
218,317,246882,1,0,0:0:0:0:
269,328,246961,1,2,0:0:0:0:
315,303,247040,1,0,0:0:0:0:
327,252,247119,1,0,0:0:0:0:
300,206,247198,1,0,0:0:0:0:
307,154,247277,1,8,0:0:0:0:
347,120,247356,1,0,0:0:0:0:
398,122,247435,1,0,0:0:0:0:
438,155,247513,1,0,0:0:0:0:
440,207,247592,1,2,0:0:0:0:
414,251,247671,1,0,0:0:0:0:
363,264,247750,1,0,0:0:0:0:
318,236,247829,1,0,0:0:0:0:
265,233,247908,1,8,0:0:0:0:
226,268,247987,1,0,0:0:0:0:
218,317,248066,1,0,0:0:0:0:
251,357,248145,1,0,0:0:0:0:
301,366,248224,6,2,L|399:343,1,64.9999970245363,8|0,0:0|0:0,0:1:0:0:
469,321,248382,2,2,L|483:384,1,64.9999970245363,4|0,0:3|0:0,0:1:0:0:
430,217,248540,2,2,L|493:202,1,64.9999970245363,8|0,0:0|0:0,0:1:0:0:
294,223,248698,6,2,B|165:215|234:137|102:126,1,225.000008583069,6|0,0:2|0:0,0:1:0:0:
194,50,249013,5,2,0:0:0:0:
203,98,249092,1,0,0:0:0:0:
234,135,249171,1,8,0:0:0:0:
282,148,249250,1,0,0:0:0:0:
332,146,249329,1,0,0:0:0:0:
366,109,249408,1,0,0:0:0:0:
380,60,249487,1,2,0:0:0:0:
422,33,249566,1,0,0:0:0:0:
471,33,249645,1,0,0:0:0:0:
505,68,249724,1,0,0:0:0:0:
512,118,249803,1,8,0:0:0:0:
481,158,249882,1,0,0:0:0:0:
431,166,249961,1,0,0:0:0:0:
385,145,250040,1,0,0:0:0:0:
373,95,250119,1,2,0:0:0:0:
401,54,250198,1,0,0:0:0:0:
451,55,250277,1,0,0:0:0:0:
480,96,250356,1,0,0:0:0:0:
460,142,250435,1,8,0:0:0:0:
409,149,250513,1,0,0:0:0:0:
381,107,250592,1,0,0:0:0:0:
334,86,250671,1,0,0:0:0:0:
286,102,250750,1,2,0:0:0:0:
263,146,250829,1,0,0:0:0:0:
270,195,250908,1,0,0:0:0:0:
307,228,250987,1,0,0:0:0:0:
352,236,251066,2,2,L|410:206,1,59.9999981689454,8|0,0:0|0:0,0:1:0:0:
255,74,251224,6,2,B|182:48|114:94|114:94|36:66,1,225.000008583069,6|0,0:2|0:0,0:1:0:0:
73,190,251540,5,2,0:2:0:0:
73,190,251619,1,0,0:2:0:0:
73,190,251698,2,0,L|-34:213,3,75.0000028610231,10|0|0|0,0:1|0:0|0:0|0:0,0:0:0:0:
142,286,252013,2,0,L|35:309,3,75.0000028610231,10|0|0|0,0:0|0:0|0:0|0:0,0:0:0:0:
216,108,252329,1,10,0:2:0:0:
216,108,252408,1,2,0:2:0:0:
216,108,252487,2,0,L|109:131,3,75.0000028610231,10|0|0|0,0:0|0:0|0:0|0:0,0:0:0:0:
295,313,252803,2,0,L|188:336,3,75.0000028610231,10|0|0|0,0:0|0:0|0:0|0:0,0:0:0:0:
368,145,253119,1,10,0:2:0:0:
368,145,253198,1,2,0:2:0:0:
368,145,253277,2,0,L|294:160,3,75.0000028610231,10|0|0|0,0:0|0:0|0:0|0:0,0:0:0:0:
489,16,253592,5,10,0:0:0:0:
457,91,253671,5,10,0:2:0:0:
495,166,253750,5,10,0:1:0:0:
452,243,253829,5,10,0:2:0:0:
512,311,253908,6,2,B|352:234|344:371|193:299,2,320,14|8|0,0:0|0:0|0:0,0:1:0:0:
491,384,254698,1,0,0:0:0:0:
348,272,254856,2,0,B|334:225|334:225|345:185|345:185|326:109,1,139.999995727539,8|0,0:0|0:0,0:0:0:0:
0,117,255171,6,2,P|114:112|168:11,1,240,2|0,0:0|0:0,0:1:0:0:
164,112,255487,2,0,B|178:159|178:159|167:199|167:199|186:275,1,139.999995727539,8|0,0:0|0:0,0:0:0:0:
354,341,255803,5,2,0:0:0:0:
333,335,255882,1,0,0:0:0:0:
362,327,255961,1,0,0:0:0:0:
341,321,256040,1,0,0:0:0:0:
370,313,256119,2,0,L|280:295,1,59.9999981689454,10|0,0:2|0:0,0:0:0:0:
136,213,256277,6,2,P|273:177|397:171,1,240,6|0,0:2|0:0,0:1:0:0:
438,131,256592,2,0,P|477:143|538:172,1,80,2|0,0:0|0:0,0:0:0:0:
277,36,256750,2,2,B|314:95|301:189|222:181|200:275|244:353,2,340.000006484985,10|0|0,0:0|0:0|0:0,0:0:0:0:
432,329,257540,6,0,P|262:257|99:255,1,320,6|0,0:2|0:0,0:0:0:0:
141,75,258013,2,0,P|71:78|9:109,1,139.999995727539,10|0,0:2|0:0,0:0:0:0:
190,344,258329,2,0,P|127:375|58:378,1,139.999995727539,2|0,0:2|0:0,0:0:0:0:
248,142,258645,5,8,0:0:0:0:
248,142,258803,1,0,0:0:0:0:
177,249,258961,5,6,0:0:0:0:
163,251,259040,1,0,0:0:0:0:
149,253,259119,1,0,0:0:0:0:
135,255,259198,1,0,0:0:0:0:
121,257,259277,1,8,0:0:0:0:
107,259,259356,1,0,0:0:0:0:
93,261,259435,1,0,0:0:0:0:
79,263,259513,1,0,0:0:0:0:
98,175,259592,5,2,0:0:0:0:
84,177,259671,1,0,0:0:0:0:
70,179,259750,1,0,0:0:0:0:
56,181,259829,1,0,0:0:0:0:
42,183,259908,1,8,0:0:0:0:
28,185,259987,1,0,0:0:0:0:
14,187,260066,1,0,0:0:0:0:
0,189,260145,1,0,0:0:0:0:
21,98,260224,5,2,0:0:0:0:
30,79,260303,1,0,0:0:0:0:
40,96,260382,1,0,0:0:0:0:
47,76,260461,1,0,0:0:0:0:
64,87,260540,1,8,0:0:0:0:
64,65,260619,1,0,0:0:0:0:
83,73,260698,1,0,0:0:0:0:
80,52,260777,1,0,0:0:0:0:
169,81,260856,5,2,0:0:0:0:
178,100,260935,1,0,0:0:0:0:
188,83,261013,1,0,0:0:0:0:
195,103,261092,1,0,0:0:0:0:
212,92,261171,1,8,0:0:0:0:
212,114,261250,1,0,0:0:0:0:
231,106,261329,1,0,0:0:0:0:
228,127,261408,1,0,0:0:0:0:
321,94,261487,5,2,0:0:0:0:
353,105,261566,1,0,0:0:0:0:
383,90,261645,1,0,0:0:0:0:
393,58,261724,1,0,0:0:0:0:
378,27,261803,1,8,0:0:0:0:
346,17,261882,1,0,0:0:0:0:
315,32,261961,1,0,0:0:0:0:
303,64,262040,1,0,0:0:0:0:
222,39,262119,5,2,0:0:0:0:
215,70,262198,1,0,0:0:0:0:
188,88,262277,1,0,0:0:0:0:
155,84,262356,1,0,0:0:0:0:
134,56,262435,1,8,0:0:0:0:
141,23,262513,1,0,0:0:0:0:
169,5,262592,1,0,0:0:0:0:
203,7,262671,1,0,0:0:0:0:
266,65,262750,6,2,B|242:173|242:173|268:242|268:242|241:375,2,320,6|8|0,0:2|0:0|0:0,0:1:0:0:
335,1,263540,1,0,0:0:0:0:
390,226,263698,2,2,P|454:230|510:193,1,129.999994049073,10|0,0:2|0:0,0:0:0:0:
243,45,264013,5,6,0:0:0:0:
230,47,264092,1,0,0:0:0:0:
217,49,264171,1,0,0:0:0:0:
204,50,264250,1,0,0:0:0:0:
249,126,264329,5,10,0:1:0:0:
262,128,264408,1,0,0:0:0:0:
275,130,264487,1,0,0:0:0:0:
288,131,264566,1,0,0:0:0:0:
226,203,264645,5,2,0:1:0:0:
213,205,264724,1,0,0:0:0:0:
200,207,264803,1,0,0:0:0:0:
187,208,264882,1,0,0:0:0:0:
242,283,264961,5,10,0:1:0:0:
255,285,265040,1,0,0:0:0:0:
268,287,265119,1,0,0:0:0:0:
281,288,265198,1,0,0:0:0:0:
209,362,265277,5,2,0:1:0:0:
184,370,265356,1,0,0:0:0:0:
158,375,265435,1,0,0:0:0:0:
132,376,265513,1,0,0:0:0:0:
148,282,265592,5,10,0:1:0:0:
122,275,265671,1,0,0:0:0:0:
98,265,265750,1,0,0:0:0:0:
75,251,265829,1,0,0:0:0:0:
140,181,265908,5,2,0:1:0:0:
122,161,265987,1,0,0:0:0:0:
107,140,266066,1,0,0:0:0:0:
96,115,266145,1,0,0:0:0:0:
188,91,266224,5,10,0:1:0:0:
184,65,266303,1,0,0:0:0:0:
183,39,266382,1,0,0:0:0:0:
187,12,266461,1,0,0:0:0:0:
275,30,266540,5,2,0:1:0:0:
277,37,266619,1,0,0:0:0:0:
279,44,266698,1,0,0:0:0:0:
281,51,266777,1,0,0:0:0:0:
354,89,266856,5,10,0:1:0:0:
356,96,266935,1,0,0:0:0:0:
358,103,267013,1,0,0:0:0:0:
360,110,267092,1,0,0:0:0:0:
416,19,267171,5,2,0:1:0:0:
418,26,267250,1,0,0:0:0:0:
420,33,267329,1,0,0:0:0:0:
422,40,267408,1,0,0:0:0:0:
501,71,267487,5,10,0:1:0:0:
503,78,267566,1,0,0:0:0:0:
505,85,267645,1,0,0:0:0:0:
507,92,267724,1,0,0:0:0:0:
422,40,267803,6,2,B|268:81|268:81|78:12,2,320,6|8|0,0:2|0:0|0:0,0:1:0:0:
382,233,268592,1,2,0:2:0:0:
382,233,268671,1,2,0:2:0:0:
382,233,268750,2,2,B|438:242|438:242|453:266|453:266|520:295,1,150.000005722046,8|0,0:0|0:0,0:0:0:0:
295,96,269066,5,6,0:0:0:0:
267,82,269145,1,0,0:0:0:0:
238,90,269224,1,0,0:0:0:0:
209,78,269303,1,0,0:0:0:0:
180,87,269382,1,8,0:0:0:0:
154,71,269461,1,0,0:0:0:0:
125,76,269540,1,0,0:0:0:0:
99,59,269619,1,0,0:0:0:0:
196,120,269698,5,2,0:0:0:0:
168,106,269777,1,0,0:0:0:0:
139,114,269856,1,0,0:0:0:0:
110,102,269935,1,0,0:0:0:0:
81,111,270013,1,8,0:0:0:0:
55,95,270092,1,0,0:0:0:0:
26,100,270171,1,0,0:0:0:0:
0,83,270250,1,0,0:0:0:0:
100,150,270329,5,2,0:0:0:0:
71,181,270408,1,0,0:0:0:0:
58,222,270487,1,0,0:0:0:0:
63,264,270566,1,0,0:0:0:0:
85,300,270645,1,8,0:0:0:0:
120,324,270724,1,0,0:0:0:0:
162,332,270803,1,0,0:0:0:0:
204,321,270882,1,0,0:0:0:0:
103,345,270961,5,2,0:0:0:0:
138,362,271040,1,0,0:0:0:0:
180,364,271119,1,0,0:0:0:0:
219,348,271198,1,0,0:0:0:0:
249,318,271277,1,8,0:0:0:0:
262,277,271356,1,0,0:0:0:0:
259,236,271435,1,0,0:0:0:0:
238,199,271513,1,0,0:0:0:0:
157,141,271592,5,2,0:0:0:0:
142,143,271671,1,0,0:0:0:0:
127,145,271750,1,0,0:0:0:0:
112,147,271829,1,0,0:0:0:0:
97,149,271908,1,8,0:0:0:0:
82,151,271987,1,0,0:0:0:0:
67,153,272066,1,0,0:0:0:0:
52,155,272145,1,0,0:0:0:0:
112,229,272224,5,2,0:0:0:0:
127,231,272303,1,0,0:0:0:0:
142,233,272382,1,0,0:0:0:0:
157,235,272461,1,0,0:0:0:0:
172,237,272540,1,8,0:0:0:0:
187,239,272619,1,0,0:0:0:0:
202,241,272698,1,0,0:0:0:0:
217,243,272777,1,0,0:0:0:0:
284,304,272856,5,6,0:0:0:0:
229,245,272935,5,0,0:0:0:0:
211,166,273013,5,8,0:0:0:0:
236,89,273092,5,0,0:0:0:0:
297,35,273171,5,2,0:0:0:0:
377,24,273250,5,0,0:0:0:0:
449,58,273329,5,12,0:0:0:0:
489,127,273408,5,0,0:0:0:0:
479,206,273487,5,2,0:0:0:0:
424,262,273566,5,0,0:0:0:0:
345,272,273645,5,8,0:0:0:0:
277,229,273724,5,0,0:0:0:0:
252,152,273803,5,6,0:0:0:0:
282,77,273882,5,0,0:0:0:0:
356,41,273961,5,8,0:0:0:0:
434,64,274040,5,0,0:0:0:0:
472,136,274119,6,0,B|481:155|480:178|480:178|451:98|369:94|369:94|348:131|307:144|307:144|216:7|78:-44|-33:79|79:223|172:134|172:134,1,720.000017578125,14|0,0:1|3:0,2:0:0:0:
39,269,279171,6,0,P|108:248|155:246,1,119.999996337891,2|0,1:2|3:2,0:2:0:0:
227,308,279645,1,2,1:2:0:0:
227,308,279803,2,0,L|222:384,1,59.9999981689454,0|0,1:2|3:2,0:2:0:0:
349,313,280119,2,0,L|345:253,1,59.9999981689454,2|0,0:2|0:2,0:2:0:0:
252,148,280435,5,0,1:2:0:0:
252,148,280592,1,0,3:2:0:0:
333,167,280750,2,0,L|415:155,1,59.9999981689454,2|0,0:2|1:2,0:2:0:0:
252,148,281066,1,2,3:2:0:0:
282,69,281224,1,0,0:2:0:0:
211,23,281382,2,0,L|129:11,1,59.9999981689454,0|0,3:2|0:2,0:2:0:0:
293,77,281698,6,0,P|339:66|434:58,1,119.999996337891,2|0,1:2|3:2,0:2:0:0:
363,149,282171,1,2,1:2:0:0:
363,149,282329,2,0,L|374:218,1,59.9999981689454,0|0,1:2|3:2,0:2:0:0:
466,224,282645,2,0,L|455:155,1,59.9999981689454,2|0,0:2|1:2,0:2:0:0:
345,295,282961,5,2,1:2:0:0:
345,295,283119,1,0,3:2:0:0:
412,353,283277,2,0,P|447:349|471:340,1,59.9999981689454,2|0,0:2|0:2,0:2:0:0:
345,295,283592,2,0,P|316:285|261:280,1,79.9999975585938,2|0,3:2|0:2,0:2:0:0:
252,270,283908,2,0,P|282:264|312:262,1,59.9999981689454,0|0,1:2|0:2,0:2:0:0:
406,189,284224,6,0,P|368:179|275:130,1,119.999996337891,2|0,1:2|3:2,0:2:0:0:
219,79,284698,1,2,1:2:0:0:
219,79,284856,2,0,L|213:4,1,59.9999981689454,0|0,1:2|3:2,0:2:0:0:
121,100,285171,2,0,L|61:104,1,59.9999981689454,2|0,0:2|3:2,0:2:0:0:
210,172,285487,5,0,1:2:0:0:
210,172,285645,1,0,3:2:0:0:
129,212,285803,2,0,L|69:207,1,59.9999981689454,2|0,0:2|1:2,0:2:0:0:
210,172,286119,1,2,3:2:0:0:
212,262,286277,1,0,0:2:0:0:
287,213,286435,2,0,L|346:208,1,59.9999981689454,2|0,3:2|0:2,0:2:0:0:
437,142,286750,6,0,P|456:198|445:256,1,119.999996337891,2|0,1:2|3:2,0:2:0:0:
411,350,287224,1,2,1:2:0:0:
411,350,287382,2,0,P|441:345|484:342,1,59.9999981689454,0|0,1:2|3:2,0:2:0:0:
363,275,287698,2,0,P|333:270|303:267,1,59.9999981689454,2|0,0:2|1:2,0:2:0:0:
191,330,288013,5,2,1:2:0:0:
191,330,288171,1,0,3:2:0:0:
261,375,288329,2,0,P|290:372|320:367,1,59.9999981689454,2|0,0:2|1:2,0:2:0:0:
191,330,288645,1,2,3:2:0:0:
124,381,288803,1,0,0:2:0:0:
58,328,288961,2,0,P|28:323|-1:320,1,59.9999981689454,0|0,3:2|0:2,0:2:0:0:
125,259,289277,6,0,P|147:206|136:138,1,119.999996337891,2|0,1:2|3:2,0:2:0:0:
83,71,289750,1,2,1:2:0:0:
83,71,289908,2,0,L|20:81,1,59.9999981689454,0|0,1:2|3:2,0:2:0:0:
139,145,290224,2,0,L|202:155,1,59.9999981689454,2|0,0:2|1:2,0:2:0:0:
304,95,290540,5,0,1:2:0:0:
304,95,290698,1,0,3:2:0:0:
370,155,290856,2,0,P|370:186|354:240,1,59.9999981689454,2|0,0:2|1:2,0:2:0:0:
304,95,291171,2,0,P|314:44|339:2,1,79.9999975585938,2|0,3:2|0:2,0:2:0:0:
348,14,291487,2,0,L|430:27,1,59.9999981689454,0|0,3:2|0:2,0:2:0:0:
492,98,291803,6,0,P|489:158|471:215,1,119.999996337891,2|0,1:2|3:2,0:2:0:0:
423,303,292277,1,2,1:2:0:0:
423,303,292435,2,0,L|432:373,1,59.9999981689454,0|0,1:2|3:2,0:2:0:0:
325,305,292750,2,0,L|317:245,1,59.9999981689454,2|0,0:2|0:2,0:2:0:0:
241,157,293066,5,2,1:2:0:0:
241,157,293224,1,0,3:2:0:0:
159,194,293382,2,0,P|131:194|91:182,1,59.9999981689454,2|0,0:2|0:2,0:2:0:0:
241,157,293698,1,2,3:2:0:0:
270,242,293856,1,0,0:2:0:0:
352,206,294013,2,0,P|380:198|410:198,1,59.9999981689454,0|0,3:2|0:2,0:2:0:0:
234,135,294329,6,0,B|240:88|206:83|216:38,1,100,6|0,1:2|3:2,0:2:0:0:
158,122,294803,1,2,1:2:0:0:
158,122,294961,2,0,L|92:109,1,50,0|0,1:2|3:2,0:2:0:0:
49,177,295277,2,0,L|-17:164,1,50,2|0,0:2|1:2,0:2:0:0:
114,256,295592,5,0,1:2:0:0:
114,256,295750,1,0,3:2:0:0:
59,313,295908,2,2,L|-12:324,1,50,2|2,0:2|1:2,0:2:0:0:
114,256,296224,1,2,3:2:0:0:
171,311,296382,1,0,0:2:0:0:
230,363,296540,2,0,L|301:352,1,50,0|0,3:2|0:2,0:2:0:0:
383,382,296856,6,0,P|380:329|357:284,1,89.9999972534181,2|0,1:2|3:2,2:2:0:0:
311,237,297329,1,2,1:2:0:0:
311,237,297487,2,0,L|252:228,1,44.999998626709,0|0,1:2|3:2,0:2:0:0:
190,279,297803,2,0,L|131:270,1,44.999998626709,2|0,0:2|1:2,0:2:0:0:
76,202,298119,5,2,1:2:0:0:
76,202,298277,1,0,3:2:0:0:
22,259,298435,2,0,P|12:293|12:315,1,44.999998626709,2|0,0:2|1:2,0:2:0:0:
76,371,298750,2,0,P|104:361|145:360,1,59.9999981689454,2|0,1:2|0:2,0:2:0:0:
150,367,299066,2,0,P|174:375|207:373,1,44.999998626709,0|0,3:2|0:2,0:2:0:0:
268,306,299382,6,0,B|268:263|252:267|257:213,1,80,2|0,1:2|3:2,2:2:0:0:
299,169,299856,1,2,1:2:0:0:
299,169,300013,2,0,L|354:161,1,40,0|0,1:2|3:2,0:2:0:0:
404,201,300329,2,0,L|459:209,1,40,2|0,0:2|1:2,0:2:0:0:
512,121,300645,5,0,1:2:0:0:
512,121,300803,1,0,3:2:0:0:
512,121,300961,2,0,L|499:68,1,40,2|0,0:2|1:2,0:2:0:0:
442,30,301277,2,0,P|412:31|389:21,1,53.3333333333333,2|0,1:2|0:2,0:2:0:0:
379,37,301592,2,0,L|330:45,1,40,0|0,3:2|0:2,0:2:0:0:
249,8,301908,6,0,P|237:40|241:85,1,69.9999978637696,2|0,1:2|3:2,0:2:0:0:
260,150,302382,1,2,1:2:0:0:
260,150,302540,2,0,P|302:140|344:137,1,69.9999978637696,0|0,1:2|3:2,0:2:0:0:
251,239,303171,2,0,P|216:234|182:226,1,69.9999978637696,2|0,1:2|0:2,0:2:0:0:
97,156,303803,2,0,L|93:115,2,34.9999989318848,0|2|0,3:2|0:2|3:2,0:2:0:0:
2,321,304435,5,12,2:2:0:0:
