osu file format v14

[General]
AudioFilename: goodmorning.mp3
AudioLeadIn: 0
PreviewTime: 38239
Countdown: 0
SampleSet: Drum
StackLeniency: 0.7
Mode: 3
LetterboxInBreaks: 0
SpecialStyle: 0
WidescreenStoryboard: 0

[Editor]
DistanceSpacing: 0.8
BeatDivisor: 4
GridSize: 32
TimelineZoom: 1.5

[Metadata]
Title:Ushinahareru Runazuki
TitleUnicode:うしなはれるるなづき
Artist:Marmalade butcher
ArtistUnicode:Marmalade butcher
Creator:Shoegazer
Version:Hard
Source:
Tags:uteruchesis good morning ushinawareru 失われる luna tsuki lunatsuki math rock noise j-rock instrumental jrock wiosna famoss 不可説Records MLBC-0008 Masatomi Waki 眞富脇 Nienu J-Shi J氏 Akihisa Otani 大谷明久 マ肉 maniku
BeatmapID:3171477
BeatmapSetID:1486395

[Difficulty]
HPDrainRate:7.5
CircleSize:4
OverallDifficulty:7.5
ApproachRate:5
SliderMultiplier:1.4
SliderTickRate:1

[Events]
//Background and Video events
0,0,"bg.jpg",0,0
//Break Periods
2,183755,187467
//Storyboard Layer 0 (Background)
//Storyboard Layer 1 (Fail)
//Storyboard Layer 2 (Pass)
//Storyboard Layer 3 (Foreground)
//Storyboard Layer 4 (Overlay)
//Storyboard Sound Samples
Sample,157906,0,"tom01.wav",70

[TimingPoints]
1277,324.324324,4,3,1,30,1,0
2574,-100,4,3,1,37,0,1
13601,324.324324324324,5,3,1,30,1,0
18465,324.324324324324,4,3,1,30,1,0
19762,324.324324324324,6,3,1,30,1,0
20411,324.324324324324,5,3,1,30,1,0
25275,324.324324,4,3,1,30,1,0
26572,324.324324,6,3,1,30,1,0
27221,324.324324324324,4,3,1,30,1,0
27869,324.324324324324,4,3,1,30,1,0
38247,324.324324324324,6,3,1,30,1,0
40192,324.324324,7,3,1,30,1,0
42462,324.324324324324,6,3,1,30,1,0
44407,324.324324,7,3,1,30,1,0
47976,324.324324324324,4,3,1,30,1,0
58354,-100,4,3,1,33,0,1
69705,324.324324324324,4,3,1,30,1,0
74894,-100,4,3,1,37,0,1
80083,324.324324,5,3,1,30,1,0
84948,324.324324324324,4,3,1,30,1,0
95326,-100,4,3,1,37,0,1
105704,-100,4,3,1,25,0,0
131650,324.324324324324,3,3,1,30,1,0
134244,324.324324,3,3,1,30,1,0
136183,242.91498,4,3,1,37,1,1
136183,-133.333333333333,4,3,1,37,0,1
143957,324.324324,4,3,1,20,1,0
151740,-100,4,3,1,30,0,0
154335,324.675325,6,3,1,30,1,0
162776,324.675324675325,3,3,1,37,1,1
164724,324.675324675325,5,3,1,37,1,1
166347,324.675324675325,3,3,1,37,1,1
172191,324.675324675325,5,3,1,37,1,1
173814,324.675324675325,3,3,1,37,1,1
177710,-100,4,3,1,30,0,0
179658,-100,4,3,1,44,0,1
183554,-100,4,3,1,25,0,0

[HitObjects]
64,192,1277,5,2,0:0:0:0:
192,192,1277,1,0,0:0:0:0:
320,192,1439,1,0,0:0:0:0:
448,192,1601,1,0,0:0:0:0:
192,192,1763,1,0,0:0:0:0:
448,192,1925,1,0,0:0:0:0:
320,192,2087,1,0,0:0:0:0:
64,192,2249,1,0,0:0:0:0:
192,192,2249,1,0,0:0:0:0:
320,192,2574,1,12,0:0:0:0:
448,192,2574,1,2,0:0:0:0:
320,192,2736,1,0,0:0:0:0:
192,192,2817,1,12,0:0:0:0:
448,192,2817,1,2,0:0:0:0:
192,192,2979,1,0,0:0:0:0:
64,192,3060,1,12,0:0:0:0:
448,192,3060,1,2,0:0:0:0:
320,192,3222,1,2,0:0:0:0:
192,192,3304,1,0,0:0:0:0:
320,192,3385,1,2,0:0:0:0:
64,192,3547,1,8,0:0:0:0:
448,192,3547,1,0,0:0:0:0:
320,192,3709,1,2,0:0:0:0:
64,192,3871,1,12,0:0:0:0:
192,192,3871,1,2,0:0:0:0:
192,192,4033,1,0,0:0:0:0:
64,192,4114,1,12,0:0:0:0:
320,192,4114,1,2,0:0:0:0:
320,192,4276,1,0,0:0:0:0:
64,192,4358,1,12,0:0:0:0:
448,192,4358,1,2,0:0:0:0:
192,192,4520,1,2,0:0:0:0:
320,192,4601,1,0,0:0:0:0:
192,192,4682,1,8,0:0:0:0:
448,192,4763,1,0,0:0:0:0:
320,192,4844,1,8,0:0:0:0:
192,192,4925,1,0,0:0:0:0:
64,192,5006,1,2,0:0:0:0:
320,192,5168,1,12,0:0:0:0:
448,192,5168,1,2,0:0:0:0:
320,192,5331,1,0,0:0:0:0:
192,192,5412,1,12,0:0:0:0:
448,192,5412,1,2,0:0:0:0:
192,192,5574,1,0,0:0:0:0:
64,192,5655,1,12,0:0:0:0:
448,192,5655,1,2,0:0:0:0:
320,192,5817,1,2,0:0:0:0:
192,192,5898,1,0,0:0:0:0:
320,192,5979,1,2,0:0:0:0:
64,192,6141,1,8,0:0:0:0:
448,192,6141,1,0,0:0:0:0:
320,192,6304,1,2,0:0:0:0:
64,192,6466,1,12,0:0:0:0:
192,192,6466,1,2,0:0:0:0:
192,192,6628,1,0,0:0:0:0:
64,192,6709,1,12,0:0:0:0:
320,192,6709,1,2,0:0:0:0:
320,192,6871,1,0,0:0:0:0:
64,192,6952,1,12,0:0:0:0:
448,192,6952,1,2,0:0:0:0:
192,192,7114,1,8,0:0:0:0:
320,192,7195,1,2,0:0:0:0:
192,192,7276,1,8,0:0:0:0:
320,192,7358,1,2,0:0:0:0:
192,192,7439,1,8,0:0:0:0:
448,192,7520,1,2,0:0:0:0:
64,192,7601,1,8,0:0:0:0:
192,192,7682,1,2,0:0:0:0:
320,192,7763,1,12,0:0:0:0:
448,192,7763,1,2,0:0:0:0:
320,192,7925,1,0,0:0:0:0:
192,192,8006,1,12,0:0:0:0:
448,192,8006,1,2,0:0:0:0:
192,192,8168,1,0,0:0:0:0:
64,192,8249,1,12,0:0:0:0:
448,192,8249,1,2,0:0:0:0:
320,192,8412,1,2,0:0:0:0:
192,192,8493,1,0,0:0:0:0:
320,192,8574,1,2,0:0:0:0:
64,192,8736,1,8,0:0:0:0:
448,192,8736,1,0,0:0:0:0:
320,192,8898,1,2,0:0:0:0:
64,192,9060,1,12,0:0:0:0:
192,192,9060,1,2,0:0:0:0:
192,192,9222,1,0,0:0:0:0:
64,192,9304,1,12,0:0:0:0:
320,192,9304,1,2,0:0:0:0:
320,192,9466,1,0,0:0:0:0:
64,192,9547,1,12,0:0:0:0:
448,192,9547,1,2,0:0:0:0:
192,192,9709,1,2,0:0:0:0:
320,192,9790,1,0,0:0:0:0:
192,192,9871,1,8,0:0:0:0:
448,192,9952,1,0,0:0:0:0:
320,192,10033,1,8,0:0:0:0:
192,192,10114,1,0,0:0:0:0:
64,192,10195,1,2,0:0:0:0:
320,192,10358,1,12,0:0:0:0:
448,192,10358,1,2,0:0:0:0:
320,192,10520,1,0,0:0:0:0:
192,192,10601,1,12,0:0:0:0:
448,192,10601,1,2,0:0:0:0:
192,192,10763,1,0,0:0:0:0:
64,192,10844,1,12,0:0:0:0:
448,192,10844,1,2,0:0:0:0:
320,192,11006,1,2,0:0:0:0:
192,192,11087,1,0,0:0:0:0:
320,192,11168,1,2,0:0:0:0:
64,192,11331,1,8,0:0:0:0:
448,192,11331,1,0,0:0:0:0:
320,192,11493,1,2,0:0:0:0:
64,192,11655,1,6,0:0:0:0:
192,192,11655,1,8,0:0:0:0:
192,192,11817,1,0,0:0:0:0:
64,192,11898,1,6,0:0:0:0:
320,192,11898,1,8,0:0:0:0:
320,192,12060,1,0,0:0:0:0:
64,192,12141,1,6,0:0:0:0:
448,192,12141,1,8,0:0:0:0:
192,192,12304,1,8,0:0:0:0:
320,192,12385,1,2,0:0:0:0:
192,192,12466,1,8,0:0:0:0:
320,192,12547,1,2,0:0:0:0:
192,192,12628,1,8,0:0:0:0:
448,192,12709,1,2,0:0:0:0:
64,192,12790,1,8,0:0:0:0:
192,192,12871,1,2,0:0:0:0:
320,192,12952,1,8,0:0:0:0:
448,192,12952,1,2,0:0:0:0:
64,192,13114,1,8,0:0:0:0:
448,192,13276,1,8,0:0:0:0:
192,192,13439,1,0,0:0:0:70:tom03.wav
64,192,13601,1,2,0:0:0:0:
320,192,13601,1,4,0:0:0:0:
192,192,13682,1,0,0:0:0:0:
448,192,13763,1,2,0:0:0:0:
64,192,13925,1,8,0:0:0:0:
192,192,13925,1,0,0:0:0:0:
448,192,14087,1,2,0:0:0:0:
320,192,14168,1,8,0:0:0:0:
192,192,14249,1,2,0:0:0:0:
320,192,14330,1,8,0:0:0:0:
64,192,14411,1,2,0:0:0:0:
192,192,14573,1,8,0:0:0:0:
448,192,14573,1,0,0:0:0:0:
320,192,14655,1,0,0:0:0:0:
192,192,14736,1,2,0:0:0:0:
64,192,14898,1,8,0:0:0:0:
320,192,14898,1,0,0:0:0:0:
320,192,15060,1,2,0:0:0:0:
192,192,15222,1,4,0:0:0:0:
448,192,15222,1,2,0:0:0:0:
320,192,15303,1,0,0:0:0:0:
64,192,15384,1,2,0:0:0:0:
320,192,15546,1,8,0:0:0:0:
448,192,15546,1,0,0:0:0:0:
64,192,15709,1,2,0:0:0:0:
192,192,15790,1,8,0:0:0:0:
320,192,15871,1,2,0:0:0:0:
192,192,15952,1,8,0:0:0:0:
448,192,16033,1,2,0:0:0:0:
64,192,16195,1,8,0:0:0:0:
320,192,16195,1,0,0:0:0:0:
192,192,16276,1,0,0:0:0:0:
320,192,16357,1,2,0:0:0:0:
64,192,16519,1,10,0:0:0:0:
448,192,16600,1,8,0:0:0:0:
64,192,16682,1,8,0:0:0:0:
448,192,16763,1,8,0:0:0:0:
192,192,16844,1,4,0:0:0:0:
320,192,16844,1,2,0:0:0:0:
64,192,16925,1,0,0:0:0:0:
448,192,17006,1,2,0:0:0:0:
64,192,17168,1,8,0:0:0:0:
192,192,17168,1,0,0:0:0:0:
448,192,17330,1,2,0:0:0:0:
320,192,17411,1,8,0:0:0:0:
192,192,17492,1,2,0:0:0:0:
320,192,17573,1,8,0:0:0:0:
64,192,17655,1,2,0:0:0:0:
192,192,17817,1,8,0:0:0:0:
448,192,17817,1,0,0:0:0:0:
320,192,17898,1,0,0:0:0:0:
192,192,17979,1,2,0:0:0:0:
64,192,18141,1,8,0:0:0:0:
320,192,18141,1,0,0:0:0:0:
320,192,18303,1,2,0:0:0:0:
192,192,18465,1,2,0:0:0:0:
448,192,18465,1,4,0:0:0:0:
320,192,18546,1,0,0:0:0:0:
64,192,18627,1,2,0:0:0:0:
320,192,18789,1,8,0:0:0:0:
448,192,18789,1,0,0:0:0:0:
64,192,18951,1,2,0:0:0:0:
192,192,19032,1,8,0:0:0:0:
448,192,19113,1,2,0:0:0:0:
192,192,19194,1,8,0:0:0:0:
320,192,19275,1,2,0:0:0:0:
64,192,19437,1,8,0:0:0:0:
448,192,19437,1,0,0:0:0:0:
192,192,19519,1,0,0:0:0:0:
448,192,19600,1,2,0:0:0:0:
64,192,19762,1,2,0:0:0:0:
320,192,19762,1,8,0:0:0:0:
192,192,19843,1,8,0:0:0:0:
320,192,19924,1,8,0:0:0:0:
64,192,20005,1,8,0:0:0:0:
320,192,20086,1,10,0:0:0:0:
192,192,20167,1,8,0:0:0:0:
448,192,20248,1,8,0:0:0:0:
64,192,20329,1,8,0:0:0:0:
192,192,20411,1,2,0:0:0:0:
320,192,20411,1,4,0:0:0:0:
64,192,20492,1,0,0:0:0:0:
448,192,20573,1,2,0:0:0:0:
64,192,20735,1,8,0:0:0:0:
192,192,20735,1,0,0:0:0:0:
448,192,20897,1,2,0:0:0:0:
320,192,20978,1,8,0:0:0:0:
192,192,21059,1,2,0:0:0:0:
320,192,21140,1,8,0:0:0:0:
64,192,21221,1,2,0:0:0:0:
192,192,21383,1,8,0:0:0:0:
448,192,21383,1,0,0:0:0:0:
320,192,21465,1,0,0:0:0:0:
192,192,21546,1,2,0:0:0:0:
64,192,21708,1,8,0:0:0:0:
320,192,21708,1,0,0:0:0:0:
320,192,21870,1,2,0:0:0:0:
192,192,22032,1,4,0:0:0:0:
448,192,22032,1,2,0:0:0:0:
320,192,22113,1,0,0:0:0:0:
64,192,22194,1,2,0:0:0:0:
320,192,22356,1,8,0:0:0:0:
448,192,22356,1,0,0:0:0:0:
64,192,22519,1,2,0:0:0:0:
192,192,22600,1,8,0:0:0:0:
320,192,22681,1,2,0:0:0:0:
192,192,22762,1,8,0:0:0:0:
448,192,22843,1,2,0:0:0:0:
64,192,23005,1,8,0:0:0:0:
320,192,23005,1,0,0:0:0:0:
192,192,23086,1,0,0:0:0:0:
320,192,23167,1,2,0:0:0:0:
64,192,23329,1,10,0:0:0:0:
320,192,23410,1,8,0:0:0:0:
64,192,23492,1,8,0:0:0:0:
448,192,23573,1,8,0:0:0:0:
192,192,23654,1,4,0:0:0:0:
320,192,23654,1,2,0:0:0:0:
64,192,23735,1,0,0:0:0:0:
448,192,23816,1,2,0:0:0:0:
64,192,23978,1,8,0:0:0:0:
192,192,23978,1,0,0:0:0:0:
448,192,24140,1,2,0:0:0:0:
320,192,24221,1,8,0:0:0:0:
192,192,24302,1,2,0:0:0:0:
320,192,24383,1,8,0:0:0:0:
64,192,24465,1,2,0:0:0:0:
192,192,24627,1,8,0:0:0:0:
448,192,24627,1,0,0:0:0:0:
320,192,24708,1,0,0:0:0:0:
192,192,24789,1,2,0:0:0:0:
64,192,24951,1,8,0:0:0:0:
320,192,24951,1,0,0:0:0:0:
320,192,25113,1,2,0:0:0:0:
192,192,25275,1,2,0:0:0:0:
448,192,25275,1,4,0:0:0:0:
320,192,25356,1,0,0:0:0:0:
64,192,25437,1,2,0:0:0:0:
320,192,25599,1,8,0:0:0:0:
448,192,25599,1,0,0:0:0:0:
64,192,25761,1,2,0:0:0:0:
192,192,25842,1,8,0:0:0:0:
320,192,25923,1,2,0:0:0:0:
192,192,26004,1,8,0:0:0:0:
448,192,26085,1,2,0:0:0:0:
64,192,26247,1,8,0:0:0:0:
320,192,26247,1,0,0:0:0:0:
192,192,26329,1,0,0:0:0:0:
320,192,26410,1,2,0:0:0:0:
64,192,26572,1,2,0:0:0:0:
448,192,26572,1,8,0:0:0:0:
192,192,26653,1,8,0:0:0:0:
448,192,26734,1,8,0:0:0:0:
64,192,26815,1,8,0:0:0:0:
448,192,26896,1,10,0:0:0:0:
192,192,26977,1,8,0:0:0:0:
320,192,27058,1,8,0:0:0:0:
64,192,27139,1,8,0:0:0:0:
192,192,27221,1,2,0:0:0:0:
448,192,27221,1,0,0:0:0:0:
64,192,27545,1,0,0:0:0:0:
192,192,27626,1,0,0:0:0:0:
320,192,27707,1,0,0:0:0:0:
448,192,27788,1,0,0:0:0:0:
64,192,27869,1,2,0:0:0:0:
192,192,27869,1,4,0:0:0:0:
320,192,27950,1,0,0:0:0:0:
192,192,28031,1,0,0:0:0:0:
64,192,28193,1,8,0:0:0:0:
448,192,28193,1,0,0:0:0:0:
320,192,28355,1,2,0:0:0:0:
192,192,28436,1,0,0:0:0:0:
320,192,28517,1,0,0:0:0:0:
192,192,28679,1,2,0:0:0:0:
320,192,28841,1,8,0:0:0:0:
448,192,28841,1,0,0:0:0:0:
64,192,29004,1,0,0:0:0:0:
448,192,29166,1,2,0:0:0:0:
64,192,29247,1,0,0:0:0:0:
448,192,29328,1,0,0:0:0:0:
192,192,29490,1,8,0:0:0:0:
320,192,29490,1,0,0:0:0:0:
64,192,29652,1,2,0:0:0:0:
448,192,29733,1,0,0:0:0:0:
64,192,29814,1,0,0:0:0:0:
320,192,29977,1,2,0:0:0:0:
64,192,30139,1,8,0:0:0:0:
448,192,30139,1,0,0:0:0:0:
192,192,30220,1,0,0:0:0:0:
320,192,30301,1,0,0:0:0:0:
64,192,30382,1,0,0:0:0:0:
448,192,30463,1,2,0:0:0:0:
192,192,30544,1,0,0:0:0:0:
448,192,30625,1,0,0:0:0:0:
64,192,30787,1,8,0:0:0:0:
320,192,30787,1,0,0:0:0:0:
192,192,30950,1,2,0:0:0:0:
448,192,31031,1,0,0:0:0:0:
192,192,31112,1,0,0:0:0:0:
320,192,31274,1,2,0:0:0:0:
192,192,31436,1,8,0:0:0:0:
448,192,31436,1,0,0:0:0:0:
320,192,31598,1,0,0:0:0:0:
64,192,31760,1,2,0:0:0:0:
320,192,31841,1,0,0:0:0:0:
64,192,31923,1,0,0:0:0:0:
192,192,32085,1,8,0:0:0:0:
448,192,32085,1,0,0:0:0:0:
320,192,32247,1,2,0:0:0:0:
64,192,32328,1,0,0:0:0:0:
320,192,32409,1,0,0:0:0:0:
448,192,32571,1,2,0:0:0:0:
64,192,32733,1,8,0:0:0:0:
192,192,32814,1,0,0:0:0:0:
320,192,32896,1,0,0:0:0:0:
448,192,32977,1,0,0:0:0:0:
64,192,33058,1,4,0:0:0:0:
192,192,33058,1,2,0:0:0:0:
320,192,33139,1,0,0:0:0:0:
192,192,33220,1,0,0:0:0:0:
64,192,33382,1,8,0:0:0:0:
448,192,33382,1,0,0:0:0:0:
320,192,33544,1,2,0:0:0:0:
192,192,33625,1,0,0:0:0:0:
320,192,33706,1,0,0:0:0:0:
192,192,33868,1,2,0:0:0:0:
320,192,34031,1,8,0:0:0:0:
448,192,34031,1,0,0:0:0:0:
64,192,34193,1,0,0:0:0:0:
448,192,34355,1,2,0:0:0:0:
64,192,34436,1,0,0:0:0:0:
448,192,34517,1,0,0:0:0:0:
192,192,34679,1,8,0:0:0:0:
320,192,34679,1,0,0:0:0:0:
64,192,34841,1,2,0:0:0:0:
448,192,34923,1,0,0:0:0:0:
64,192,35004,1,0,0:0:0:0:
192,192,35166,1,2,0:0:0:0:
64,192,35328,1,8,0:0:0:0:
448,192,35328,1,0,0:0:0:0:
320,192,35490,1,0,0:0:0:0:
64,192,35652,1,2,0:0:0:0:
192,192,35652,1,4,0:0:0:0:
448,192,35733,1,0,0:0:0:0:
192,192,35814,1,0,0:0:0:0:
64,192,35977,1,8,0:0:0:0:
320,192,35977,1,0,0:0:0:0:
448,192,36139,1,2,0:0:0:0:
192,192,36220,1,0,0:0:0:0:
448,192,36301,1,0,0:0:0:0:
192,192,36463,1,8,0:0:0:0:
320,192,36463,1,0,0:0:0:0:
64,192,36625,1,2,0:0:0:0:
320,192,36706,1,0,0:0:0:0:
64,192,36787,1,0,0:0:0:0:
192,192,36950,1,8,0:0:0:0:
448,192,36950,1,0,0:0:0:0:
320,192,37112,1,6,0:0:0:0:
64,192,37193,1,0,0:0:0:0:
320,192,37274,1,0,0:0:0:0:
192,192,37436,1,8,0:0:0:0:
448,192,37436,1,0,0:0:0:0:
64,192,37598,1,8,0:0:0:0:
320,192,37598,1,0,0:0:0:0:
448,192,37679,1,8,0:0:0:0:
192,192,37760,1,8,0:0:0:0:
64,192,37841,1,8,0:0:0:0:
320,192,37923,1,8,0:0:0:0:
192,192,38004,1,8,0:0:0:0:
448,192,38085,1,8,0:0:0:0:
192,192,38166,1,8,0:0:0:0:
64,192,38247,1,2,0:0:0:0:
320,192,38247,1,4,0:0:0:0:
320,192,38409,1,2,0:0:0:0:
448,192,38571,1,8,0:0:0:0:
64,192,38733,1,2,0:0:0:0:
192,192,38733,1,0,0:0:0:0:
320,192,38814,1,8,0:0:0:0:
64,192,38895,1,2,0:0:0:0:
320,192,39057,1,8,0:0:0:0:
192,192,39219,1,2,0:0:0:0:
448,192,39219,1,0,0:0:0:0:
192,192,39382,1,8,0:0:0:0:
64,192,39544,1,8,0:0:0:0:
448,192,39544,1,2,0:0:0:0:
192,192,39625,1,8,0:0:0:0:
320,192,39706,1,8,0:0:0:0:
448,192,39787,1,8,0:0:0:0:
192,192,39868,1,8,0:0:0:0:
320,192,39949,1,0,0:0:0:70:tom02.wav
64,192,40030,1,0,0:0:0:70:tom03.wav
320,192,40111,1,0,0:0:0:70:tom04.wav
192,192,40192,1,4,0:0:0:0:
448,192,40192,1,2,0:0:0:0:
192,192,40354,1,2,0:0:0:0:
64,192,40516,1,8,0:0:0:0:
320,192,40678,1,2,0:0:0:0:
448,192,40678,1,0,0:0:0:0:
192,192,40759,1,8,0:0:0:0:
448,192,40840,1,2,0:0:0:0:
192,192,41002,1,8,0:0:0:0:
64,192,41164,1,2,0:0:0:0:
320,192,41164,1,0,0:0:0:0:
320,192,41327,1,8,0:0:0:0:
192,192,41489,1,2,0:0:0:0:
448,192,41489,1,4,0:0:0:0:
64,192,41813,1,2,0:0:0:0:
320,192,41813,1,4,0:0:0:0:
64,192,42137,1,4,0:0:0:0:
192,192,42137,1,2,0:0:0:0:
192,192,42462,1,2,0:0:0:0:
448,192,42462,1,8,0:0:0:0:
448,192,42624,1,2,0:0:0:0:
320,192,42786,1,2,0:0:0:0:
64,192,42948,1,8,0:0:0:0:
192,192,42948,1,0,0:0:0:0:
448,192,43029,1,0,0:0:0:0:
192,192,43110,1,2,0:0:0:0:
448,192,43272,1,8,0:0:0:0:
64,192,43434,1,2,0:0:0:0:
320,192,43434,1,8,0:0:0:0:
64,192,43597,1,8,0:0:0:0:
192,192,43759,1,8,0:0:0:0:
448,192,43759,1,0,0:0:0:0:
64,192,43840,1,0,0:0:0:70:tom02.wav
320,192,43921,1,0,0:0:0:70:tom03.wav
448,192,44002,1,0,0:0:0:70:tom04.wav
64,192,44083,1,6,0:0:0:0:
320,192,44164,1,0,0:0:0:0:
192,192,44245,1,2,0:0:0:0:
320,192,44326,1,0,0:0:0:0:
64,192,44407,1,8,0:0:0:0:
448,192,44407,1,0,0:0:0:0:
448,192,44569,1,2,0:0:0:0:
192,192,44731,1,2,0:0:0:0:
320,192,44893,1,8,0:0:0:0:
448,192,44893,1,0,0:0:0:0:
192,192,44974,1,0,0:0:0:0:
320,192,45055,1,2,0:0:0:0:
64,192,45217,1,8,0:0:0:0:
192,192,45379,1,4,0:0:0:0:
320,192,45379,1,2,0:0:0:0:
192,192,45542,1,8,0:0:0:0:
320,192,45704,1,2,0:0:0:0:
448,192,45704,1,4,0:0:0:0:
192,192,46028,1,2,0:0:0:0:
448,192,46028,1,4,0:0:0:0:
64,192,46352,1,12,0:0:0:0:
448,192,46352,1,2,0:0:0:0:
64,192,46677,1,2,0:0:0:0:
192,192,46677,1,0,0:0:0:0:
320,192,46839,1,0,0:0:0:0:
192,192,46920,1,0,0:0:0:0:
64,192,47001,1,2,0:0:0:0:
448,192,47001,1,4,0:0:0:0:
192,192,47325,1,2,0:0:0:0:
320,192,47325,1,4,0:0:0:0:
64,192,47650,1,2,0:0:0:0:
192,192,47650,1,4,0:0:0:0:
320,192,47976,1,6,0:0:0:0:
192,192,48057,1,0,0:0:0:0:
320,192,48138,1,0,0:0:0:0:
64,192,48300,1,8,0:0:0:0:
448,192,48300,1,0,0:0:0:0:
64,192,48462,1,2,0:0:0:0:
192,192,48543,1,0,0:0:0:0:
320,192,48624,1,0,0:0:0:0:
448,192,48786,1,2,0:0:0:0:
192,192,48948,1,8,0:0:0:0:
448,192,48948,1,0,0:0:0:0:
448,192,49273,1,2,0:0:0:0:
320,192,49354,1,0,0:0:0:0:
448,192,49435,1,0,0:0:0:0:
192,192,49597,1,8,0:0:0:0:
320,192,49597,1,0,0:0:0:0:
64,192,49759,1,2,0:0:0:0:
192,192,49921,1,0,0:0:0:0:
192,192,50084,1,2,0:0:0:0:
320,192,50246,1,8,0:0:0:0:
448,192,50246,1,0,0:0:0:0:
64,192,50408,1,2,0:0:0:0:
320,192,50570,1,2,0:0:0:0:
192,192,50651,1,0,0:0:0:0:
320,192,50732,1,0,0:0:0:0:
64,192,50894,1,8,0:0:0:0:
448,192,50894,1,0,0:0:0:0:
64,192,51057,1,2,0:0:0:0:
192,192,51138,1,0,0:0:0:0:
320,192,51219,1,0,0:0:0:0:
448,192,51381,1,2,0:0:0:0:
192,192,51543,1,8,0:0:0:0:
448,192,51543,1,0,0:0:0:0:
448,192,51867,1,2,0:0:0:0:
320,192,51948,1,0,0:0:0:0:
448,192,52030,1,0,0:0:0:0:
192,192,52192,1,8,0:0:0:0:
320,192,52192,1,0,0:0:0:0:
64,192,52354,1,2,0:0:0:0:
320,192,52516,1,0,0:0:0:0:
320,192,52678,1,2,0:0:0:0:
64,192,52840,1,8,0:0:0:0:
192,192,52840,1,0,0:0:0:0:
320,192,53003,1,2,0:0:0:0:
192,192,53165,1,2,0:0:0:0:
320,192,53246,1,0,0:0:0:0:
192,192,53327,1,0,0:0:0:0:
64,192,53489,1,8,0:0:0:0:
448,192,53489,1,0,0:0:0:0:
448,192,53651,1,2,0:0:0:0:
320,192,53732,1,0,0:0:0:0:
192,192,53813,1,0,0:0:0:0:
64,192,53975,1,2,0:0:0:0:
64,192,54138,1,8,0:0:0:0:
320,192,54138,1,0,0:0:0:0:
64,192,54462,1,2,0:0:0:0:
192,192,54543,1,0,0:0:0:0:
320,192,54624,1,0,0:0:0:0:
64,192,54786,1,8,0:0:0:0:
192,192,54786,1,0,0:0:0:0:
448,192,54948,1,2,0:0:0:0:
320,192,55111,1,0,0:0:0:0:
320,192,55273,1,2,0:0:0:0:
64,192,55435,1,8,0:0:0:0:
192,192,55435,1,0,0:0:0:0:
320,192,55597,1,2,0:0:0:0:
192,192,55759,1,2,0:0:0:0:
320,192,55840,1,0,0:0:0:0:
192,192,55921,1,0,0:0:0:0:
64,192,56084,1,8,0:0:0:0:
448,192,56084,1,0,0:0:0:0:
448,192,56246,1,2,0:0:0:0:
320,192,56327,1,0,0:0:0:0:
192,192,56408,1,0,0:0:0:0:
64,192,56570,1,2,0:0:0:0:
64,192,56732,1,8,0:0:0:0:
320,192,56732,1,0,0:0:0:0:
64,192,57057,1,2,0:0:0:0:
192,192,57138,1,0,0:0:0:0:
320,192,57219,1,0,0:0:0:0:
64,192,57381,1,8,0:0:0:0:
192,192,57381,1,0,0:0:0:0:
448,192,57543,1,2,0:0:0:0:
192,192,57705,1,8,0:0:0:0:
320,192,57705,1,0,0:0:0:0:
192,192,57867,1,2,0:0:0:0:
64,192,57948,1,8,0:0:0:0:
320,192,58030,1,8,0:0:0:0:
448,192,58030,1,0,0:0:0:0:
192,192,58192,1,2,0:0:0:0:
320,192,58354,1,6,0:0:0:0:
64,192,58354,1,0,0:0:0:0:
192,192,58435,1,0,0:0:0:0:
320,192,58516,1,0,0:0:0:0:
64,192,58678,1,8,0:0:0:0:
448,192,58678,1,0,0:0:0:0:
192,192,58840,1,2,0:0:0:0:
320,192,58840,1,0,0:0:0:0:
64,192,58921,1,0,0:0:0:0:
192,192,59003,1,0,0:0:0:0:
448,192,59165,1,2,0:0:0:0:
192,192,59327,1,8,0:0:0:0:
448,192,59327,1,0,0:0:0:0:
64,192,59489,1,0,0:0:0:0:
448,192,59651,1,2,0:0:0:0:
320,192,59732,1,0,0:0:0:0:
448,192,59813,1,0,0:0:0:0:
192,192,59975,1,8,0:0:0:0:
320,192,59975,1,0,0:0:0:0:
64,192,60138,1,2,0:0:0:0:
192,192,60300,1,0,0:0:0:0:
448,192,60300,1,0,0:0:0:0:
192,192,60462,1,2,0:0:0:0:
320,192,60624,1,8,0:0:0:0:
448,192,60624,1,0,0:0:0:0:
64,192,60786,1,0,0:0:0:0:
320,192,60948,1,2,0:0:0:0:
192,192,61030,1,0,0:0:0:0:
320,192,61111,1,0,0:0:0:0:
64,192,61273,1,8,0:0:0:0:
448,192,61273,1,0,0:0:0:0:
192,192,61435,1,2,0:0:0:0:
320,192,61435,1,0,0:0:0:0:
64,192,61516,1,0,0:0:0:0:
192,192,61597,1,0,0:0:0:0:
448,192,61759,1,2,0:0:0:0:
192,192,61921,1,8,0:0:0:0:
448,192,61921,1,0,0:0:0:0:
64,192,62084,1,0,0:0:0:0:
448,192,62246,1,2,0:0:0:0:
320,192,62327,1,0,0:0:0:0:
448,192,62408,1,0,0:0:0:0:
192,192,62570,1,8,0:0:0:0:
320,192,62570,1,0,0:0:0:0:
64,192,62732,1,2,0:0:0:0:
320,192,62894,1,0,0:0:0:0:
448,192,62894,1,0,0:0:0:0:
320,192,63057,1,2,0:0:0:0:
64,192,63219,1,8,0:0:0:0:
192,192,63219,1,0,0:0:0:0:
320,192,63381,1,0,0:0:0:0:
192,192,63543,1,6,0:0:0:0:
448,192,63543,1,0,0:0:0:0:
320,192,63624,1,0,0:0:0:0:
192,192,63705,1,0,0:0:0:0:
64,192,63867,1,8,0:0:0:0:
448,192,63867,1,0,0:0:0:0:
192,192,64030,1,2,0:0:0:0:
320,192,64030,1,0,0:0:0:0:
448,192,64111,1,0,0:0:0:0:
320,192,64192,1,0,0:0:0:0:
64,192,64354,1,2,0:0:0:0:
64,192,64516,1,8,0:0:0:0:
320,192,64516,1,0,0:0:0:0:
448,192,64678,1,0,0:0:0:0:
64,192,64840,1,2,0:0:0:0:
192,192,64921,1,0,0:0:0:0:
320,192,65003,1,0,0:0:0:0:
64,192,65165,1,8,0:0:0:0:
192,192,65165,1,0,0:0:0:0:
448,192,65327,1,2,0:0:0:0:
64,192,65489,1,0,0:0:0:0:
320,192,65489,1,0,0:0:0:0:
320,192,65651,1,2,0:0:0:0:
64,192,65813,1,8,0:0:0:0:
192,192,65813,1,0,0:0:0:0:
320,192,65975,1,0,0:0:0:0:
192,192,66138,1,10,0:0:0:0:
320,192,66219,1,0,0:0:0:0:
192,192,66300,1,0,0:0:0:0:
64,192,66462,1,8,0:0:0:0:
448,192,66462,1,2,0:0:0:0:
320,192,66624,1,14,0:0:0:0:
64,192,66786,1,0,0:0:0:0:
320,192,66867,1,8,0:0:0:0:
64,192,66948,1,2,0:0:0:0:
192,192,67111,1,8,0:0:0:0:
448,192,67111,1,0,0:0:0:0:
320,192,67273,1,0,0:0:0:0:
64,192,67354,1,0,0:0:0:0:
448,192,67435,1,2,0:0:0:0:
192,192,67597,1,8,0:0:0:0:
320,192,67597,1,0,0:0:0:0:
192,192,67759,1,8,0:0:0:0:
448,192,67921,1,6,0:0:0:0:
64,192,68084,1,2,0:0:0:0:
320,192,68165,1,8,0:0:0:0:
64,192,68246,1,10,0:0:0:0:
320,192,68327,1,8,0:0:0:0:
192,192,68408,1,10,0:0:0:0:
64,192,68489,1,0,0:0:0:0:
320,192,68570,1,2,0:0:0:0:
448,192,68651,1,0,0:0:0:0:
64,192,68732,1,0,0:0:0:0:
192,192,68732,1,0,0:0:0:0:
64,192,69057,1,0,0:0:0:0:
192,192,69057,1,0,0:0:0:0:
64,192,69381,1,8,0:0:0:0:
320,192,69381,1,2,0:0:0:0:
320,192,69705,1,10,0:0:0:0:
448,192,69705,1,4,0:0:0:0:
64,192,70191,1,8,0:0:0:0:
192,192,70191,1,2,0:0:0:0:
64,192,70353,1,2,0:0:0:0:
448,192,70353,1,8,0:0:0:0:
64,192,71002,1,8,0:0:0:0:
320,192,71002,1,2,0:0:0:0:
320,192,71488,1,2,0:0:0:0:
448,192,71488,1,8,0:0:0:0:
192,192,71650,1,8,0:0:0:0:
448,192,71650,1,2,0:0:0:0:
192,192,71975,1,8,0:0:0:0:
320,192,71975,1,2,0:0:0:0:
320,192,72299,1,12,0:0:0:0:
448,192,72299,1,2,0:0:0:0:
64,192,72786,1,2,0:0:0:0:
192,192,72786,1,8,0:0:0:0:
192,192,72948,1,8,0:0:0:0:
448,192,72948,1,2,0:0:0:0:
64,192,73596,1,2,0:0:0:0:
320,192,73596,1,8,0:0:0:0:
320,192,74083,1,8,0:0:0:0:
448,192,74083,1,2,0:0:0:0:
320,192,74245,1,10,0:0:0:0:
64,192,74326,1,0,0:0:0:0:
192,192,74407,1,8,0:0:0:0:
320,192,74488,1,8,0:0:0:0:
64,192,74569,1,10,0:0:0:0:
448,192,74650,1,8,0:0:0:0:
192,192,74732,1,8,0:0:0:0:
448,192,74813,1,8,0:0:0:0:
64,192,74894,1,6,0:0:0:0:
320,192,74894,1,8,0:0:0:0:
192,192,75056,1,0,0:0:0:0:
320,192,75137,1,8,0:0:0:0:
64,192,75218,1,8,0:0:0:0:
320,192,75380,1,2,0:0:0:0:
448,192,75380,1,8,0:0:0:0:
64,192,75542,1,2,0:0:0:0:
448,192,75542,1,8,0:0:0:0:
320,192,75705,1,8,0:0:0:0:
192,192,75786,1,8,0:0:0:0:
320,192,75867,1,10,0:0:0:0:
64,192,76029,1,8,0:0:0:0:
192,192,76191,1,10,0:0:0:0:
448,192,76191,1,4,0:0:0:0:
320,192,76353,1,0,0:0:0:0:
192,192,76434,1,8,0:0:0:0:
448,192,76515,1,8,0:0:0:0:
64,192,76677,1,2,0:0:0:0:
192,192,76677,1,8,0:0:0:0:
64,192,76840,1,2,0:0:0:0:
448,192,76840,1,8,0:0:0:0:
192,192,77002,1,8,0:0:0:0:
320,192,77083,1,8,0:0:0:0:
192,192,77164,1,10,0:0:0:0:
448,192,77326,1,8,0:0:0:0:
64,192,77488,1,10,0:0:0:0:
320,192,77488,1,4,0:0:0:0:
192,192,77650,1,0,0:0:0:0:
320,192,77732,1,8,0:0:0:0:
64,192,77813,1,8,0:0:0:0:
320,192,77975,1,8,0:0:0:0:
448,192,77975,1,2,0:0:0:0:
64,192,78137,1,8,0:0:0:0:
448,192,78137,1,2,0:0:0:0:
320,192,78299,1,8,0:0:0:0:
192,192,78380,1,8,0:0:0:0:
320,192,78461,1,10,0:0:0:0:
64,192,78623,1,8,0:0:0:0:
192,192,78786,1,10,0:0:0:0:
448,192,78786,1,4,0:0:0:0:
320,192,78948,1,0,0:0:0:0:
192,192,79029,1,8,0:0:0:0:
448,192,79110,1,8,0:0:0:0:
64,192,79272,1,2,0:0:0:0:
192,192,79272,1,8,0:0:0:0:
64,192,79434,1,2,0:0:0:0:
448,192,79434,1,8,0:0:0:0:
192,192,79596,1,10,0:0:0:0:
320,192,79677,1,2,0:0:0:0:
192,192,79759,1,8,0:0:0:0:
448,192,79921,1,8,0:0:0:0:
64,192,80083,1,4,0:0:0:0:
192,192,80083,1,2,0:0:0:0:
320,192,80407,1,0,0:0:0:0:
320,192,80731,1,8,0:0:0:0:
448,192,80731,1,0,0:0:0:0:
320,192,80893,1,8,0:0:0:0:
448,192,80893,1,0,0:0:0:0:
192,192,81055,1,0,0:0:0:70:tom02.wav
448,192,81218,1,0,0:0:0:70:tom04.wav
64,192,81380,1,8,0:0:0:0:
320,192,81380,1,4,0:0:0:0:
192,192,81704,1,2,0:0:0:0:
320,192,81704,1,0,0:0:0:0:
448,192,82028,1,0,0:0:0:0:
64,192,82353,1,8,0:0:0:0:
192,192,82353,1,0,0:0:0:0:
320,192,82434,1,2,0:0:0:0:
192,192,82515,1,8,0:0:0:0:
320,192,82596,1,2,0:0:0:0:
64,192,82677,1,8,0:0:0:0:
448,192,82758,1,2,0:0:0:0:
64,192,82839,1,8,0:0:0:0:
320,192,82920,1,2,0:0:0:0:
192,192,83001,1,8,0:0:0:0:
448,192,83001,1,0,0:0:0:0:
448,192,83164,1,8,0:0:0:0:
64,192,83326,1,2,0:0:0:0:
320,192,83326,1,0,0:0:0:0:
320,192,84461,1,2,0:0:0:0:
448,192,84461,1,0,0:0:0:0:
64,192,84623,1,8,0:0:0:0:
448,192,84623,1,0,0:0:0:0:
192,192,84785,1,0,0:0:0:70:tom01.wav
64,192,84948,1,4,0:0:0:0:
320,192,84948,1,2,0:0:0:0:
192,192,85110,1,0,0:0:0:0:
64,192,85191,1,0,0:0:0:0:
320,192,85272,1,8,0:0:0:0:
448,192,85272,1,0,0:0:0:0:
64,192,85434,1,2,0:0:0:0:
448,192,85596,1,0,0:0:0:0:
192,192,85677,1,0,0:0:0:0:
448,192,85758,1,2,0:0:0:0:
192,192,85920,1,8,0:0:0:0:
320,192,85920,1,0,0:0:0:0:
64,192,86083,1,2,0:0:0:0:
448,192,86164,1,0,0:0:0:0:
64,192,86245,1,2,0:0:0:0:
320,192,86407,1,0,0:0:0:0:
64,192,86569,1,8,0:0:0:0:
192,192,86569,1,0,0:0:0:0:
320,192,86650,1,0,0:0:0:0:
448,192,86731,1,2,0:0:0:0:
192,192,86893,1,0,0:0:0:0:
320,192,87056,1,2,0:0:0:0:
64,192,87218,1,8,0:0:0:0:
192,192,87218,1,0,0:0:0:0:
320,192,87299,1,0,0:0:0:0:
64,192,87380,1,2,0:0:0:0:
192,192,87542,1,2,0:0:0:0:
448,192,87542,1,4,0:0:0:0:
64,192,87704,1,0,0:0:0:0:
192,192,87785,1,0,0:0:0:0:
320,192,87866,1,8,0:0:0:0:
448,192,87866,1,0,0:0:0:0:
192,192,88029,1,2,0:0:0:0:
320,192,88191,1,0,0:0:0:0:
64,192,88272,1,0,0:0:0:0:
320,192,88353,1,2,0:0:0:0:
64,192,88515,1,8,0:0:0:0:
448,192,88515,1,0,0:0:0:0:
192,192,88677,1,8,0:0:0:0:
320,192,88758,1,0,0:0:0:0:
192,192,88839,1,2,0:0:0:0:
448,192,89002,1,0,0:0:0:0:
64,192,89164,1,8,0:0:0:0:
192,192,89164,1,0,0:0:0:0:
448,192,89245,1,0,0:0:0:0:
320,192,89326,1,2,0:0:0:0:
64,192,89488,1,0,0:0:0:0:
448,192,89650,1,2,0:0:0:0:
64,192,89812,1,8,0:0:0:0:
192,192,89812,1,0,0:0:0:0:
320,192,89893,1,8,0:0:0:0:
192,192,89975,1,8,0:0:0:0:
320,192,90056,1,8,0:0:0:0:
64,192,90137,1,2,0:0:0:0:
448,192,90137,1,4,0:0:0:0:
192,192,90299,1,0,0:0:0:0:
64,192,90380,1,0,0:0:0:0:
320,192,90461,1,8,0:0:0:0:
448,192,90461,1,0,0:0:0:0:
64,192,90623,1,2,0:0:0:0:
448,192,90785,1,0,0:0:0:0:
192,192,90866,1,0,0:0:0:0:
448,192,90948,1,2,0:0:0:0:
192,192,91110,1,8,0:0:0:0:
320,192,91110,1,0,0:0:0:0:
64,192,91272,1,2,0:0:0:0:
448,192,91353,1,0,0:0:0:0:
64,192,91434,1,2,0:0:0:0:
320,192,91596,1,0,0:0:0:0:
64,192,91758,1,8,0:0:0:0:
192,192,91758,1,0,0:0:0:0:
320,192,91839,1,0,0:0:0:0:
448,192,91920,1,2,0:0:0:0:
192,192,92083,1,0,0:0:0:0:
320,192,92245,1,2,0:0:0:0:
64,192,92407,1,8,0:0:0:0:
192,192,92407,1,0,0:0:0:0:
320,192,92488,1,0,0:0:0:0:
64,192,92569,1,2,0:0:0:0:
192,192,92731,1,4,0:0:0:0:
448,192,92731,1,2,0:0:0:0:
64,192,92893,1,2,0:0:0:0:
192,192,92975,1,0,0:0:0:0:
320,192,93056,1,8,0:0:0:0:
448,192,93056,1,0,0:0:0:0:
192,192,93218,1,6,0:0:0:0:
320,192,93380,1,2,0:0:0:0:
64,192,93461,1,8,0:0:0:0:
320,192,93542,1,2,0:0:0:0:
64,192,93704,1,8,0:0:0:0:
448,192,93704,1,0,0:0:0:0:
192,192,93866,1,2,0:0:0:0:
320,192,93947,1,0,0:0:0:0:
64,192,94029,1,6,0:0:0:0:
64,192,94191,1,0,0:0:0:0:
320,192,94353,1,8,0:0:0:0:
448,192,94353,1,2,0:0:0:0:
192,192,94434,1,0,0:0:0:0:
448,192,94515,1,6,0:0:0:0:
192,192,94677,1,0,0:0:0:0:
320,192,94839,1,0,0:0:0:0:
64,192,95002,1,8,0:0:0:0:
192,192,95002,1,0,0:0:0:0:
320,192,95083,1,8,0:0:0:0:
192,192,95164,1,8,0:0:0:0:
320,192,95245,1,8,0:0:0:0:
64,192,95326,1,4,0:0:0:0:
448,192,95326,1,2,0:0:0:0:
192,192,95407,1,0,0:0:0:0:
448,192,95488,1,0,0:0:0:0:
64,192,95650,1,8,0:0:0:0:
320,192,95650,1,2,0:0:0:0:
448,192,95731,1,0,0:0:0:0:
64,192,95812,1,0,0:0:0:0:
192,192,95975,1,2,0:0:0:0:
320,192,95975,1,0,0:0:0:0:
64,192,96056,1,0,0:0:0:0:
448,192,96137,1,0,0:0:0:0:
320,192,96299,1,10,0:0:0:0:
64,192,96380,1,0,0:0:0:0:
192,192,96461,1,0,0:0:0:0:
64,192,96623,1,2,0:0:0:0:
448,192,96623,1,0,0:0:0:0:
192,192,96704,1,0,0:0:0:0:
448,192,96785,1,0,0:0:0:0:
64,192,96947,1,2,0:0:0:0:
320,192,96947,1,8,0:0:0:0:
448,192,97029,1,0,0:0:0:0:
64,192,97110,1,0,0:0:0:0:
192,192,97272,1,2,0:0:0:0:
320,192,97272,1,0,0:0:0:0:
64,192,97353,1,0,0:0:0:0:
448,192,97434,1,0,0:0:0:0:
320,192,97596,1,10,0:0:0:0:
64,192,97677,1,0,0:0:0:0:
192,192,97758,1,0,0:0:0:0:
64,192,97920,1,2,0:0:0:0:
448,192,97920,1,0,0:0:0:0:
192,192,98002,1,0,0:0:0:0:
448,192,98083,1,0,0:0:0:0:
64,192,98245,1,2,0:0:0:0:
320,192,98245,1,8,0:0:0:0:
448,192,98326,1,0,0:0:0:0:
64,192,98407,1,0,0:0:0:0:
192,192,98569,1,2,0:0:0:0:
320,192,98569,1,0,0:0:0:0:
64,192,98650,1,0,0:0:0:0:
448,192,98731,1,0,0:0:0:0:
320,192,98893,1,10,0:0:0:0:
64,192,98975,1,0,0:0:0:0:
192,192,99056,1,0,0:0:0:0:
320,192,99218,1,2,0:0:0:0:
448,192,99218,1,0,0:0:0:0:
448,192,99380,1,0,0:0:0:0:
192,192,99542,1,8,0:0:0:0:
320,192,99542,1,2,0:0:0:0:
192,192,99704,1,0,0:0:0:0:
64,192,99866,1,2,0:0:0:0:
320,192,99947,1,0,0:0:0:0:
64,192,100029,1,0,0:0:0:0:
448,192,100110,1,0,0:0:0:0:
192,192,100191,1,2,0:0:0:0:
320,192,100191,1,8,0:0:0:0:
192,192,100353,1,0,0:0:0:0:
64,192,100515,1,2,0:0:0:0:
448,192,100515,1,4,0:0:0:0:
320,192,100596,1,0,0:0:0:0:
64,192,100677,1,0,0:0:0:0:
192,192,100839,1,2,0:0:0:0:
448,192,100839,1,8,0:0:0:0:
64,192,100920,1,0,0:0:0:0:
448,192,101002,1,0,0:0:0:0:
192,192,101164,1,2,0:0:0:0:
320,192,101164,1,0,0:0:0:0:
448,192,101245,1,0,0:0:0:0:
64,192,101326,1,0,0:0:0:0:
192,192,101488,1,10,0:0:0:0:
448,192,101569,1,0,0:0:0:0:
320,192,101650,1,0,0:0:0:0:
64,192,101812,1,2,0:0:0:0:
448,192,101812,1,0,0:0:0:0:
320,192,101893,1,0,0:0:0:0:
64,192,101975,1,0,0:0:0:0:
192,192,102137,1,8,0:0:0:0:
448,192,102137,1,2,0:0:0:0:
64,192,102218,1,0,0:0:0:0:
448,192,102299,1,0,0:0:0:0:
192,192,102461,1,2,0:0:0:0:
320,192,102461,1,0,0:0:0:0:
448,192,102542,1,0,0:0:0:0:
64,192,102623,1,0,0:0:0:0:
192,192,102785,1,10,0:0:0:0:
448,192,102866,1,0,0:0:0:0:
320,192,102947,1,0,0:0:0:0:
64,192,103110,1,2,0:0:0:0:
448,192,103110,1,0,0:0:0:0:
320,192,103191,1,0,0:0:0:0:
64,192,103272,1,0,0:0:0:0:
192,192,103434,1,8,0:0:0:0:
448,192,103434,1,2,0:0:0:0:
64,192,103515,1,0,0:0:0:0:
448,192,103596,1,0,0:0:0:0:
192,192,103758,1,2,0:0:0:0:
320,192,103758,1,0,0:0:0:0:
448,192,103839,1,0,0:0:0:0:
64,192,103920,1,0,0:0:0:0:
192,192,104083,1,10,0:0:0:0:
448,192,104164,1,0,0:0:0:0:
320,192,104245,1,0,0:0:0:0:
64,192,104407,1,2,0:0:0:0:
192,192,104407,1,8,0:0:0:0:
64,192,104569,1,0,0:0:0:0:
192,192,104731,1,2,0:0:0:0:
320,192,104731,1,8,0:0:0:0:
320,192,104893,1,8,0:0:0:0:
448,192,105056,1,2,0:0:0:0:
192,192,105137,1,8,0:0:0:0:
448,192,105218,1,2,0:0:0:0:
64,192,105299,1,0,0:0:0:0:
192,192,105380,1,8,0:0:0:0:
320,192,105380,1,2,0:0:0:0:
448,192,105542,1,0,0:0:0:0:
64,192,105704,1,2,0:0:0:0:
192,192,105704,1,0,0:0:0:0:
64,192,107002,1,2,0:0:0:0:
192,192,107002,1,0,0:0:0:0:
64,192,108299,1,2,0:0:0:0:
192,192,108299,1,0,0:0:0:0:
64,192,109596,1,2,0:0:0:0:
192,192,109596,1,0,0:0:0:0:
320,192,110083,1,2,0:0:0:0:
192,192,110245,1,0,0:0:0:70:tom01.wav
448,192,110245,1,0,0:0:0:0:
448,192,110407,1,0,0:0:0:70:tom02.wav
64,192,110569,1,8,0:0:0:0:
320,192,110569,1,0,0:0:0:0:
192,192,110731,1,0,0:0:0:70:tom03.wav
64,192,110812,1,0,0:0:0:70:tom04.wav
320,192,110893,1,2,0:0:0:0:
448,192,110893,1,4,0:0:0:0:
320,192,111218,1,0,0:0:0:0:
192,192,111542,1,0,0:0:0:0:
448,192,111866,1,0,0:0:0:0:
320,192,112029,1,2,0:0:0:0:
320,192,112191,1,2,0:0:0:0:
192,192,112515,1,2,0:0:0:0:
448,192,112839,1,0,0:0:0:0:
320,192,113164,1,2,0:0:0:0:
192,192,113488,1,2,0:0:0:0:
448,192,113812,1,0,0:0:0:0:
320,192,114137,1,0,0:0:0:0:
192,192,114461,1,0,0:0:0:0:
448,192,114623,1,2,0:0:0:0:
448,192,114785,1,2,0:0:0:0:
320,192,115110,1,2,0:0:0:0:
192,192,115434,1,0,0:0:0:0:
320,192,115758,1,2,0:0:0:0:
192,192,116083,1,2,0:0:0:0:
448,192,116083,1,0,0:0:0:0:
192,192,116407,1,0,0:0:0:0:
64,192,116731,1,0,0:0:0:0:
448,192,117056,1,0,0:0:0:0:
192,192,117218,1,2,0:0:0:0:
192,192,117380,1,2,0:0:0:0:
64,192,117704,1,2,0:0:0:0:
448,192,118029,1,0,0:0:0:0:
192,192,118353,1,2,0:0:0:0:
64,192,118677,1,2,0:0:0:0:
448,192,119002,1,0,0:0:0:0:
192,192,119326,1,0,0:0:0:0:
64,192,119650,1,0,0:0:0:0:
320,192,119812,1,2,0:0:0:0:
64,192,119975,1,2,0:0:0:0:
192,192,119975,1,8,0:0:0:0:
64,192,120137,1,8,0:0:0:0:
192,192,120137,1,0,0:0:0:0:
320,192,120299,1,2,0:0:0:0:
448,192,120299,1,0,0:0:0:0:
192,192,120461,1,2,0:0:0:0:
320,192,120623,1,10,0:0:0:0:
192,192,120704,1,0,0:0:0:0:
320,192,120785,1,10,0:0:0:0:
64,192,120866,1,0,0:0:0:0:
192,192,120947,1,8,0:0:0:0:
448,192,120947,1,0,0:0:0:0:
64,192,121110,1,2,0:0:0:0:
192,192,121272,1,2,0:0:0:0:
320,192,121272,1,4,0:0:0:0:
448,192,121434,1,0,0:0:0:0:
192,192,121596,1,0,0:0:0:0:
320,192,121758,1,2,0:0:0:0:
64,192,121920,1,8,0:0:0:0:
448,192,121920,1,0,0:0:0:0:
192,192,122245,1,0,0:0:0:0:
448,192,122407,1,2,0:0:0:0:
192,192,122569,1,2,0:0:0:0:
320,192,122731,1,0,0:0:0:0:
448,192,122812,1,2,0:0:0:0:
64,192,122893,1,0,0:0:0:0:
320,192,123056,1,2,0:0:0:0:
64,192,123218,1,8,0:0:0:0:
192,192,123218,1,0,0:0:0:0:
448,192,123380,1,0,0:0:0:0:
192,192,123542,1,2,0:0:0:0:
320,192,123704,1,0,0:0:0:0:
64,192,123866,1,2,0:0:0:0:
192,192,124191,1,0,0:0:0:0:
448,192,124353,1,2,0:0:0:0:
64,192,124515,1,8,0:0:0:0:
192,192,124515,1,0,0:0:0:0:
320,192,124677,1,0,0:0:0:0:
64,192,124839,1,0,0:0:0:0:
448,192,125002,1,2,0:0:0:0:
192,192,125164,1,2,0:0:0:0:
448,192,125326,1,0,0:0:0:0:
320,192,125407,1,2,0:0:0:0:
192,192,125488,1,0,0:0:0:0:
320,192,125650,1,2,0:0:0:0:
64,192,125812,1,8,0:0:0:0:
448,192,125812,1,0,0:0:0:0:
320,192,125975,1,0,0:0:0:0:
192,192,126137,1,2,0:0:0:0:
448,192,126299,1,0,0:0:0:0:
192,192,126461,1,4,0:0:0:0:
320,192,126461,1,2,0:0:0:0:
64,192,126623,1,0,0:0:0:0:
320,192,126785,1,0,0:0:0:0:
192,192,126947,1,2,0:0:0:0:
64,192,127110,1,8,0:0:0:0:
448,192,127110,1,0,0:0:0:0:
320,192,127434,1,0,0:0:0:0:
64,192,127596,1,2,0:0:0:0:
320,192,127758,1,2,0:0:0:0:
192,192,127920,1,0,0:0:0:0:
64,192,128002,1,2,0:0:0:0:
448,192,128083,1,0,0:0:0:0:
192,192,128245,1,2,0:0:0:0:
320,192,128407,1,8,0:0:0:0:
448,192,128407,1,0,0:0:0:0:
64,192,128569,1,0,0:0:0:0:
320,192,128731,1,2,0:0:0:0:
192,192,128893,1,0,0:0:0:0:
448,192,129056,1,2,0:0:0:0:
320,192,129380,1,0,0:0:0:0:
64,192,129542,1,2,0:0:0:0:
320,192,129704,1,8,0:0:0:0:
448,192,129704,1,0,0:0:0:0:
192,192,129866,1,0,0:0:0:0:
448,192,130029,1,0,0:0:0:0:
64,192,130191,1,2,0:0:0:0:
320,192,130353,1,8,0:0:0:0:
448,192,130353,1,0,0:0:0:0:
64,192,130515,1,8,0:0:0:0:
448,192,130515,1,0,0:0:0:0:
192,192,130596,1,0,0:0:0:0:
320,192,130677,1,2,0:0:0:0:
192,192,130839,1,0,0:0:0:0:
64,192,131002,1,8,0:0:0:0:
448,192,131002,1,0,0:0:0:0:
192,192,131164,1,0,0:0:0:0:
320,192,131326,1,8,0:0:0:0:
64,192,131488,1,2,0:0:0:0:
320,192,131650,1,2,0:0:0:0:
448,192,131650,1,4,0:0:0:0:
192,192,131812,1,0,0:0:0:0:
448,192,131974,1,2,0:0:0:0:
192,192,132136,1,8,0:0:0:0:
448,192,132136,1,0,0:0:0:0:
64,192,132298,1,2,0:0:0:0:
320,192,132460,1,0,0:0:0:0:
64,192,132622,1,4,0:0:0:0:
192,192,132622,1,2,0:0:0:0:
448,192,132785,1,0,0:0:0:0:
64,192,132947,1,2,0:0:0:0:
64,192,133109,1,8,0:0:0:0:
320,192,133109,1,0,0:0:0:0:
448,192,133271,1,2,0:0:0:0:
192,192,133433,1,0,0:0:0:0:
64,192,133595,1,2,0:0:0:0:
320,192,133595,1,0,0:0:0:0:
448,192,133595,1,0,0:0:0:0:
448,192,133758,1,0,0:0:0:0:
64,192,133920,1,2,0:0:0:0:
192,192,133920,1,0,0:0:0:0:
320,192,133920,1,0,0:0:0:0:
320,192,134082,1,0,0:0:0:0:
192,192,134244,1,2,0:0:0:0:
448,192,134244,1,0,0:0:0:0:
192,192,134730,1,0,0:0:0:0:
448,192,134730,1,0,0:0:0:0:
64,192,135216,1,0,0:0:0:0:
320,192,135216,1,0,0:0:0:0:
64,192,135703,1,0,0:0:0:0:
320,192,135703,1,0,0:0:0:0:
320,192,136183,1,12,0:0:0:0:
448,192,136183,1,2,0:0:0:0:
320,192,136425,1,10,0:0:0:0:
448,192,136425,1,4,0:0:0:0:
192,192,136668,1,0,0:0:0:0:
320,192,136668,1,0,0:0:0:0:
448,192,136790,1,0,0:0:0:0:
64,192,136911,1,0,0:0:0:0:
320,192,137033,1,0,0:0:0:0:
192,192,137154,1,0,0:0:0:0:
448,192,137276,1,0,0:0:0:0:
192,192,137397,1,0,0:0:0:0:
320,192,137519,1,0,0:0:0:0:
64,192,137640,1,8,0:0:0:0:
448,192,137640,1,0,0:0:0:0:
192,192,137761,1,0,0:0:0:0:
320,192,137883,1,8,0:0:0:0:
448,192,137883,1,0,0:0:0:0:
320,192,138004,1,8,0:0:0:0:
64,192,138126,1,10,0:0:0:0:
192,192,138126,1,4,0:0:0:0:
64,192,138369,1,12,0:0:0:0:
192,192,138369,1,2,0:0:0:0:
192,192,138612,1,0,0:0:0:0:
320,192,138612,1,0,0:0:0:0:
64,192,138733,1,0,0:0:0:0:
448,192,138855,1,0,0:0:0:0:
192,192,138976,1,0,0:0:0:0:
320,192,139097,1,0,0:0:0:0:
320,192,139219,1,0,0:0:0:0:
192,192,139340,1,0,0:0:0:0:
192,192,139462,1,0,0:0:0:0:
448,192,139583,1,0,0:0:0:0:
320,192,139705,1,0,0:0:0:0:
448,192,139826,1,0,0:0:0:0:
192,192,139948,1,0,0:0:0:0:
320,192,140069,1,12,0:0:0:0:
448,192,140069,1,2,0:0:0:0:
320,192,140312,1,10,0:0:0:0:
448,192,140312,1,4,0:0:0:0:
192,192,140555,1,0,0:0:0:0:
320,192,140555,1,0,0:0:0:0:
448,192,140676,1,0,0:0:0:0:
64,192,140798,1,0,0:0:0:0:
320,192,140919,1,0,0:0:0:0:
64,192,141041,1,8,0:0:0:0:
192,192,141041,1,0,0:0:0:0:
448,192,141162,1,0,0:0:0:0:
192,192,141284,1,0,0:0:0:0:
320,192,141405,1,8,0:0:0:0:
448,192,141405,1,0,0:0:0:0:
64,192,141466,1,8,0:0:0:0:
320,192,141527,1,8,0:0:0:0:
448,192,141648,1,0,0:0:0:0:
64,192,141770,1,8,0:0:0:0:
192,192,141770,1,0,0:0:0:0:
64,192,141891,1,8,0:0:0:0:
192,192,141891,1,0,0:0:0:0:
320,192,142012,1,8,0:0:0:0:
448,192,142012,1,2,0:0:0:0:
192,192,142255,1,8,0:0:0:0:
64,192,142336,1,0,0:0:0:0:
192,192,142417,1,0,0:0:0:0:
320,192,142498,1,8,0:0:0:0:
448,192,142498,1,2,0:0:0:0:
192,192,142741,1,8,0:0:0:0:
64,192,142822,1,0,0:0:0:0:
192,192,142903,1,0,0:0:0:0:
320,192,142984,1,8,0:0:0:0:
448,192,142984,1,2,0:0:0:0:
192,192,143227,1,8,0:0:0:0:
64,192,143308,1,0,0:0:0:0:
320,192,143389,1,0,0:0:0:0:
192,192,143470,1,2,0:0:0:0:
448,192,143470,1,8,0:0:0:0:
64,192,143957,1,2,0:0:0:0:
448,192,143957,1,8,0:0:0:0:
64,192,145038,1,0,0:0:0:0:
192,192,145146,1,0,0:0:0:0:
64,192,145254,1,0,0:0:0:0:
320,192,145362,1,0,0:0:0:0:
448,192,145470,1,0,0:0:0:0:
192,192,145578,1,0,0:0:0:0:
320,192,145902,1,0,0:0:0:0:
64,192,149794,1,0,0:0:0:0:
64,192,150281,1,0,0:0:0:0:
64,192,150767,1,0,0:0:0:0:
64,192,151254,1,0,0:0:0:0:
320,192,151740,1,6,0:0:0:0:
448,192,151740,1,8,0:0:0:0:
192,192,151821,1,0,0:0:0:0:
320,192,151902,1,8,0:0:0:0:
64,192,151984,1,2,0:0:0:0:
448,192,152065,1,8,0:0:0:0:
192,192,152146,1,2,0:0:0:0:
448,192,152227,1,8,0:0:0:0:
192,192,152308,1,2,0:0:0:0:
64,192,152389,1,2,0:0:0:0:
320,192,152389,1,4,0:0:0:0:
64,192,152713,1,2,0:0:0:0:
448,192,152713,1,4,0:0:0:0:
192,192,153038,1,6,0:0:0:0:
320,192,154011,1,2,0:0:0:0:
448,192,154011,1,8,0:0:0:0:
64,192,154335,1,2,0:0:0:0:
192,192,154335,1,4,0:0:0:0:
320,192,154497,1,2,0:0:0:0:
192,192,154578,1,0,0:0:0:0:
320,192,154659,1,8,0:0:0:0:
448,192,154822,1,6,0:0:0:0:
192,192,154903,1,0,0:0:0:0:
320,192,154984,1,0,0:0:0:0:
192,192,155146,1,2,0:0:0:0:
64,192,155309,1,8,0:0:0:0:
448,192,155309,1,0,0:0:0:0:
64,192,155471,1,2,0:0:0:0:
320,192,155633,1,2,0:0:0:0:
448,192,155633,1,8,0:0:0:0:
192,192,155714,1,8,0:0:0:0:
448,192,155796,1,8,0:0:0:0:
192,192,155877,1,8,0:0:0:0:
320,192,155958,1,10,0:0:0:0:
64,192,156120,1,0,0:0:0:70:tom02.wav
192,192,156201,1,0,0:0:0:70:tom03.wav
320,192,156283,1,2,0:0:0:0:
448,192,156283,1,4,0:0:0:0:
192,192,156445,1,2,0:0:0:0:
320,192,156526,1,0,0:0:0:0:
192,192,156607,1,8,0:0:0:0:
448,192,156770,1,6,0:0:0:0:
64,192,156851,1,0,0:0:0:0:
320,192,156932,1,0,0:0:0:0:
320,192,157094,1,2,0:0:0:0:
192,192,157257,1,8,0:0:0:0:
448,192,157257,1,0,0:0:0:0:
64,192,157419,1,2,0:0:0:0:
64,192,157581,1,8,0:0:0:0:
320,192,157581,1,0,0:0:0:0:
448,192,157744,1,8,0:0:0:0:
192,192,157825,1,8,0:0:0:0:
320,192,157906,1,8,0:0:0:0:
448,192,158068,1,0,0:0:0:70:tom03.wav
64,192,158231,1,2,0:0:0:0:
192,192,158231,1,4,0:0:0:0:
320,192,158393,1,2,0:0:0:0:
192,192,158474,1,0,0:0:0:0:
320,192,158555,1,8,0:0:0:0:
448,192,158718,1,6,0:0:0:0:
192,192,158799,1,0,0:0:0:0:
320,192,158880,1,0,0:0:0:0:
192,192,159042,1,2,0:0:0:0:
64,192,159205,1,8,0:0:0:0:
448,192,159205,1,0,0:0:0:0:
64,192,159367,1,2,0:0:0:0:
320,192,159529,1,2,0:0:0:0:
448,192,159529,1,8,0:0:0:0:
192,192,159610,1,8,0:0:0:0:
448,192,159692,1,8,0:0:0:0:
320,192,159773,1,8,0:0:0:0:
64,192,159854,1,10,0:0:0:0:
192,192,160016,1,0,0:0:0:0:
320,192,160179,1,2,0:0:0:0:
448,192,160179,1,4,0:0:0:0:
192,192,160341,1,2,0:0:0:0:
320,192,160422,1,0,0:0:0:0:
192,192,160503,1,8,0:0:0:0:
448,192,160666,1,6,0:0:0:0:
64,192,160747,1,0,0:0:0:0:
320,192,160828,1,0,0:0:0:0:
320,192,160990,1,2,0:0:0:0:
64,192,161153,1,8,0:0:0:0:
448,192,161153,1,0,0:0:0:0:
192,192,161315,1,2,0:0:0:0:
192,192,161477,1,8,0:0:0:0:
320,192,161477,1,0,0:0:0:0:
64,192,161559,1,2,0:0:0:0:
320,192,161640,1,8,0:0:0:0:
64,192,161721,1,2,0:0:0:0:
448,192,161802,1,8,0:0:0:0:
192,192,161883,1,0,0:0:0:0:
320,192,161964,1,8,0:0:0:0:
192,192,162046,1,0,0:0:0:0:
64,192,162127,1,6,0:0:0:0:
448,192,162127,1,8,0:0:0:0:
448,192,162289,1,8,0:0:0:0:
64,192,162451,1,8,0:0:0:0:
192,192,162451,1,0,0:0:0:0:
320,192,162614,1,0,0:0:0:0:
64,192,162776,1,6,0:0:0:0:
192,192,162776,1,8,0:0:0:0:
192,192,162938,1,0,0:0:0:0:
64,192,163019,1,6,0:0:0:0:
320,192,163019,1,8,0:0:0:0:
320,192,163181,1,0,0:0:0:0:
192,192,163263,1,8,0:0:0:0:
448,192,163263,1,2,0:0:0:0:
320,192,163425,1,8,0:0:0:0:
448,192,163425,1,2,0:0:0:0:
192,192,163506,1,0,0:0:0:0:
64,192,163587,1,10,0:0:0:0:
192,192,163668,1,0,0:0:0:0:
320,192,163750,1,12,0:0:0:0:
448,192,163750,1,2,0:0:0:0:
320,192,163912,1,0,0:0:0:0:
192,192,163993,1,12,0:0:0:0:
448,192,163993,1,2,0:0:0:0:
192,192,164155,1,0,0:0:0:0:
64,192,164237,1,8,0:0:0:0:
320,192,164237,1,2,0:0:0:0:
64,192,164399,1,8,0:0:0:0:
192,192,164399,1,2,0:0:0:0:
320,192,164480,1,8,0:0:0:0:
448,192,164561,1,10,0:0:0:0:
320,192,164642,1,8,0:0:0:0:
64,192,164724,1,10,0:0:0:0:
192,192,164724,1,4,0:0:0:0:
192,192,164886,1,0,0:0:0:0:
64,192,164967,1,10,0:0:0:0:
320,192,164967,1,4,0:0:0:0:
320,192,165129,1,0,0:0:0:0:
192,192,165211,1,8,0:0:0:0:
448,192,165211,1,2,0:0:0:0:
320,192,165373,1,2,0:0:0:0:
448,192,165373,1,8,0:0:0:0:
192,192,165454,1,0,0:0:0:0:
64,192,165535,1,10,0:0:0:0:
192,192,165616,1,0,0:0:0:0:
320,192,165698,1,2,0:0:0:0:
448,192,165698,1,0,0:0:0:0:
64,192,165779,1,2,0:0:0:0:
320,192,165860,1,8,0:0:0:0:
192,192,166022,1,8,0:0:0:0:
448,192,166103,1,8,0:0:0:0:
64,192,166185,1,6,0:0:0:0:
320,192,166347,1,6,0:0:0:0:
448,192,166347,1,8,0:0:0:0:
320,192,166509,1,0,0:0:0:0:
192,192,166590,1,6,0:0:0:0:
448,192,166590,1,8,0:0:0:0:
192,192,166752,1,0,0:0:0:0:
64,192,166834,1,8,0:0:0:0:
320,192,166834,1,2,0:0:0:0:
64,192,166996,1,8,0:0:0:0:
192,192,166996,1,2,0:0:0:0:
320,192,167077,1,0,0:0:0:0:
448,192,167158,1,10,0:0:0:0:
320,192,167239,1,0,0:0:0:0:
64,192,167321,1,12,0:0:0:0:
192,192,167321,1,2,0:0:0:0:
192,192,167483,1,0,0:0:0:0:
64,192,167564,1,12,0:0:0:0:
320,192,167564,1,2,0:0:0:0:
320,192,167726,1,0,0:0:0:0:
192,192,167808,1,8,0:0:0:0:
448,192,167808,1,2,0:0:0:0:
320,192,167970,1,8,0:0:0:0:
448,192,167970,1,2,0:0:0:0:
192,192,168051,1,8,0:0:0:0:
64,192,168132,1,10,0:0:0:0:
192,192,168213,1,8,0:0:0:0:
320,192,168295,1,10,0:0:0:0:
448,192,168295,1,4,0:0:0:0:
320,192,168457,1,0,0:0:0:0:
192,192,168538,1,10,0:0:0:0:
448,192,168538,1,4,0:0:0:0:
192,192,168700,1,0,0:0:0:0:
64,192,168782,1,8,0:0:0:0:
320,192,168782,1,2,0:0:0:0:
64,192,168944,1,2,0:0:0:0:
192,192,168944,1,8,0:0:0:0:
320,192,169025,1,0,0:0:0:0:
448,192,169106,1,10,0:0:0:0:
320,192,169187,1,0,0:0:0:0:
64,192,169269,1,10,0:0:0:0:
192,192,169269,1,4,0:0:0:0:
448,192,169350,1,0,0:0:0:0:
192,192,169431,1,0,0:0:0:0:
64,192,169593,1,6,0:0:0:0:
320,192,169593,1,8,0:0:0:0:
448,192,169674,1,0,0:0:0:0:
192,192,169756,1,0,0:0:0:0:
320,192,169918,1,10,0:0:0:0:
448,192,169918,1,4,0:0:0:0:
64,192,169999,1,0,0:0:0:0:
320,192,170080,1,0,0:0:0:0:
192,192,170243,1,6,0:0:0:0:
448,192,170243,1,8,0:0:0:0:
192,192,170405,1,0,0:0:0:0:
64,192,170486,1,6,0:0:0:0:
320,192,170486,1,8,0:0:0:0:
320,192,170648,1,0,0:0:0:0:
192,192,170730,1,8,0:0:0:0:
448,192,170730,1,2,0:0:0:0:
320,192,170892,1,8,0:0:0:0:
448,192,170892,1,2,0:0:0:0:
192,192,170973,1,0,0:0:0:0:
320,192,171054,1,10,0:0:0:0:
192,192,171135,1,0,0:0:0:0:
64,192,171217,1,12,0:0:0:0:
448,192,171217,1,2,0:0:0:0:
64,192,171379,1,0,0:0:0:0:
192,192,171460,1,12,0:0:0:0:
320,192,171460,1,2,0:0:0:0:
320,192,171622,1,0,0:0:0:0:
64,192,171704,1,8,0:0:0:0:
448,192,171704,1,2,0:0:0:0:
320,192,171866,1,8,0:0:0:0:
448,192,171866,1,2,0:0:0:0:
64,192,171947,1,8,0:0:0:0:
320,192,172028,1,10,0:0:0:0:
64,192,172109,1,8,0:0:0:0:
192,192,172191,1,10,0:0:0:0:
448,192,172191,1,4,0:0:0:0:
192,192,172353,1,0,0:0:0:0:
64,192,172434,1,10,0:0:0:0:
320,192,172434,1,4,0:0:0:0:
320,192,172596,1,0,0:0:0:0:
192,192,172678,1,8,0:0:0:0:
448,192,172678,1,2,0:0:0:0:
320,192,172840,1,2,0:0:0:0:
448,192,172840,1,8,0:0:0:0:
192,192,172921,1,0,0:0:0:0:
320,192,173002,1,10,0:0:0:0:
192,192,173083,1,0,0:0:0:0:
64,192,173165,1,2,0:0:0:0:
448,192,173165,1,0,0:0:0:0:
320,192,173246,1,2,0:0:0:0:
448,192,173327,1,8,0:0:0:0:
192,192,173489,1,8,0:0:0:0:
320,192,173489,1,0,0:0:0:0:
448,192,173570,1,8,0:0:0:0:
192,192,173652,1,6,0:0:0:0:
64,192,173814,1,6,0:0:0:0:
320,192,173814,1,8,0:0:0:0:
320,192,173976,1,0,0:0:0:0:
192,192,174057,1,6,0:0:0:0:
448,192,174057,1,8,0:0:0:0:
192,192,174219,1,0,0:0:0:0:
64,192,174301,1,8,0:0:0:0:
320,192,174301,1,2,0:0:0:0:
64,192,174463,1,8,0:0:0:0:
192,192,174463,1,2,0:0:0:0:
320,192,174544,1,0,0:0:0:0:
192,192,174625,1,10,0:0:0:0:
320,192,174706,1,0,0:0:0:0:
64,192,174788,1,12,0:0:0:0:
448,192,174788,1,2,0:0:0:0:
448,192,174950,1,0,0:0:0:0:
192,192,175031,1,12,0:0:0:0:
320,192,175031,1,2,0:0:0:0:
192,192,175193,1,0,0:0:0:0:
64,192,175275,1,8,0:0:0:0:
448,192,175275,1,2,0:0:0:0:
64,192,175437,1,8,0:0:0:0:
192,192,175437,1,2,0:0:0:0:
448,192,175518,1,8,0:0:0:0:
192,192,175599,1,10,0:0:0:0:
448,192,175680,1,8,0:0:0:0:
64,192,175762,1,10,0:0:0:0:
320,192,175762,1,4,0:0:0:0:
320,192,175924,1,0,0:0:0:0:
192,192,176005,1,10,0:0:0:0:
448,192,176005,1,4,0:0:0:0:
192,192,176167,1,0,0:0:0:0:
64,192,176249,1,8,0:0:0:0:
320,192,176249,1,2,0:0:0:0:
64,192,176411,1,2,0:0:0:0:
192,192,176411,1,8,0:0:0:0:
320,192,176492,1,0,0:0:0:0:
192,192,176573,1,10,0:0:0:0:
320,192,176654,1,0,0:0:0:0:
64,192,176736,1,10,0:0:0:0:
448,192,176736,1,4,0:0:0:0:
192,192,176817,1,0,0:0:0:0:
64,192,176898,1,0,0:0:0:0:
192,192,177060,1,6,0:0:0:0:
320,192,177060,1,8,0:0:0:0:
64,192,177141,1,0,0:0:0:0:
320,192,177223,1,0,0:0:0:0:
64,192,177385,1,10,0:0:0:0:
192,192,177385,1,4,0:0:0:0:
448,192,177466,1,0,0:0:0:0:
320,192,177547,1,0,0:0:0:0:
192,192,177628,1,0,0:0:0:0:
320,192,177710,1,2,0:0:0:0:
448,192,177710,1,0,0:0:0:0:
320,192,178034,1,2,0:0:0:0:
448,192,178034,1,0,0:0:0:0:
192,192,178359,1,8,0:0:0:0:
448,192,178359,1,0,0:0:0:0:
320,192,178440,1,8,0:0:0:0:
192,192,178521,1,0,0:0:0:70:tom03.wav
448,192,178602,1,0,0:0:0:70:tom04.wav
64,192,178684,1,2,0:0:0:0:
192,192,178684,1,0,0:0:0:0:
64,192,179008,1,2,0:0:0:0:
192,192,179008,1,0,0:0:0:0:
64,192,179333,1,8,0:0:0:0:
320,192,179333,1,0,0:0:0:0:
192,192,179414,1,8,0:0:0:0:
320,192,179495,1,8,0:0:0:0:
192,192,179576,1,8,0:0:0:0:
320,192,179658,1,2,0:0:0:0:
448,192,179658,1,4,0:0:0:0:
448,192,179820,1,8,0:0:0:0:
192,192,179982,1,8,0:0:0:0:
320,192,179982,1,0,0:0:0:0:
320,192,180145,1,8,0:0:0:0:
64,192,180307,1,8,0:0:0:0:
448,192,180307,1,2,0:0:0:0:
192,192,180388,1,8,0:0:0:0:
64,192,180469,1,8,0:0:0:0:
192,192,180551,1,8,0:0:0:0:
320,192,180632,1,4,0:0:0:0:
448,192,180632,1,2,0:0:0:0:
448,192,180794,1,8,0:0:0:0:
192,192,180956,1,8,0:0:0:0:
320,192,180956,1,0,0:0:0:0:
320,192,181119,1,8,0:0:0:0:
64,192,181281,1,2,0:0:0:0:
448,192,181281,1,8,0:0:0:0:
192,192,181362,1,8,0:0:0:0:
64,192,181443,1,8,0:0:0:0:
192,192,181525,1,8,0:0:0:0:
320,192,181606,1,4,0:0:0:0:
448,192,181606,1,8,0:0:0:0:
448,192,181768,1,8,0:0:0:0:
192,192,181930,1,8,0:0:0:0:
320,192,181930,1,0,0:0:0:0:
320,192,182093,1,8,0:0:0:0:
64,192,182255,1,8,0:0:0:0:
448,192,182255,1,2,0:0:0:0:
192,192,182336,1,8,0:0:0:0:
64,192,182417,1,8,0:0:0:0:
192,192,182499,1,8,0:0:0:0:
448,192,182580,1,6,0:0:0:0:
64,192,182661,1,8,0:0:0:0:
448,192,182742,1,8,0:0:0:0:
64,192,182823,1,10,0:0:0:0:
320,192,182904,1,8,0:0:0:0:
192,192,182986,1,10,0:0:0:0:
320,192,183067,1,8,0:0:0:0:
192,192,183148,1,10,0:0:0:0:
64,192,183229,1,2,0:0:0:0:
448,192,183229,1,4,0:0:0:0:
64,192,183554,1,4,0:0:0:0:
320,192,183554,1,2,0:0:0:0:
448,192,183554,1,0,0:0:0:0:
448,192,188667,5,0,0:0:0:0:
320,192,188749,1,0,0:0:0:0:
64,192,188830,1,0,0:0:0:0:
192,192,188830,1,0,0:0:0:0:
