osu file format v14

[General]
AudioFilename: audio.mp3
AudioLeadIn: 0
PreviewTime: 45856
Countdown: 0
SampleSet: Soft
StackLeniency: 0.3
Mode: 0
LetterboxInBreaks: 0
WidescreenStoryboard: 1

[Editor]
DistanceSpacing: 0.75
BeatDivisor: 8
GridSize: 4
TimelineZoom: 1.6

[Metadata]
Title:Noxious
TitleUnicode:Noxious
Artist:Marmalade butcher
ArtistUnicode:Marmalade butcher
Creator:atlas-
Version:Seolv's Insane
Source:
Tags:featured artist fa math j-rock j rock instrumental alternative aeniko morrighan lugu omtereston seolv lukas [_l_u_k_a_s_] nyantiaz intiaz bluirre
BeatmapID:3356702
BeatmapSetID:1638116

[Difficulty]
HPDrainRate:5
CircleSize:3.5
OverallDifficulty:7
ApproachRate:9
SliderMultiplier:1.7
SliderTickRate:1

[Events]
//Background and Video events
0,0,"553275.jpg",0,0
//Break Periods
//Storyboard Layer 0 (Background)
//Storyboard Layer 1 (Fail)
//Storyboard Layer 2 (Pass)
//Storyboard Layer 3 (Foreground)
//Storyboard Layer 4 (Overlay)
//Storyboard Sound Samples

[TimingPoints]
622,315.789473684211,4,2,1,70,1,0
622,-100,4,2,1,35,0,0
938,315.789473684211,4,2,1,70,1,0
1569,-100,4,2,1,74,0,0
2201,-100,4,2,1,67,0,0
2516,-83.3333333333333,4,2,1,67,0,0
3464,-100,4,2,1,74,0,0
5359,-71.4285714285714,4,2,1,74,0,0
6306,-133.333333333333,4,2,1,70,0,0
6622,315.789473684211,4,2,1,74,1,0
7253,-100,4,2,1,70,0,0
7885,-100,4,2,1,74,0,0
8674,-100,4,2,1,70,0,0
9937,315.789473684211,4,2,1,64,1,0
9937,-100,4,2,1,64,0,0
14989,-100,4,2,1,70,0,0
17515,315.789473684211,4,2,1,68,1,0
17515,-100,4,2,1,68,0,0
21620,315.789473684211,4,2,1,68,1,0
25725,315.789473684211,4,2,1,68,1,0
29830,315.789473684211,4,2,1,70,1,0
33935,315.789473684211,4,2,1,58,1,0
37724,-100,4,2,1,70,0,0
38041,315.789473684211,3,2,1,76,1,0
41831,315.789473684211,4,2,1,68,1,0
41831,-83.3333333333333,4,2,1,68,0,0
42462,-66.6666666666667,4,2,1,72,0,0
43094,-71.4285714285714,4,2,1,72,0,0
43409,-62.5,4,2,1,72,0,0
44988,315.789473684211,4,2,1,50,1,0
45935,-66.6666666666667,4,2,1,60,0,0
46250,315.789473684211,3,2,1,84,1,0
46250,-83.3333333333333,3,2,1,84,0,0
53828,-83.3333333333333,3,2,1,88,0,0
61407,315.789473684211,4,2,1,75,1,0
61722,-181.818181818181,4,2,1,65,0,0
63933,-181.818181818181,4,2,1,75,0,0
64249,-133.333333333333,4,2,1,65,0,0
66459,-62.5,4,2,1,74,0,0
71354,-62.5,4,2,1,67,0,0
71512,-62.5,4,2,1,80,0,0
72775,-62.5,4,2,1,75,0,0

[Colours]
Combo1 : 132,215,255
Combo2 : 255,255,166
Combo3 : 255,157,157
Combo4 : 255,184,149

[HitObjects]
464,61,622,5,2,0:3:0:0:
470,74,938,2,0,P|428:80|386:90,1,85,2|2,1:2|0:0,0:0:0:0:
248,41,1253,2,0,P|238:24|241:-7,1,42.5,8|8,1:2|1:2,0:0:0:0:
261,39,1411,2,0,P|261:17|250:0,1,42.5,8|8,1:2|1:2,0:0:0:0:
304,108,1569,5,2,1:2:0:0:
319,143,1648,1,2,0:0:0:0:
323,191,1727,2,0,L|315:239,1,42.5,2|2,0:0|1:2,0:0:0:0:
304,267,1885,2,0,L|312:315,2,42.5,0|0|0,0:0|0:0|1:0,0:0:0:0:
182,356,2201,6,0,P|167:293|149:232,1,127.5,2|0,1:3|0:0,0:0:0:0:
212,185,2516,2,0,B|221:154|221:154|209:169,1,50.9999984436036,10|0,1:2|0:0,0:0:0:0:
223,262,2832,5,0,0:0:0:0:
149,232,2990,1,0,0:0:0:0:
77,209,3148,1,8,0:0:0:0:
76,200,3227,1,8,0:0:0:0:
75,191,3306,1,8,0:0:0:0:
74,182,3385,1,8,0:0:0:0:
74,171,3464,6,0,P|114:162|140:125,1,85,4|10,1:2|1:2,0:0:0:0:
201,11,3780,2,0,L|193:52,3,42.5,10|8|8|8,1:2|1:2|1:2|1:2,0:0:0:0:
204,69,4095,2,0,P|216:85|236:90,1,42.5,2|2,0:3|0:3,0:0:0:0:
265,127,4253,2,0,P|285:124|299:109,1,42.5,2|2,0:3|0:3,0:0:0:0:
340,106,4411,2,0,P|348:87|342:67,2,42.5,2|2|2,0:3|0:3|0:3,0:0:0:0:
301,246,4727,6,0,B|263:267|263:267|221:262,1,85,6|0,1:2|0:0,0:0:0:0:
387,364,5043,2,0,P|394:335|408:319,1,42.5,4|0,0:0|0:0,0:0:0:0:
413,352,5201,2,0,L|372:337,1,42.5
276,344,5359,6,0,L|250:168,1,178.499994552612,2|0,1:2|0:0,0:0:0:0:
170,168,5674,2,0,P|145:182|118:197,1,59.4999981842042,10|10,0:0|0:0,0:0:0:0:
223,324,5911,2,0,P|249:338|273:354,1,59.4999981842042,10|10,0:0|0:0,0:0:0:0:
340,206,6148,2,0,P|339:176|341:146,1,59.4999981842042,10|10,0:0|0:0,0:0:0:0:
299,271,6306,1,6,1:3:0:0:
299,270,6622,6,0,P|257:277|216:291,2,85,4|8|8,1:2|1:2|1:2,0:0:0:0:
470,342,7095,1,2,1:2:0:0:
470,342,7174,1,0,1:0:0:0:
470,342,7253,2,0,L|467:320,1,21.25,2|0,1:3|0:0,0:0:0:0:
299,270,7490,6,0,L|316:257,1,21.25,2|0,0:3|0:0,0:0:0:0:
230,109,7727,6,0,L|249:117,1,21.25,2|0,0:3|0:0,0:0:0:0:
271,128,7885,1,10,0:0:0:0:
228,140,7964,1,10,0:0:0:0:
185,158,8043,1,10,0:0:0:0:
143,179,8122,1,10,0:0:0:0:
109,201,8200,1,2,0:3:0:0:
208,339,8358,6,0,P|209:317|216:297,1,42.5,10|10,0:0|0:0,0:0:0:0:
194,335,8516,2,0,B|205:313|205:313|202:295,1,42.5,10|10,0:0|0:0,0:0:0:0:
161,384,8674,2,0,L|286:361,2,127.5,2|2|2,0:3|0:3|0:3,0:0:0:0:
91,348,9306,1,2,0:3:0:0:
286,361,9622,6,0,L|244:353,1,42.5,8|8,0:0|0:0,0:0:0:0:
162,381,9779,2,0,L|120:373,1,42.5,8|8,0:0|0:0,0:0:0:0:
20,384,9937,5,6,1:2:0:0:
0,327,10094,1,2,0:0:0:0:
18,307,10252,1,8,0:0:0:0:
123,258,10410,2,0,L|167:252,1,42.5,2|0,0:3|0:0,0:0:0:0:
169,241,10568,1,2,1:2:0:0:
35,173,10726,1,2,1:2:0:0:
28,193,10805,1,0,0:0:0:0:
49,185,10884,1,2,0:3:0:0:
125,170,11042,1,8,0:0:0:0:
125,137,11200,1,0,0:0:0:0:
141,45,11358,1,2,1:2:0:0:
106,2,11515,1,8,0:0:0:0:
72,10,11673,1,0,0:0:0:0:
272,37,11831,1,8,0:0:0:0:
272,37,11910,1,8,0:0:0:0:
272,37,11989,2,0,L|220:48,4,42.5,8|8|8|8|8,0:0|0:0|1:2|1:2|1:2,0:0:0:0:
354,147,12463,5,6,1:2:0:0:
337,85,12621,1,2,0:0:0:0:
355,66,12779,1,8,0:0:0:0:
469,22,12937,2,0,L|510:14,2,42.5,2|0|2,0:3|0:0|1:2,0:0:0:0:
478,82,13252,1,2,1:2:0:0:
492,97,13331,1,0,0:0:0:0:
512,97,13410,1,2,0:3:0:0:
426,200,13568,1,8,0:0:0:0:
374,173,13726,1,0,0:0:0:0:
245,236,13884,1,2,1:2:0:0:
261,342,14042,1,8,0:0:0:0:
310,358,14200,1,0,0:0:0:0:
361,286,14358,2,0,L|346:241,1,42.5,8|8,1:2|1:2,0:0:0:0:
326,222,14515,2,0,L|341:177,1,42.5,8|8,1:2|1:2,0:0:0:0:
374,173,14673,2,0,L|425:159,1,42.5,8|8,1:2|1:2,0:0:0:0:
434,126,14831,2,0,L|436:83,1,42.5,8|8,1:2|1:2,0:0:0:0:
342,17,14989,6,0,B|306:42|306:42|265:33,1,85,4|2,1:2|0:0,0:0:0:0:
169,89,15305,1,8,0:0:0:0:
352,31,15463,2,0,P|310:37|270:52,1,85,4|2,1:2|0:0,0:0:0:0:
169,89,15779,2,0,L|157:147,1,42.5,8|8,0:0|0:0,0:0:0:0:
172,135,15937,5,4,1:2:0:0:
144,49,16094,1,0,0:0:0:0:
35,16,16252,1,8,0:0:0:0:
117,198,16410,5,4,1:2:0:0:
238,191,16568,1,0,0:0:0:0:
289,127,16726,1,8,0:0:0:0:
358,22,16884,6,0,B|458:-10|455:96|521:72,1,170,2|0,1:2|0:0,0:0:0:0:
351,35,17515,6,0,P|434:49|511:85,1,170,0|10,1:2|0:0,0:0:0:0:
381,222,17988,1,2,1:2:0:0:
436,109,18146,2,0,P|450:148|454:191,1,85,2|8,0:3|0:0,0:0:0:0:
274,298,18462,2,0,L|460:265,1,170,10|10,0:0|0:0,0:0:0:0:
381,222,18936,1,0,1:2:0:0:
246,225,19093,1,10,0:0:0:0:
193,286,19251,2,0,P|172:345|107:346,1,127.5,0|0,1:2|0:0,0:0:0:0:
114,350,19567,1,2,0:3:0:0:
37,180,19725,6,0,P|46:221|51:263,1,85,10|0,0:0|1:2,0:0:0:0:
59,180,19962,1,0,1:2:0:0:
63,180,20041,2,0,B|51:221|51:221|75:273,1,85,0|10,1:2|0:0,0:0:0:0:
196,363,20357,2,0,P|155:354|113:349,1,85,2|0,0:3|1:2,0:0:0:0:
68,259,20672,2,0,P|130:248|191:230,1,127.5,8|0,0:0|1:0,0:0:0:0:
198,236,20988,2,0,L|207:194,1,42.5,2|0,1:2|0:0,0:0:0:0:
130,135,21146,2,0,L|120:93,1,42.5,2|0,0:0|0:0,0:0:0:0:
207,18,21304,1,10,0:0:0:0:
207,18,21383,1,8,0:0:0:0:
207,18,21462,1,8,0:0:0:0:
207,18,21541,1,8,0:0:0:0:
207,18,21620,6,0,L|291:26,1,85,6|0,1:2|1:0,0:0:0:0:
421,94,21935,1,8,0:0:0:0:
308,33,22093,2,0,P|247:49|201:93,1,127.5,0|0,1:0|0:0,0:0:0:0:
201,93,22409,1,8,0:0:0:0:
206,194,22567,2,0,L|269:257,1,85,0|0,0:0|1:2,0:0:0:0:
133,150,22883,2,0,L|46:173,1,85,10|0,0:0|1:0,0:0:0:0:
201,93,23198,2,0,L|224:6,1,85,8|0,0:0|1:0,0:0:0:0:
46,9,23514,2,0,B|42:26|42:26|55:46,1,42.5,0|0,1:0|0:0,0:0:0:0:
59,5,23672,2,0,B|72:25|72:25|68:42,1,42.5,2|0,1:3|0:0,0:0:0:0:
8,124,23830,6,0,P|60:130|141:152,1,127.5,10|0,0:0|1:0,0:0:0:0:
143,151,24146,2,0,L|134:205,1,42.5,0|0,1:2|0:0,0:0:0:0:
49,299,24304,1,8,0:0:0:0:
0,277,24462,2,0,P|39:260|80:249,1,85,2|0,0:3|1:0,0:0:0:0:
180,350,24777,1,8,0:0:0:0:
233,320,24935,1,0,1:0:0:0:
377,354,25093,1,10,0:0:0:0:
340,375,25251,1,0,1:0:0:0:
364,244,25409,1,8,0:0:0:0:
364,244,25488,1,8,0:0:0:0:
364,244,25567,2,0,L|374:189,1,42.5,8|8,0:0|0:0,0:0:0:0:
373,164,25725,6,0,B|347:183|347:183|274:181|213:214,1,170,0|10,1:2|0:0,0:0:0:0:
298,138,26198,1,2,1:2:0:0:
233,292,26356,2,0,P|191:296|157:272,1,85,2|8,0:3|0:0,0:0:0:0:
293,218,26672,2,0,P|272:300|261:384,1,170,10|10,0:0|0:0,0:0:0:0:
314,319,27146,1,0,1:2:0:0:
157,272,27303,1,10,0:0:0:0:
116,339,27461,2,0,P|107:275|93:213,1,127.5,0|0,1:2|0:0,0:0:0:0:
93,213,27777,1,2,0:3:0:0:
160,85,27935,6,0,P|201:94|243:99,1,85,10|0,0:0|1:2,0:0:0:0:
160,98,28172,1,0,1:2:0:0:
160,102,28251,2,0,B|201:90|201:90|253:114,1,85,0|10,1:2|0:0,0:0:0:0:
366,190,28567,2,0,P|323:194|282:204,1,85,2|0,0:3|1:2,0:0:0:0:
399,118,28882,2,0,P|410:180|428:241,1,127.5,8|0,0:0|1:0,0:0:0:0:
441,251,29198,2,0,L|432:293,1,42.5,2|0,1:2|0:0,0:0:0:0:
360,384,29356,2,0,L|350:342,1,42.5,2|0,0:0|0:0,0:0:0:0:
262,296,29514,1,10,0:0:0:0:
262,296,29593,1,10,0:0:0:0:
262,296,29672,1,10,0:0:0:0:
262,296,29751,1,10,0:0:0:0:
262,296,29830,6,0,L|174:311,1,85,6|0,1:2|1:0,0:0:0:0:
282,204,30145,1,8,0:0:0:0:
267,307,30303,2,0,L|141:285,1,127.5,0|0,1:0|0:0,0:0:0:0:
141,285,30619,1,8,0:0:0:0:
81,218,30777,2,0,P|63:179|59:137,1,85,2|0,0:3|1:0,0:0:0:0:
59,307,31093,2,0,P|34:341|0:366,1,85,8|0,0:0|1:0,0:0:0:0:
141,285,31408,2,0,P|183:289|221:306,1,85,2|0,0:3|1:0,0:0:0:0:
360,380,31724,2,0,B|350:332,1,42.5,0|0,1:0|0:0,0:0:0:0:
346,378,31882,2,0,B|333:358|333:358|337:341,1,42.5,8|0,2:0|0:0,0:0:0:0:
312,220,32040,6,0,B|280:200|280:200|268:110,1,127.5,10|0,0:0|1:0,0:0:0:0:
387,14,32356,2,0,L|378:68,1,42.5,2|0,0:3|0:0,0:0:0:0:
268,110,32514,1,8,0:0:0:0:
306,86,32672,2,0,L|222:71,1,85,2|0,0:3|1:0,0:0:0:0:
55,164,32987,6,0,B|76:175|76:175|195:149,1,127.5,8|0,0:0|0:0,0:0:0:0:
222,71,33303,2,0,B|233:92|233:92|207:211,1,127.5,8|0,0:0|0:0,0:0:0:0:
141,260,33619,2,0,L|133:218,1,42.5,8|8,1:2|1:2,0:0:0:0:
112,116,33777,2,0,L|104:74,1,42.5,8|8,1:2|1:2,0:0:0:0:
93,0,33935,5,4,0:0:0:0:
93,0,37724,6,0,L|89:23,1,21.25,2|0,1:3|0:0,0:0:0:0:
108,129,38041,6,0,P|147:114|189:108,1,85,14|2,0:0|0:0,0:0:0:0:
6,166,38356,1,2,1:2:0:0:
102,110,38515,2,0,B|143:119|143:119|179:94,1,85,14|2,0:0|0:0,0:0:0:0:
295,211,38831,2,0,L|237:199,1,42.5,2|0,1:2|0:0,0:0:0:0:
178,94,38989,5,12,0:0:0:0:
149,179,39146,1,0,1:0:0:0:
253,202,39304,1,12,0:0:0:0:
290,64,39462,1,12,0:0:0:0:
118,31,39620,1,12,0:0:0:0:
34,257,39935,6,0,B|57:295|57:295|48:334,1,85,14|2,0:0|0:0,0:0:0:0:
112,201,40251,1,2,1:2:0:0:
36,336,40409,2,0,P|14:300|18:258,1,85,14|2,0:0|0:0,0:0:0:0:
112,201,40725,1,2,1:2:0:0:
138,287,40883,5,12,0:0:0:0:
94,281,41041,1,0,1:0:0:0:
37,183,41198,1,12,0:0:0:0:
116,72,41356,1,12,0:0:0:0:
265,99,41514,1,12,0:0:0:0:
265,99,41830,6,0,L|252:14,1,85,2|2,1:3|1:3,0:0:0:0:
356,189,42146,6,0,B|361:214|361:214|348:244,1,50.9999984436036,8|8,0:0|0:0,0:0:0:0:
345,187,42304,2,0,B|334:210|334:210|339:235,1,50.9999984436036,8|8,0:0|0:0,0:0:0:0:
255,125,42462,6,0,B|263:67|263:67|261:63|261:63|272:-4,1,127.500004863739,4|4,1:2|1:2,0:0:0:0:
160,259,42778,6,0,P|144:231|147:200,1,63.7500024318696,10|10,1:2|1:2,0:0:0:0:
172,256,42936,2,0,P|174:224|159:197,1,63.7500024318696,10|10,1:2|1:2,0:0:0:0:
208,46,43094,6,0,P|267:47|326:51,1,118.999996368408,2|2,1:3|1:3,0:0:0:0:
280,337,43409,6,0,P|246:340|215:326,1,68,4|0,1:2|0:0,0:0:0:0:
277,346,43567,2,0,B|244:355|244:355|215:336,1,68,4|0,1:2|0:0,0:0:0:0:
285,182,43725,5,10,1:2:0:0:
292,198,43804,1,10,1:2:0:0:
288,212,43883,1,10,1:2:0:0:
292,229,43962,1,10,1:2:0:0:
293,242,44041,2,0,P|259:244|228:230,1,68,4|0,1:2|0:0,0:0:0:0:
289,250,44199,2,0,B|256:259|256:259|227:240,1,68,4|0,1:2|0:0,0:0:0:0:
210,81,44357,5,10,1:2:0:0:
222,74,44436,1,10,1:2:0:0:
256,80,44515,1,10,1:2:0:0:
290,74,44594,1,10,1:2:0:0:
302,81,44673,1,2,1:2:0:0:
256,0,44988,5,2,1:3:0:0:
256,0,45935,2,0,B|231:25|231:25|238:62|238:62|270:82|270:82|278:125|278:125|254:153,1,191.250007295609,2|0,1:3|0:0,0:0:0:0:
254,153,46250,6,0,L|153:135,1,101.999996887207,6|0,1:2|1:0,0:0:0:0:
329,115,46565,1,10,0:0:0:0:
274,233,46723,2,0,B|250:249|250:249|127:228,1,152.999995330811,2|0,1:2|0:0,0:0:0:0:
122,257,47039,2,0,L|111:207,1,50.9999984436036,10|0,0:0|0:0,0:0:0:0:
153,135,47197,2,0,L|142:85,1,50.9999984436036,2|0,1:2|0:0,0:0:0:0:
41,123,47513,6,0,B|33:139|33:139|72:128,1,50.9999984436036,10|0,0:0|0:0,0:0:0:0:
64,130,47671,1,2,1:2:0:0:
209,227,47828,2,0,B|201:211|201:211|240:222,1,50.9999984436036,10|0,0:0|0:0,0:0:0:0:
232,219,47986,1,0,1:2:0:0:
101,304,48144,6,0,B|93:295|93:295|113:198,1,101.999996887207,2|0,1:3|1:0,0:0:0:0:
142,85,48460,1,10,0:0:0:0:
229,58,48618,1,2,1:2:0:0:
262,102,48776,1,2,1:3:0:0:
209,227,48934,5,8,0:0:0:0:
175,172,49092,1,2,1:2:0:0:
197,143,49250,1,0,1:0:0:0:
329,31,49407,6,0,P|401:55|487:72,1,152.999995330811,10|0,0:0|1:2,0:0:0:0:
473,85,49723,2,0,P|400:60|325:45,1,152.999995330811,10|0,0:0|0:0,0:0:0:0:
318,31,50039,6,0,P|364:51|379:98,1,101.999996887207,2|0,1:3|1:0,0:0:0:0:
344,249,50355,1,10,0:0:0:0:
280,294,50513,1,2,1:2:0:0:
233,281,50671,1,2,1:3:0:0:
265,149,50828,5,10,0:0:0:0:
340,172,50986,1,2,1:3:0:0:
344,249,51144,1,0,1:0:0:0:
252,381,51302,6,0,P|243:330|232:280,1,101.999996887207,10|2,0:0|1:2,0:0:0:0:
124,179,51618,2,0,P|115:128|104:78,1,101.999996887207,10|2,0:0|1:2,0:0:0:0:
145,0,51934,6,0,B|59:9|79:89|4:87,1,152.999995330811,2|0,1:3|0:0,0:0:0:0:
17,72,52250,1,8,0:0:0:0:
104,78,52407,1,0,1:2:0:0:
150,106,52565,1,2,1:3:0:0:
277,27,52723,5,8,0:0:0:0:
386,111,52881,1,2,1:3:0:0:
320,216,53039,1,0,1:0:0:0:
268,142,53197,2,0,P|267:118|285:101,3,50.9999984436036,10|0|2|0,0:0|0:0|1:2|1:0,0:0:0:0:
286,93,53513,2,0,P|323:102|351:104,1,50.9999984436036,10|8,0:0|0:0,0:0:0:0:
402,192,53671,2,0,P|439:201|467:203,1,50.9999984436036,8|8,0:0|0:0,0:0:0:0:
512,136,53828,5,4,1:2:0:0:
485,58,53986,1,0,1:0:0:0:
485,58,54065,1,0,0:0:0:0:
485,58,54144,1,8,0:0:0:0:
485,214,54460,5,8,0:0:0:0:
512,136,54618,2,0,L|504:85,1,50.9999984436036,8|8,0:0|0:0,0:0:0:0:
403,17,54776,5,4,1:2:0:0:
323,60,54934,1,0,1:0:0:0:
323,60,55013,1,0,0:0:0:0:
323,60,55092,1,8,0:0:0:0:
387,106,55250,1,0,0:0:0:0:
247,149,55407,6,0,B|244:153|244:153|198:160,1,50.9999984436036,8|8,0:0|0:0,0:0:0:0:
182,190,55565,2,0,B|179:194|179:194|133:201,1,50.9999984436036,8|8,0:0|0:0,0:0:0:0:
95,187,55723,1,4,1:2:0:0:
219,266,55881,1,0,1:0:0:0:
97,336,56039,1,8,0:0:0:0:
138,251,56355,6,0,P|138:219|128:190,1,50.9999984436036,8|0,0:0|1:0,0:0:0:0:
174,131,56513,2,0,P|165:100|148:74,1,50.9999984436036,8|8,0:0|0:0,0:0:0:0:
67,62,56671,1,12,1:2:0:0:
67,62,56750,1,8,0:0:0:0:
67,62,56828,1,8,1:2:0:0:
67,62,56907,1,8,0:0:0:0:
67,62,56986,2,0,L|117:70,2,50.9999984436036,8|8|0,1:2|0:0|1:0,0:0:0:0:
269,16,57302,5,8,0:0:0:0:
342,46,57460,1,8,0:0:0:0:
279,97,57618,2,0,P|275:148|279:199,1,101.999996887207,6|6,1:2|1:2,0:0:0:0:
183,384,57934,2,0,P|186:333|182:282,1,101.999996887207,8|2,0:0|0:0,0:0:0:0:
294,316,58250,1,8,0:0:0:0:
192,188,58407,5,8,0:0:0:0:
192,188,58486,1,8,0:0:0:0:
192,188,58565,2,0,L|134:178,1,50.9999984436036,4|0,1:2|0:0,0:0:0:0:
108,152,58723,2,0,L|90:104,1,50.9999984436036,0|0,1:0|0:0,0:0:0:0:
154,57,58881,2,0,B|172:104|172:104|223:101,1,101.999996887207,8|2,0:0|0:0,0:0:0:0:
229,24,59197,1,10,0:0:0:0:
229,24,59276,1,8,0:0:0:0:
229,24,59355,1,8,0:0:0:0:
20,21,59513,6,0,L|9:83,3,50.9999984436036,4|0|0|0,1:2|0:0|1:0|0:0,0:0:0:0:
2,114,59828,2,0,L|28:172,3,50.9999984436036,4|0|2|0,1:2|0:0|0:0|0:0,0:0:0:0:
18,206,60144,2,0,L|65:186,1,50.9999984436036,8|0,0:0|0:0,0:0:0:0:
113,156,60302,2,0,L|160:176,1,50.9999984436036,8|8,0:0|0:0,0:0:0:0:
215,162,60460,1,4,1:2:0:0:
215,162,60539,1,8,0:0:0:0:
215,162,60618,1,4,0:0:0:0:
215,162,60697,1,0,0:0:0:0:
215,162,60776,1,0,1:0:0:0:
298,226,60934,2,0,B|334:220|334:220|355:208|355:208|412:207,2,101.999996887207,0|0|0,0:0|1:0|0:0,0:0:0:0:
203,342,61407,5,4,0:0:0:0:
203,342,61722,1,2,0:0:0:0:
197,333,61880,1,2,0:0:0:0:
163,284,62038,5,2,0:0:0:0:
169,276,62196,1,2,0:0:0:0:
205,229,62354,5,2,0:0:0:0:
215,232,62512,1,2,0:0:0:0:
270,252,62670,5,2,0:0:0:0:
270,262,62828,1,2,0:0:0:0:
269,322,62985,5,2,0:0:0:0:
259,325,63143,1,2,0:0:0:0:
203,342,63301,5,2,0:0:0:0:
197,333,63459,1,2,0:0:0:0:
163,284,63617,5,2,0:0:0:0:
169,276,63775,1,2,0:0:0:0:
369,251,63933,5,12,0:0:0:0:
371,265,64248,1,2,0:0:0:0:
369,251,64406,1,2,0:0:0:0:
363,180,64564,5,2,0:0:0:0:
374,176,64722,1,2,0:0:0:0:
439,150,64880,5,2,0:0:0:0:
448,158,65038,1,2,0:0:0:0:
493,211,65196,5,2,0:0:0:0:
487,222,65354,1,2,0:0:0:0:
450,282,65511,5,2,0:0:0:0:
437,280,65669,1,2,0:0:0:0:
371,265,65827,5,2,0:0:0:0:
369,251,65985,1,2,0:0:0:0:
272,116,66143,6,0,L|240:116,1,31.8750012159348,2|0,0:3|0:0,0:0:0:0:
256,36,66459,6,0,L|256:244,1,204,4|0,1:2|0:0,0:0:0:0:
257,256,66775,2,0,B|239:267|255:273|256:289|256:289|256:273|273:260|249:249,1,68,2|0,1:2|0:0,0:0:0:0:
256,368,66933,1,0,0:0:0:0:
168,256,67091,5,0,1:0:0:0:
212,272,67170,1,0,0:0:0:0:
256,240,67249,1,8,0:0:0:0:
300,272,67328,1,8,0:0:0:0:
344,256,67407,2,0,L|388:200,1,68,14|0,1:2|0:0,0:0:0:0:
332,128,67564,2,0,L|346:61,1,68,6|0,1:2|0:0,0:0:0:0:
256,172,67722,2,0,L|256:240,1,68,4|0,1:0|0:0,0:0:0:0:
180,128,67880,2,0,L|165:61,1,68,2|0,0:0|0:0,0:0:0:0:
125,202,68038,2,0,L|168:256,1,68,12|8,0:0|0:0,0:0:0:0:
220,348,68196,5,8,0:0:0:0:
220,348,68275,1,8,0:0:0:0:
220,348,68354,2,0,L|288:348,3,68,12|0|4|0,1:2|0:0|1:0|0:0,0:0:0:0:
256,368,68670,1,0,1:2:0:0:
292,36,68985,6,0,L|224:36,3,68,0|8|0|8,1:0|0:0|1:0|0:0,0:0:0:0:
256,16,69301,1,0,1:2:0:0:
288,200,69459,2,0,B|284:204|284:204|228:204|228:204|225:198,1,68,4|8,1:2|0:0,0:0:0:0:
256,112,69617,5,4,1:2:0:0:
256,116,69696,1,8,0:0:0:0:
256,120,69775,1,2,0:0:0:0:
364,244,69933,5,12,1:2:0:0:
192,328,70091,1,8,0:0:0:0:
192,328,70170,1,0,1:0:0:0:
192,328,70249,5,2,1:2:0:0:
320,328,70407,1,2,1:2:0:0:
320,328,70722,5,2,1:2:0:0:
148,244,70880,1,2,1:2:0:0:
256,128,71196,6,0,L|256:196,3,68,8|8|8|8,0:0|0:0|0:0|0:0,0:0:0:0:
228,112,71512,2,0,B|192:112|192:112|175:139,1,68,6|0,1:2|1:0,0:0:0:0:
284,272,71670,2,0,B|320:272|320:272|336:244,1,68,10|0,0:0|1:0,0:0:0:0:
256,196,71828,1,10,0:0:0:0:
192,24,72143,5,2,0:3:0:0:
208,28,72222,1,2,0:3:0:0:
224,32,72301,1,2,0:3:0:0:
240,36,72380,1,2,0:3:0:0:
272,36,72459,1,2,0:3:0:0:
288,32,72538,1,2,0:3:0:0:
304,28,72617,1,2,0:3:0:0:
320,24,72696,1,2,0:3:0:0:
292,12,72775,6,0,L|224:12,1,68,4|0,1:2|0:0,0:0:0:0:
