osu file format v14

[General]
AudioFilename: audio.mp3
AudioLeadIn: 0
PreviewTime: 45856
Countdown: 0
SampleSet: Soft
StackLeniency: 0.3
Mode: 0
LetterboxInBreaks: 0
WidescreenStoryboard: 1

[Editor]
DistanceSpacing: 0.8
BeatDivisor: 4
GridSize: 32
TimelineZoom: 1.6

[Metadata]
Title:Noxious
TitleUnicode:Noxious
Artist:Marmalade butcher
ArtistUnicode:Marmalade butcher
Creator:atlas-
Version:Morri's Hidden Expert
Source:
Tags:featured artist fa math j-rock j rock instrumental alternative aeniko morrighan lugu omtereston seolv lukas [_l_u_k_a_s_] nyantiaz intiaz bluirre
BeatmapID:3356020
BeatmapSetID:1638116

[Difficulty]
HPDrainRate:4
CircleSize:5
OverallDifficulty:8
ApproachRate:8
SliderMultiplier:1.9
SliderTickRate:1

[Events]
//Background and Video events
0,0,"553275.jpg",0,0
//Break Periods
2,34135,36974
//Storyboard Layer 0 (Background)
//Storyboard Layer 1 (Fail)
//Storyboard Layer 2 (Pass)
//Storyboard Layer 3 (Foreground)
//Storyboard Layer 4 (Overlay)
//Storyboard Sound Samples

[TimingPoints]
622,315.789473684211,4,2,1,35,1,0
938,315.789473684211,4,2,1,70,1,0
1569,-100,4,2,1,74,0,0
2201,-100,4,2,1,67,0,0
2516,-83.3333333333333,4,2,1,67,0,0
3464,-100,4,2,1,74,0,0
5359,-71.4285714285714,4,2,1,74,0,0
6306,-133.333333333333,4,2,1,70,0,0
6622,315.789473684211,4,2,1,74,1,0
7253,-100,4,2,1,70,0,0
7885,-100,4,2,1,74,0,0
8674,-100,4,2,1,70,0,0
9937,315.789473684211,4,2,1,64,1,0
9937,-100,4,2,1,64,0,0
14989,-100,4,2,1,70,0,0
17515,315.789473684211,4,2,1,68,1,0
17515,-100,4,2,1,68,0,0
21620,315.789473684211,4,2,1,68,1,0
25725,315.789473684211,4,2,1,68,1,0
29830,315.789473684211,4,2,1,70,1,0
33935,315.789473684211,4,2,1,58,1,0
37724,-100,4,2,1,70,0,0
38041,315.789473684211,3,2,1,76,1,0
41831,315.789473684211,4,2,1,68,1,0
41831,-83.3333333333333,4,2,1,68,0,0
42462,-100,4,2,1,72,0,0
43094,-71.4285714285714,4,2,1,72,0,0
43409,-62.5,4,2,1,72,0,0
44988,315.789473684211,4,2,1,50,1,0
45935,-100,4,2,1,60,0,0
46250,315.789473684211,3,2,1,84,1,0
46250,-76.9230769230769,3,2,1,84,0,0
50039,-71.4285714285714,3,2,1,84,0,0
53828,-71.4285714285714,3,2,1,88,0,0
55723,-66.6666666666667,3,2,1,88,0,0
57618,-71.4285714285714,3,2,1,88,0,0
61407,315.789473684211,4,2,1,75,1,0
61722,-181.818181818181,4,2,1,65,0,0
63933,-62.5,4,2,1,75,0,0
64249,-133.333333333333,4,2,1,65,0,0
66459,-133.333333333333,4,2,1,74,0,0
66775,-62.5,4,2,1,74,0,0
71354,-62.5,4,2,1,67,0,0
71512,-62.5,4,2,1,80,0,0
72775,-62.5,4,2,1,75,0,0

[Colours]
Combo1 : 132,215,255
Combo2 : 255,255,166
Combo3 : 255,157,157
Combo4 : 255,184,149

[HitObjects]
35,53,622,6,0,L|32:28,1,23.75,2|0,0:3|0:0,0:0:0:0:
507,29,938,5,2,1:2:0:0:
437,76,1095,1,2,0:0:0:0:
369,23,1253,1,8,1:2:0:0:
354,19,1332,1,8,1:2:0:0:
338,18,1411,1,8,1:2:0:0:
323,23,1490,1,8,1:2:0:0:
309,29,1569,6,0,L|302:76,3,47.5,2|2|2|2,1:2|0:0|0:0|1:2,0:0:0:0:
239,125,1885,5,0,0:0:0:0:
237,102,1964,1,0,0:0:0:0:
234,73,2043,1,0,1:0:0:0:
231,42,2122,1,0,0:0:0:0:
227,11,2201,6,0,P|195:23|182:33,1,47.5,2|0,1:3|0:0,0:0:0:0:
225,7,2359,2,0,P|193:19|180:29,1,47.5,2|0,1:3|0:0,0:0:0:0:
102,26,2516,6,0,B|107:60|107:60|168:136,1,113.999996520996,10|0,1:2|0:0,0:0:0:0:
12,49,2832,2,0,B|41:62|41:62|13:67,1,56.9999982604981
16,66,2990,2,0,B|41:62|41:62|12:49,1,56.9999982604981
30,33,3148,5,8,0:0:0:0:
28,56,3227,1,8,0:0:0:0:
25,85,3306,1,8,0:0:0:0:
22,116,3385,1,8,0:0:0:0:
18,147,3464,6,0,P|37:157|74:169,1,47.5,4|0,1:2|1:0,0:0:0:0:
125,129,3622,2,0,P|192:117|239:115,1,95,10|10,1:2|1:2,0:0:0:0:
242,129,3859,1,8,1:2:0:0:
242,129,3938,1,8,1:2:0:0:
96,69,4095,5,2,0:3:0:0:
125,98,4174,1,2,0:3:0:0:
160,118,4253,1,2,0:3:0:0:
200,127,4332,1,2,0:3:0:0:
242,129,4411,1,2,0:3:0:0:
245,144,4490,1,2,0:3:0:0:
249,161,4569,1,2,0:3:0:0:
252,177,4648,1,2,0:3:0:0:
256,191,4727,6,0,P|311:181|374:159,1,95,6|0,1:2|0:0,0:0:0:0:
407,126,5043,2,0,P|378:95|312:122,1,95,4|0,0:0|0:0,0:0:0:0:
480,165,5359,6,0,B|455:180|455:180|408:173|408:173|512:108,1,199.499993911743,2|0,1:2|0:0,0:0:0:0:
509,100,5674,5,10,0:0:0:0:
501,97,5753,1,10,0:0:0:0:
417,193,5911,5,10,0:0:0:0:
409,196,5990,1,10,0:0:0:0:
314,103,6148,5,10,0:0:0:0:
321,113,6227,1,10,0:0:0:0:
330,121,6306,6,0,P|334:176|344:258,1,106.875004076958,6|0,1:3|0:0,0:0:0:0:
347,238,6622,5,4,1:2:0:0:
397,323,6779,1,8,1:2:0:0:
447,232,6937,2,0,P|425:254|376:272,2,47.5,8|0|2,1:2|1:0|1:2,0:0:0:0:
330,305,7253,6,0,L|257:277,1,47.5,2|0,1:3|0:0,0:0:0:0:
226,303,7411,1,0,1:0:0:0:
226,303,7490,2,0,L|288:273,1,47.5,2|0,0:3|0:0,0:0:0:0:
273,222,7648,1,0,1:0:0:0:
273,222,7727,2,0,L|274:283,1,47.5,2|0,0:3|0:0,0:0:0:0:
274,280,7885,5,10,0:0:0:0:
201,235,8043,1,10,0:0:0:0:
185,241,8122,1,10,0:0:0:0:
171,252,8200,1,2,0:3:0:0:
112,325,8358,6,0,P|110:304|101:272,2,47.5,10|10|10,0:0|0:0|0:0,0:0:0:0:
51,362,8674,5,2,0:3:0:0:
55,368,8753,1,0,0:3:0:0:
32,272,8911,5,2,0:3:0:0:
36,280,8990,1,0,0:3:0:0:
89,203,9148,5,2,0:3:0:0:
87,215,9227,2,0,B|73:203|73:203|104:174,1,47.5,0|2,0:0|0:3,0:0:0:0:
92,41,9622,6,0,B|44:36,3,47.5,8|8|8|8,0:0|0:0|0:0|0:0,0:0:0:0:
34,34,9937,6,0,P|98:56|70:111,1,142.5,6|0,1:2|0:0,0:0:0:0:
61,108,10252,1,8,0:0:0:0:
138,151,10410,2,0,L|241:140,2,95,2|2|2,0:3|1:2|1:2,0:0:0:0:
128,161,10805,1,0,0:0:0:0:
128,161,10884,1,2,0:3:0:0:
195,69,11042,6,0,P|190:36|136:-1,1,95,8|0,0:0|0:0,0:0:0:0:
65,22,11358,1,2,1:2:0:0:
70,93,11515,2,0,L|112:72,2,47.5,8|0|0,0:0|0:0|0:0,0:0:0:0:
65,22,11831,5,8,0:0:0:0:
89,48,11910,1,8,0:0:0:0:
113,73,11989,1,8,0:0:0:0:
141,96,12068,1,8,0:0:0:0:
165,122,12147,2,0,L|204:159,1,47.5,8|8,1:2|1:2,0:0:0:0:
262,146,12305,2,0,L|322:152,1,47.5,8|8,1:2|1:2,0:0:0:0:
289,72,12463,6,0,P|225:94|253:149,1,142.5,6|0,1:2|0:0,0:0:0:0:
262,146,12778,1,8,0:0:0:0:
185,189,12936,2,0,L|82:178,2,95,2|2|2,0:3|1:2|1:2,0:0:0:0:
195,199,13331,1,0,0:0:0:0:
195,199,13410,1,2,0:3:0:0:
128,107,13568,6,0,P|133:74|187:37,1,95,8|0,0:0|0:0,0:0:0:0:
258,60,13884,1,2,1:2:0:0:
253,131,14042,2,0,L|210:110,2,47.5,8|0|0,0:0|0:0|0:0,0:0:0:0:
283,224,14358,5,8,1:2:0:0:
295,264,14437,1,8,1:2:0:0:
305,304,14515,2,0,B|263:284,1,47.5,8|8,1:2|1:2,0:0:0:0:
173,279,14673,5,8,1:2:0:0:
185,239,14752,1,8,1:2:0:0:
195,199,14831,2,0,B|153:219,1,47.5,8|8,1:2|1:2,0:0:0:0:
79,258,14989,5,4,1:2:0:0:
87,276,15147,1,2,0:0:0:0:
173,279,15305,1,8,0:0:0:0:
137,208,15463,5,4,1:2:0:0:
234,165,15621,1,2,0:0:0:0:
228,179,15779,1,8,0:0:0:0:
89,144,15937,5,4,1:2:0:0:
208,94,16095,1,0,0:0:0:0:
193,22,16253,1,8,0:0:0:0:
161,143,16410,5,4,1:2:0:0:
89,144,16568,1,0,0:0:0:0:
29,14,16726,1,8,0:0:0:0:
10,83,16884,6,0,P|56:80|104:20,2,95,2|0|0,1:2|0:0|0:0,0:0:0:0:
468,25,17515,6,0,P|432:81|421:116,1,95,0|0,1:2|1:2,0:0:0:0:
430,235,17830,2,0,P|472:210|482:168,1,95,10|2,0:0|1:2,0:0:0:0:
479,160,18067,1,0,1:2:0:0:
473,156,18146,1,2,0:3:0:0:
338,205,18304,2,0,P|326:160|350:121,2,95,8|10|0,0:0|0:0|1:2,0:0:0:0:
368,270,18778,2,0,P|327:240|236:210,1,142.5,10|0,0:0|0:0,0:0:0:0:
219,221,19093,1,10,0:0:0:0:
176,159,19251,1,0,1:2:0:0:
176,345,19409,5,0,1:2:0:0:
196,342,19567,1,2,0:3:0:0:
241,290,19725,2,0,P|258:284|258:337,1,95,10|0,0:0|1:2,0:0:0:0:
219,221,20041,2,0,P|299:223|345:268,1,142.5,0|0,1:2|0:0,0:0:0:0:
343,272,20357,2,0,P|364:314|412:333,1,95,2|0,0:3|1:2,0:0:0:0:
481,338,20672,1,8,0:0:0:0:
483,258,20830,1,0,1:2:0:0:
402,232,20988,5,2,1:2:0:0:
490,249,21146,1,2,0:0:0:0:
481,338,21304,1,10,0:0:0:0:
456,324,21383,1,8,0:0:0:0:
433,303,21462,1,8,0:0:0:0:
411,269,21541,1,8,0:0:0:0:
402,232,21620,6,0,P|420:188|462:162,1,95,6|0,1:2|1:0,0:0:0:0:
498,39,21935,2,0,B|474:38|474:38|498:115,1,95,8|0,0:0|1:0,0:0:0:0:
501,107,22172,1,0,1:0:0:0:
507,110,22251,1,2,0:3:0:0:
407,115,22409,2,0,B|391:129|391:129|468:167,1,95,8|0,0:0|0:0,0:0:0:0:
502,213,22725,1,0,1:2:0:0:
457,161,22883,5,10,0:0:0:0:
337,11,23041,1,0,1:0:0:0:
408,20,23198,1,8,0:0:0:0:
407,115,23356,2,0,B|399:129|399:129|312:146,2,95,0|0|2,1:0|1:0|1:3,0:0:0:0:
408,20,23830,5,10,0:0:0:0:
285,68,23988,1,0,1:0:0:0:
337,11,24146,1,0,1:2:0:0:
249,3,24304,1,8,0:0:0:0:
285,68,24462,1,2,0:3:0:0:
176,108,24620,1,0,1:0:0:0:
220,57,24777,1,8,0:0:0:0:
148,45,24935,1,0,1:0:0:0:
208,168,25093,6,0,L|111:191,1,95,10|0,0:0|1:0,0:0:0:0:
49,134,25409,1,8,0:0:0:0:
81,112,25488,1,8,0:0:0:0:
111,83,25567,1,8,0:0:0:0:
148,45,25646,1,8,0:0:0:0:
177,10,25725,6,0,P|213:66|224:101,1,95,0|0,1:2|1:2,0:0:0:0:
208,168,26040,2,0,P|250:191|292:179,1,95,10|2,0:0|1:2,0:0:0:0:
297,172,26277,1,0,1:2:0:0:
297,165,26356,1,2,0:3:0:0:
373,129,26514,2,0,P|385:174|361:213,2,95,8|10|0,0:0|0:0|1:2,0:0:0:0:
302,82,26988,2,0,P|343:52|434:22,1,142.5,10|0,0:0|0:0,0:0:0:0:
451,33,27303,1,10,0:0:0:0:
474,107,27461,1,0,1:2:0:0:
371,190,27619,5,0,1:2:0:0:
381,167,27777,1,2,0:3:0:0:
447,168,27935,2,0,P|425:242|396:245,1,95,10|0,0:0|1:2,0:0:0:0:
365,315,28251,2,0,P|312:328|245:239,1,142.5,0|0,1:2|0:0,0:0:0:0:
253,266,28567,2,0,P|224:215|167:203,1,95,2|0,0:3|1:2,0:0:0:0:
54,152,28882,1,8,0:0:0:0:
143,102,29040,1,0,1:2:0:0:
90,223,29198,5,2,1:2:0:0:
201,199,29356,1,2,0:0:0:0:
143,102,29514,1,10,0:0:0:0:
143,130,29593,1,10,0:0:0:0:
136,161,29672,1,10,0:0:0:0:
118,197,29751,1,10,0:0:0:0:
90,223,29830,6,0,P|42:229|0:206,1,95,6|0,1:2|1:0,0:0:0:0:
5,197,30066,1,0,0:0:0:0:
10,199,30145,2,0,P|27:257|30:301,1,95,8|0,0:0|1:0,0:0:0:0:
18,364,30461,1,2,0:3:0:0:
147,365,30619,2,0,P|133:308|86:294,1,95,8|2,0:0|0:3,0:0:0:0:
30,291,30935,1,0,1:0:0:0:
162,238,31093,6,0,P|206:227|257:220,1,95,8|0,0:0|1:0,0:0:0:0:
376,253,31408,1,2,0:3:0:0:
355,268,31487,1,0,0:0:0:0:
326,273,31566,1,0,1:0:0:0:
197,327,31724,1,0,1:0:0:0:
288,338,31882,1,8,2:0:0:0:
322,194,32040,1,10,0:0:0:0:
403,178,32198,1,0,1:0:0:0:
460,42,32356,5,2,0:3:0:0:
460,42,32435,1,0,0:0:0:0:
460,42,32514,1,8,0:0:0:0:
460,42,32593,1,0,0:0:0:0:
460,42,32672,2,0,B|472:65|472:65|461:146,1,95,2|0,0:3|1:0,0:0:0:0:
403,178,32987,1,8,0:0:0:0:
322,194,33145,1,8,0:0:0:0:
233,101,33303,2,0,P|281:74|346:124,1,142.5,8|0,0:0|0:0,0:0:0:0:
342,128,33619,5,8,1:2:0:0:
346,106,33698,1,8,1:2:0:0:
351,78,33777,1,8,1:2:0:0:
356,50,33856,1,8,1:2:0:0:
361,21,33935,5,4,0:0:0:0:
35,53,37724,6,0,L|32:28,1,23.75,2|0,1:3|0:0,0:0:0:0:
461,29,38040,5,14,0:0:0:0:
387,106,38198,1,2,0:0:0:0:
425,172,38356,1,2,1:2:0:0:
472,116,38514,5,14,0:0:0:0:
474,105,38593,1,0,0:0:0:0:
470,96,38672,1,2,0:0:0:0:
364,30,38830,1,2,1:2:0:0:
221,31,38988,5,12,0:0:0:0:
327,93,39146,1,0,1:0:0:0:
184,101,39304,5,12,0:0:0:0:
293,30,39462,1,12,0:0:0:0:
140,35,39619,6,0,B|124:36|124:36|80:90|63:160,1,142.5,12|0,0:0|0:0,0:0:0:0:
72,158,39935,5,14,0:0:0:0:
118,269,40093,1,2,0:0:0:0:
48,334,40251,1,2,1:2:0:0:
21,255,40409,5,14,0:0:0:0:
30,242,40488,1,0,0:0:0:0:
42,234,40567,1,2,0:0:0:0:
190,254,40725,1,2,1:2:0:0:
328,242,40883,5,12,0:0:0:0:
223,186,41041,1,0,1:0:0:0:
359,174,41198,5,12,0:0:0:0:
261,248,41356,1,12,0:0:0:0:
401,234,41514,6,0,B|417:233|417:233|461:179|478:109,1,142.5,12|0,0:0|0:0,0:0:0:0:
491,64,41831,6,0,B|462:77|462:77|490:82,1,56.9999982604981,2|0,1:3|0:0,0:0:0:0:
487,81,41989,2,0,B|462:77|462:77|491:64,1,56.9999982604981,2|0,1:3|0:0,0:0:0:0:
473,48,42147,5,8,0:0:0:0:
475,71,42226,1,8,0:0:0:0:
478,100,42305,1,8,0:0:0:0:
481,131,42384,1,8,0:0:0:0:
485,162,42463,6,0,P|466:172|431:187,1,47.5,4|0,1:2|0:0,0:0:0:0:
401,234,42620,2,0,B|379:215|379:215|375:193,1,47.5,4|0,1:2|0:0,0:0:0:0:
396,131,42778,5,10,1:2:0:0:
383,109,42857,1,10,1:2:0:0:
364,92,42936,1,10,1:2:0:0:
340,76,43015,1,10,1:2:0:0:
314,71,43094,6,0,B|303:106|303:106|276:68,1,66.4999979705811,2|0,1:3|0:0,0:0:0:0:
272,61,43252,2,0,B|282:23|282:23|310:62,1,66.4999979705811,2|0,1:3|0:0,0:0:0:0:
234,132,43409,6,0,B|227:142|227:142|162:119|85:118,2,152,4|4|10,1:2|1:2|1:2,0:0:0:0:
250,130,43804,1,10,1:2:0:0:
265,140,43883,1,10,1:2:0:0:
273,152,43962,1,10,1:2:0:0:
280,172,44041,2,0,B|287:182|287:182|352:159|429:158,2,152,4|4|10,1:2|1:2|1:2,0:0:0:0:
264,170,44436,1,10,1:2:0:0:
249,180,44515,1,10,1:2:0:0:
241,192,44594,1,10,1:2:0:0:
234,212,44673,6,0,B|234:240|234:240|191:288|169:359,2,152,2|2|2,1:2|1:2|1:3,0:0:0:0:
12,180,46250,6,0,P|96:162|114:63,1,185.249991519928,6|0,1:2|0:0,0:0:0:0:
111,77,46565,1,10,0:0:0:0:
12,180,46723,1,2,1:2:0:0:
60,182,46802,1,0,1:0:0:0:
98,213,46881,2,0,P|61:283|16:286,1,123.499994346619,0|10,1:0|0:0,0:0:0:0:
133,147,47197,2,0,P|194:158|278:190,1,123.499994346619,2|0,1:2|1:0,0:0:0:0:
311,206,47513,5,10,0:0:0:0:
193,157,47671,1,2,1:2:0:0:
98,213,47828,5,10,0:0:0:0:
252,177,47986,1,0,1:2:0:0:
229,103,48144,6,0,P|174:98|143:198,1,123.499994346619,2|0,1:3|1:0,0:0:0:0:
228,327,48460,2,0,P|209:261|164:223,1,123.499994346619,10|2,0:0|1:2,0:0:0:0:
163,229,48697,1,2,1:2:0:0:
160,236,48776,1,2,1:3:0:0:
34,260,48934,1,8,0:0:0:0:
99,367,49092,6,0,P|74:248|46:166,1,185.249991519928,2|0,1:2|0:0,0:0:0:0:
92,218,49407,2,0,P|106:122|133:24,1,185.249991519928,10|0,0:0|1:2,0:0:0:0:
146,23,49723,2,0,P|193:85|343:116,1,185.249991519928,10|0,0:0|0:0,0:0:0:0:
373,111,50039,2,0,P|331:39|264:56,1,132.999995941162,2|0,1:3|1:0,0:0:0:0:
197,114,50355,1,10,0:0:0:0:
206,142,50434,1,0,0:0:0:0:
223,169,50513,5,2,1:2:0:0:
226,54,50671,1,2,1:3:0:0:
178,0,50828,1,10,0:0:0:0:
96,118,50986,5,2,1:3:0:0:
155,215,51144,1,0,1:0:0:0:
141,280,51302,5,10,0:0:0:0:
276,328,51460,1,2,1:2:0:0:
313,384,51618,5,10,0:0:0:0:
463,364,51776,1,2,1:2:0:0:
511,238,51934,6,0,B|500:211|500:211|424:168|321:183,1,199.499993911743,2|0,1:3|0:0,0:0:0:0:
286,226,52250,5,8,0:0:0:0:
261,218,52328,1,0,0:0:0:0:
228,192,52407,1,0,1:2:0:0:
208,152,52486,1,0,1:2:0:0:
202,105,52565,1,2,1:3:0:0:
227,30,52723,1,8,0:0:0:0:
126,117,52881,6,0,B|225:136|221:231|286:226,1,199.499993911743,2|0,1:3|1:0,0:0:0:0:
297,235,53197,1,10,0:0:0:0:
296,235,53276,2,0,P|331:181|392:130,1,132.999995941162,0|0,0:0|1:0,0:0:0:0:
390,138,53513,5,10,0:0:0:0:
376,168,53592,1,8,0:0:0:0:
375,206,53671,1,8,0:0:0:0:
388,247,53750,1,8,0:0:0:0:
422,276,53828,5,4,1:2:0:0:
395,259,53907,1,0,0:0:0:0:
366,262,53986,1,0,1:0:0:0:
343,283,54065,1,0,0:0:0:0:
304,302,54144,1,8,0:0:0:0:
266,293,54223,1,0,0:0:0:0:
231,274,54302,2,0,P|146:259|77:258,1,132.999995941162,0|8,0:0|0:0,0:0:0:0:
0,186,54618,5,8,0:0:0:0:
13,168,54697,1,8,0:0:0:0:
23,172,54776,6,0,P|58:160|116:155,1,66.4999979705811,4|0,1:2|0:0,0:0:0:0:
160,165,54934,2,0,P|213:163|241:166,1,66.4999979705811,0|0,1:0|0:0,0:0:0:0:
320,197,55092,2,0,P|327:242|265:293,1,132.999995941162,8|0,0:0|0:0,0:0:0:0:
322,346,55407,5,8,0:0:0:0:
330,294,55486,1,8,0:0:0:0:
327,244,55565,1,8,0:0:0:0:
320,197,55644,1,8,0:0:0:0:
303,148,55723,6,0,P|291:62|317:21,1,71.2500027179719,4|0,1:2|0:0,0:0:0:0:
323,28,55881,2,0,B|313:22|313:22|453:51,1,142.500005435944,0|8,1:0|0:0,0:0:0:0:
490,96,56118,1,0,0:0:0:0:
490,96,56197,2,0,P|461:135|446:172,1,71.2500027179719,2|0,0:0|0:0,0:0:0:0:
473,217,56355,2,0,P|460:249|447:295,1,71.2500027179719,8|0,0:0|1:0,0:0:0:0:
450,352,56513,1,8,0:0:0:0:
456,368,56592,1,8,0:0:0:0:
473,366,56671,5,12,1:2:0:0:
464,346,56750,1,8,0:0:0:0:
440,321,56828,1,8,1:2:0:0:
404,306,56907,1,8,0:0:0:0:
361,301,56986,6,0,P|351:270|346:221,3,71.2500027179719,8|8|0|0,1:2|0:0|1:0|1:0,0:0:0:0:
287,205,57302,1,8,0:0:0:0:
268,206,57381,1,0,1:0:0:0:
252,207,57460,1,8,0:0:0:0:
235,207,57539,1,0,1:0:0:0:
222,209,57618,6,0,B|199:211|199:211|127:100,1,132.999995941162,6|6,1:2|1:2,0:0:0:0:
99,0,57934,2,0,B|114:-5|114:-5|193:19,1,66.4999979705811,8|0,0:0|0:0,0:0:0:0:
225,47,58092,1,2,0:0:0:0:
73,106,58250,1,8,0:0:0:0:
54,84,58328,1,0,0:0:0:0:
45,51,58407,1,8,0:0:0:0:
37,75,58486,1,8,0:0:0:0:
22,89,58565,6,0,P|57:100|99:121,1,66.4999979705811,4|0,1:2|0:0,0:0:0:0:
146,152,58723,2,0,P|181:142|223:136,1,66.4999979705811,0|0,1:0|0:0,0:0:0:0:
286,150,58881,2,0,P|314:133|349:116,1,66.4999979705811,8|0,0:0|0:0,0:0:0:0:
440,96,59039,1,2,0:0:0:0:
434,86,59118,1,0,0:0:0:0:
421,93,59197,5,10,0:0:0:0:
417,110,59276,1,8,0:0:0:0:
413,139,59355,1,8,0:0:0:0:
424,170,59434,1,8,0:0:0:0:
450,199,59513,5,4,1:2:0:0:
316,267,59671,1,0,1:0:0:0:
226,220,59828,1,4,1:2:0:0:
244,199,59907,1,0,0:0:0:0:
280,199,59986,1,2,0:0:0:0:
234,293,60144,5,8,0:0:0:0:
243,241,60223,1,0,0:0:0:0:
244,199,60302,1,8,0:0:0:0:
250,159,60381,1,8,0:0:0:0:
249,113,60460,6,0,B|243:98|243:98|191:83,1,66.4999979705811,4|8,1:2|0:0,0:0:0:0:
105,110,60618,2,0,B|111:125|111:125|155:158,1,66.4999979705811,4|0,0:0|0:0,0:0:0:0:
249,212,60776,2,0,B|253:196|253:196|231:146,1,66.4999979705811,0|0,1:0|0:0,0:0:0:0:
133,158,60934,2,0,B|123:170|123:170|131:227,1,66.4999979705811,0|0,1:0|0:0,0:0:0:0:
261,240,61092,2,0,B|263:255|263:255|241:306,1,66.4999979705811,0|0,1:0|0:0,0:0:0:0:
127,305,61250,2,0,B|117:292|117:292|107:235,1,66.4999979705811,0|0,1:0|0:0,0:0:0:0:
189,198,61407,5,4,0:0:0:0:
189,198,61722,6,0,L|260:185,13,52.2500015945435,2|2|2|2|2|2|2|2|2|2|2|2|2|2,0:0|0:0|0:0|0:0|0:0|0:0|0:0|0:0|0:0|0:0|0:0|0:0|0:0|0:0,0:0:0:0:
96,219,63933,6,0,B|109:203|109:203|332:240,1,228,12|0,0:0|0:0,0:0:0:0:
330,252,64249,6,0,B|341:279|341:279|342:337,1,71.2500027179719,2|2,0:0|0:0,0:0:0:0:
455,278,64564,6,0,B|437:254|437:254|387:225,2,71.2500027179719,2|2|2,0:0|0:0|0:0,0:0:0:0:
415,344,65038,6,0,B|441:354|441:354|484:355,6,71.2500027179719,2|2|2|2|2|2|2,0:0|0:0|0:0|0:0|0:0|0:0|0:0,0:0:0:0:
105,49,66143,5,2,0:3:0:0:
105,49,66459,5,4,1:2:0:0:
114,58,66538,1,0,0:0:0:0:
100,74,66617,1,6,1:2:0:0:
94,42,66696,1,0,0:0:0:0:
127,13,66775,2,0,B|145:23|145:23|322:68|322:68|348:112,1,228,2|0,1:2|0:0,0:0:0:0:
295,139,67091,5,0,1:0:0:0:
284,168,67170,1,0,0:0:0:0:
275,205,67249,1,8,0:0:0:0:
273,255,67328,1,8,0:0:0:0:
283,309,67407,1,14,1:2:0:0:
411,250,67564,2,0,B|397:236|397:236|325:220,1,76,6|0,1:2|0:0,0:0:0:0:
186,268,67722,6,0,P|271:256|363:132,1,228,4|0,1:0|0:0,0:0:0:0:
352,143,68038,1,12,0:0:0:0:
153,91,68196,1,8,0:0:0:0:
150,101,68275,1,8,0:0:0:0:
169,124,68354,5,12,1:2:0:0:
216,133,68433,1,0,0:0:0:0:
261,136,68512,1,4,1:0:0:0:
306,139,68591,1,0,0:0:0:0:
352,143,68670,2,0,B|371:138|371:138|396:25|396:25|386:11,1,152,0|0,1:2|0:0,0:0:0:0:
213,55,68985,5,0,1:0:0:0:
202,31,69064,1,8,0:0:0:0:
210,12,69143,1,0,1:0:0:0:
279,168,69301,5,0,1:2:0:0:
261,136,69380,1,0,1:0:0:0:
216,133,69459,1,4,1:2:0:0:
202,148,69538,1,8,0:0:0:0:
178,152,69617,5,4,1:2:0:0:
145,134,69696,1,8,0:0:0:0:
131,95,69775,2,0,B|115:100|115:100|82:154,1,76,2|0,0:0|1:0,0:0:0:0:
112,239,69933,2,0,P|49:169|-12:116,1,152,12|8,1:2|0:0,0:0:0:0:
2,136,70170,1,0,1:0:0:0:
1,143,70249,5,2,1:2:0:0:
15,252,70407,1,2,1:2:0:0:
35,75,70722,5,2,1:2:0:0:
14,240,70880,1,2,1:2:0:0:
306,338,71196,5,8,0:0:0:0:
306,338,71275,1,8,0:0:0:0:
306,338,71354,1,8,0:0:0:0:
306,338,71433,1,8,0:0:0:0:
306,338,71512,6,0,B|326:356|326:356|395:347,1,76,6|0,1:2|1:0,0:0:0:0:
485,316,71670,2,0,P|458:292|407:286,1,76,10|0,0:0|1:0,0:0:0:0:
374,349,71828,2,0,P|386:254|406:157,1,152,10|0,0:0|1:0,0:0:0:0:
413,76,72143,5,2,0:3:0:0:
424,67,72222,1,2,0:3:0:0:
433,74,72301,1,2,0:3:0:0:
432,86,72380,1,2,0:3:0:0:
421,94,72459,1,2,0:3:0:0:
407,91,72538,1,2,0:3:0:0:
402,80,72617,1,2,0:3:0:0:
408,68,72696,1,2,0:3:0:0:
419,64,72775,5,4,1:2:0:0:
