osu file format v14

[General]
AudioFilename: audio.mp3
AudioLeadIn: 0
PreviewTime: 45856
Countdown: 0
SampleSet: Soft
StackLeniency: 0.3
Mode: 0
LetterboxInBreaks: 0
WidescreenStoryboard: 1

[Editor]
DistanceSpacing: 0.75
BeatDivisor: 4
GridSize: 32
TimelineZoom: 1.6

[Metadata]
Title:Noxious
TitleUnicode:Noxious
Artist:Marmalade butcher
ArtistUnicode:Marmalade butcher
Creator:atlas-
Version:Lugu's Pernicious Extra
Source:
Tags:featured artist fa math j-rock j rock instrumental alternative aeniko morrighan lugu omtereston seolv lukas [_l_u_k_a_s_] nyantiaz intiaz bluirre
BeatmapID:3350672
BeatmapSetID:1638116

[Difficulty]
HPDrainRate:5.2
CircleSize:3.8
OverallDifficulty:8.6
ApproachRate:9
SliderMultiplier:1.96
SliderTickRate:1

[Events]
//Background and Video events
0,0,"553275.jpg",0,0
//Break Periods
//Storyboard Layer 0 (Background)
//Storyboard Layer 1 (Fail)
//Storyboard Layer 2 (Pass)
//Storyboard Layer 3 (Foreground)
//Storyboard Layer 4 (Overlay)
//Storyboard Sound Samples

[TimingPoints]
622,315.789473684211,4,2,1,35,1,0
938,315.789473684211,4,2,1,70,1,0
1569,-61.7283950617284,4,2,1,74,0,0
2201,-166.666666666667,4,2,1,67,0,0
3464,-61.7283950617284,4,2,1,74,0,0
6306,-400,4,2,1,70,0,0
6622,315.789473684211,4,2,1,74,1,0
7253,-71.4285714285714,4,2,1,70,0,0
7885,-71.4285714285714,4,2,1,74,0,0
8200,-90.9090909090909,4,2,1,74,0,0
8674,-76.9230769230769,4,2,1,70,0,0
9937,315.789473684211,4,2,1,64,1,0
14989,-100,4,2,1,70,0,0
17515,315.789473684211,4,2,1,68,1,0
21620,315.789473684211,4,2,1,68,1,0
25725,315.789473684211,4,2,1,68,1,0
29830,315.789473684211,4,2,1,70,1,0
30303,-80,4,2,1,70,0,0
30777,-100,4,2,1,70,0,0
32356,-66.6666666666667,4,2,1,70,0,0
32987,-100,4,2,1,70,0,0
33935,315.789473684211,4,2,1,58,1,0
33935,-166.666666666667,4,2,1,58,0,0
37724,-166.666666666667,4,2,1,70,0,0
38041,315.789473684211,3,2,1,76,1,0
38041,-83.3333333333333,3,2,1,76,0,0
41831,315.789473684211,4,2,1,68,1,0
41831,-50,4,2,1,68,0,0
42462,-57.1428571428571,4,2,1,72,0,0
43094,-50,4,2,1,72,0,0
43409,-57.1428571428571,4,2,1,72,0,0
44357,-100,4,2,1,72,0,0
44673,-57.1428571428571,4,2,1,72,0,0
44988,315.789473684211,4,2,1,50,1,0
45935,-57.1428571428571,4,2,1,60,0,0
46250,315.789473684211,3,2,1,84,1,0
47513,-200,3,2,1,84,0,0
47828,-66.6666666666667,3,2,1,84,0,0
48144,-83.3333333333333,3,2,1,84,0,0
52881,-68.9655172413793,3,2,1,84,0,0
53828,-68.9655172413793,3,2,1,88,0,0
53986,-100,3,2,1,88,0,0
54775,-71.4285714285714,3,2,1,88,0,0
55723,-50,4,2,1,88,0,0
56039,-50,3,2,1,88,0,0
57618,-62.5,3,2,1,88,0,0
58407,-133.333333333333,3,2,1,88,0,0
58565,-62.5,3,2,1,88,0,0
58723,-62.5,3,2,1,88,0,0
59671,-100,3,2,1,88,0,0
59828,-76.9230769230769,3,2,1,88,0,0
60618,-76.9230769230769,3,2,1,88,0,0
61407,315.789473684211,4,2,1,75,1,0
61722,-133.333333333333,4,2,1,65,0,0
63933,-100,4,2,1,75,0,0
64249,-200,4,2,1,65,0,0
66459,-200,4,2,1,74,0,0
66617,-100,4,2,1,74,0,0
66775,-66.6666666666667,4,2,1,74,0,0
67249,-100,4,2,1,74,0,0
67722,-66.6666666666667,4,2,1,74,0,0
68985,-100,4,2,1,74,0,0
69617,-66.6666666666667,4,2,1,74,0,0
71354,-500,4,2,1,67,0,0
71512,-80,4,2,1,80,0,0
72775,-80,4,2,1,75,0,0

[Colours]
Combo1 : 132,215,255
Combo2 : 255,255,166
Combo3 : 255,157,157
Combo4 : 255,184,149

[HitObjects]
66,368,938,5,2,1:2:0:0:
102,217,1095,1,2,0:0:0:0:
135,81,1253,1,8,1:2:0:0:
119,82,1332,1,8,1:2:0:0:
131,93,1411,1,8,1:2:0:0:
146,83,1490,1,8,1:2:0:0:
131,68,1569,6,0,B|92:83|92:83|113:140,1,79.3800019379883,2|2,1:2|0:0,0:0:0:0:
268,39,1727,1,2,0:0:0:0:
276,27,1806,2,0,B|307:37|307:37|273:112,1,79.3800019379883,2|0,1:2|0:0,0:0:0:0:
103,282,1964,1,0,0:0:0:0:
92,278,2043,2,0,B|72:246|72:246|113:206,1,79.3800019379883,0|0,1:0|0:0,0:0:0:0:
177,218,2201,6,0,L|184:286,2,58.7999982055664,2|2|10,1:3|1:3|1:2,0:0:0:0:
181,206,2832,5,0,0:0:0:0:
314,261,2990,1,0,0:0:0:0:
471,321,3148,5,8,0:0:0:0:
429,286,3227,1,8,0:0:0:0:
418,229,3306,1,8,0:0:0:0:
461,182,3385,1,8,0:0:0:0:
511,192,3464,6,0,P|460:198|410:215,1,79.3800019379883,4|0,1:2|1:0,0:0:0:0:
487,40,3622,2,0,P|448:49|409:53,1,79.3800019379883,10|0,1:2|1:0,0:0:0:0:
341,19,3780,6,0,P|301:15|263:5,1,79.3800019379883,10|8,1:2|1:2,0:0:0:0:
339,183,3938,2,0,P|300:173|261:169,1,79.3800019379883,8|8,1:2|1:2,0:0:0:0:
85,98,4095,5,2,0:3:0:0:
120,50,4174,1,2,0:3:0:0:
65,25,4253,1,2,0:3:0:0:
27,71,4332,1,2,0:3:0:0:
27,130,4411,5,2,0:3:0:0:
75,165,4490,1,2,0:3:0:0:
134,162,4569,1,2,0:3:0:0:
180,199,4648,1,2,0:3:0:0:
171,211,4727,5,6,1:2:0:0:
183,283,4885,1,0,0:0:0:0:
355,55,5043,5,4,0:0:0:0:
296,203,5201,1,0,0:0:0:0:
454,3,5359,6,0,B|468:113|468:113|485:98|485:98|499:203,1,238.140005813965,2|0,1:2|0:0,0:0:0:0:
452,268,5674,6,0,P|420:252|351:241,2,79.3800019379883,10|10|0,0:0|0:0|0:0,0:0:0:0:
291,356,5911,1,10,0:0:0:0:
276,353,5990,2,0,B|301:278|210:275|218:204,1,158.760003875977,10|10,0:0|0:0,0:0:0:0:
249,84,6227,1,10,0:0:0:0:
294,27,6306,6,0,P|312:33|331:34,1,36.75,6|0,1:3|0:0,0:0:0:0:
348,34,6622,5,4,1:2:0:0:
308,7,6700,1,0,1:0:0:0:
268,38,6779,1,8,1:2:0:0:
225,7,6858,1,0,1:0:0:0:
164,54,6937,5,8,1:2:0:0:
146,57,7016,1,0,1:0:0:0:
123,58,7095,1,2,1:2:0:0:
106,61,7174,1,0,1:0:0:0:
25,24,7253,6,0,P|34:73|39:119,1,68.5999979064942,2|0,1:3|0:0,0:0:0:0:
238,208,7411,5,0,1:0:0:0:
252,204,7490,2,0,P|245:170|240:136,1,68.5999979064942,2|0,0:3|0:0,0:0:0:0:
486,313,7648,5,0,1:0:0:0:
472,317,7727,2,0,P|478:350|483:384,1,68.5999979064942,2|0,0:3|0:0,0:0:0:0:
376,314,7885,5,10,0:0:0:0:
336,282,7964,1,10,0:0:0:0:
285,272,8043,1,10,0:0:0:0:
240,295,8122,1,10,0:0:0:0:
198,332,8200,6,0,P|145:346|79:360,1,107.800003289795,2|10,0:3|0:0,0:0:0:0:
0,164,8437,1,10,0:0:0:0:
27,134,8516,1,10,0:0:0:0:
67,131,8595,1,10,0:0:0:0:
134,157,8674,6,0,P|196:130|234:54,1,127.399994168091,2|0,0:3|0:0,0:0:0:0:
192,3,8911,2,0,L|211:149,1,127.399994168091,2|0,0:3|0:0,0:0:0:0:
270,374,9148,2,0,L|286:303,1,63.6999970840455,2|0,0:3|0:0,0:0:0:0:
346,124,9306,2,0,B|444:87|425:210|528:174,1,191.099991252137,2|0,0:3|0:0,0:0:0:0:
487,263,9622,5,8,0:0:0:0:
425,242,9700,1,8,0:0:0:0:
391,272,9779,1,8,0:0:0:0:
389,292,9858,1,8,0:0:0:0:
400,286,9937,6,0,P|404:335|412:391,1,98,6|2,1:2|0:0,0:0:0:0:
217,218,10252,1,8,0:0:0:0:
287,378,10410,2,0,P|292:305|316:177,1,196,2|2,0:3|1:2,0:0:0:0:
337,105,10805,1,0,0:0:0:0:
326,100,10884,2,0,P|277:107|240:155,1,98,2|8,0:3|0:0,0:0:0:0:
25,65,11200,5,0,0:0:0:0:
117,22,11358,2,0,P|118:78|111:141,1,98,2|8,1:2|0:0,0:0:0:0:
52,302,11673,1,0,0:0:0:0:
4,163,11831,5,8,0:0:0:0:
47,143,11910,1,8,0:0:0:0:
86,163,11989,1,8,0:0:0:0:
106,202,12068,1,8,0:0:0:0:
109,245,12147,1,8,1:2:0:0:
128,243,12226,1,8,1:2:0:0:
141,241,12305,1,8,1:2:0:0:
155,239,12384,1,8,1:2:0:0:
171,237,12463,6,0,P|178:288|189:345,1,98,6|2,1:2|0:0,0:0:0:0:
256,361,12700,1,0,0:0:0:0:
265,360,12779,1,8,0:0:0:0:
152,162,12937,2,0,P|158:133|169:101,1,49,2|0,0:3|0:0,0:0:0:0:
203,55,13094,5,2,1:2:0:0:
216,51,13173,1,0,0:0:0:0:
232,50,13252,1,2,1:2:0:0:
248,53,13331,1,0,0:0:0:0:
293,31,13410,1,2,0:3:0:0:
281,54,13489,1,0,0:0:0:0:
281,79,13568,1,8,0:0:0:0:
287,102,13647,1,0,0:0:0:0:
319,121,13726,5,0,0:0:0:0:
292,292,13884,1,2,1:2:0:0:
7,230,14042,5,8,0:0:0:0:
27,126,14200,1,0,0:0:0:0:
184,223,14358,5,8,1:2:0:0:
206,246,14437,1,8,1:2:0:0:
197,282,14515,1,8,1:2:0:0:
150,288,14594,1,8,1:2:0:0:
131,246,14673,1,8,1:2:0:0:
155,205,14752,1,8,1:2:0:0:
106,162,14831,1,8,1:2:0:0:
149,104,14910,1,8,1:2:0:0:
91,54,14989,6,0,P|105:122|135:265,1,196,4|8,1:2|0:0,0:0:0:0:
2,379,15463,1,4,1:2:0:0:
27,126,15621,2,0,P|7:179|-1:230,1,98,2|8,0:0|0:0,0:0:0:0:
156,365,15937,1,4,1:2:0:0:
259,146,16094,2,0,L|453:179,1,196,0|4,0:0|1:2,0:0:0:0:
470,165,16568,2,0,P|420:170|363:179,1,98,0|8,0:0|0:0,0:0:0:0:
95,381,16884,6,0,B|33:304|96:198|190:293|255:131|177:92,1,343,2|0,1:2|0:0,0:0:0:0:
183,95,17515,6,0,P|190:152|195:207,1,98,0|0,1:2|1:2,0:0:0:0:
44,73,17830,1,10,0:0:0:0:
350,10,17988,2,0,P|344:62|339:115,1,98,2|2,1:2|0:3,0:0:0:0:
186,371,18304,2,0,L|174:312,1,49,8|0,0:0|0:0,0:0:0:0:
236,269,18462,2,0,P|285:280|336:298,1,98,10|0,0:0|1:2,0:0:0:0:
512,59,18778,6,0,P|456:73|408:98,1,98,10|0,0:0|1:2,0:0:0:0:
223,32,19093,2,0,P|168:50|63:96,1,147,10|0,0:0|0:0,0:0:0:0:
67,80,19409,2,0,P|52:134|31:188,1,98,0|2,1:2|0:3,0:0:0:0:
206,384,19725,2,0,L|184:235,1,147,10|0,0:0|1:2,0:0:0:0:
196,222,20041,5,0,1:2:0:0:
343,152,20199,1,10,0:0:0:0:
319,268,20357,1,2,0:3:0:0:
121,348,20515,1,0,1:2:0:0:
281,202,20672,6,0,B|357:228|315:278|393:304,1,147,8|0,0:0|1:0,0:0:0:0:
401,298,20988,1,2,1:2:0:0:
164,205,21146,1,2,0:0:0:0:
361,54,21304,5,10,0:0:0:0:
379,53,21383,1,8,0:0:0:0:
362,68,21462,1,8,0:0:0:0:
344,52,21541,1,8,0:0:0:0:
363,34,21620,6,0,P|349:83|337:142,1,98,6|0,1:2|1:0,0:0:0:0:
147,326,21935,2,0,P|133:277|121:218,1,98,8|0,0:0|1:0,0:0:0:0:
69,46,22172,1,0,1:0:0:0:
62,44,22251,2,0,P|48:93|36:152,1,98,2|8,0:3|0:0,0:0:0:0:
209,112,22567,2,0,P|223:63|235:4,1,98,0|0,0:0|1:2,0:0:0:0:
500,152,22883,5,10,0:0:0:0:
441,202,23041,1,0,1:0:0:0:
366,171,23198,1,8,0:0:0:0:
365,88,23356,1,0,1:0:0:0:
118,223,23514,5,0,1:0:0:0:
281,384,23672,1,2,1:3:0:0:
283,66,23830,1,10,0:0:0:0:
431,237,23988,1,0,1:0:0:0:
416,239,24067,1,0,1:0:0:0:
401,248,24146,6,0,P|406:267|417:306,1,49,0|0,1:2|0:0,0:0:0:0:
376,360,24304,1,8,0:0:0:0:
229,136,24462,2,0,L|219:246,1,98,2|0,0:3|1:0,0:0:0:0:
283,66,24777,5,8,0:0:0:0:
505,226,24935,1,0,1:0:0:0:
233,205,25093,2,0,P|175:177|56:160,1,147,10|0,0:0|1:0,0:0:0:0:
16,325,25409,5,8,0:0:0:0:
76,334,25488,1,8,0:0:0:0:
106,278,25567,1,8,0:0:0:0:
74,229,25646,1,8,0:0:0:0:
15,247,25725,6,0,P|36:296|96:382,1,147,0|0,1:2|0:0,0:0:0:0:
47,156,26040,2,0,P|29:94|11:47,1,98,10|2,0:0|1:2,0:0:0:0:
225,198,26277,1,0,1:2:0:0:
233,205,26356,2,0,B|249:252|249:252|219:291,1,98,2|8,0:3|0:0,0:0:0:0:
269,365,26672,6,0,L|431:343,1,147,10|0,0:0|0:0,0:0:0:0:
512,143,26988,2,0,P|492:203|466:300,1,147,10|0,0:0|0:0,0:0:0:0:
233,205,27303,2,0,P|330:238|393:287,1,147,10|0,0:0|0:0,0:0:0:0:
187,145,27619,2,0,P|135:135|84:134,1,98,0|2,1:2|0:3,0:0:0:0:
416,22,27935,2,0,P|468:32|519:33,1,98,10|0,0:0|1:2,0:0:0:0:
351,70,28172,1,0,1:2:0:0:
342,62,28251,6,0,P|290:47|235:44,1,98,0|10,1:2|0:0,0:0:0:0:
25,205,28567,2,0,P|37:252|43:311,1,98,2|0,0:3|1:2,0:0:0:0:
243,371,28882,2,0,L|265:137,1,196,8|2,0:0|1:2,0:0:0:0:
235,160,29514,5,10,0:0:0:0:
198,224,29593,1,10,0:0:0:0:
261,263,29672,1,10,0:0:0:0:
210,315,29751,1,10,0:0:0:0:
259,373,29830,6,0,L|239:214,1,147,6|0,1:2|0:0,0:0:0:0:
312,197,30145,2,0,P|352:207|416:218,1,98,8|0,0:0|1:0,0:0:0:0:
167,24,30461,2,0,L|182:88,1,61.25,2|0,0:3|0:0,0:0:0:0:
128,138,30619,2,0,P|111:198|98:265,1,122.5,8|2,0:0|0:3,0:0:0:0:
296,77,30935,1,0,1:0:0:0:
0,10,31093,2,0,L|29:167,1,147,8|0,0:0|1:0,0:0:0:0:
8,347,31408,2,0,P|19:285|31:233,1,98,2|0,0:3|1:0,0:0:0:0:
212,137,31724,5,0,1:0:0:0:
413,216,31882,1,8,2:0:0:0:
287,338,32040,1,10,0:0:0:0:
105,250,32198,1,0,1:0:0:0:
344,83,32356,6,0,B|339:166|288:135|284:230,2,147.000005607605,2|8|2,0:3|0:0|0:3,0:0:0:0:
188,305,32830,1,0,1:0:0:0:
512,302,32987,6,0,B|431:287|463:219|394:212,1,147,8|0,0:0|0:0,0:0:0:0:
231,20,33303,2,0,P|254:90|270:189,1,147,8|0,0:0|0:0,0:0:0:0:
183,353,33619,1,8,1:2:0:0:
116,373,33698,1,8,1:2:0:0:
82,313,33777,1,8,1:2:0:0:
124,254,33856,1,8,1:2:0:0:
192,277,33935,6,0,P|223:285|297:327,1,117.599996411133,4|2,0:0|0:0,0:0:0:0:
179,186,34408,2,0,P|148:178|74:136,1,117.599996411133,2|2,0:0|0:0,0:0:0:0:
259,156,34882,1,2,0:0:0:0:
259,156,35040,1,2,0:0:0:0:
321,102,35198,6,0,P|310:61|291:32,1,58.7999982055665,2|0,0:0|0:0,0:0:0:0:
321,19,35513,2,0,L|308:147,2,117.599996411133,2|2|2,0:0|0:0|0:0,0:0:0:0:
471,141,36303,2,0,P|442:152|361:193,1,117.599996411133,2|2,0:0|0:0,0:0:0:0:
324,259,36777,2,0,P|336:293|352:323,2,58.7999982055665,2|2|2,0:0|0:0|0:0,0:0:0:0:
73,199,37408,1,2,0:0:0:0:
73,199,37724,6,0,P|88:243|95:294,1,88.1999973083497,2|0,1:3|0:0,0:0:0:0:
90,297,38041,5,14,0:0:0:0:
19,134,38198,1,2,0:0:0:0:
268,108,38356,1,2,1:2:0:0:
199,240,38514,5,14,0:0:0:0:
67,62,38672,1,2,0:0:0:0:
341,181,38830,1,2,1:2:0:0:
202,41,38988,5,12,0:0:0:0:
172,318,39146,1,0,1:0:0:0:
356,175,39304,6,0,P|348:141|335:105,1,58.7999982055665,12|0,0:0|0:0,0:0:0:0:
359,384,39462,2,0,P|349:356|343:327,1,58.7999982055665,12|0,0:0|0:0,0:0:0:0:
512,255,39619,2,0,B|427:272|434:180|337:214,1,176.399994616699,12|0,0:0|0:0,0:0:0:0:
285,259,39935,5,14,0:0:0:0:
505,124,40093,1,2,0:0:0:0:
221,39,40251,1,2,1:2:0:0:
329,101,40409,5,14,0:0:0:0:
496,13,40567,1,2,0:0:0:0:
312,79,40725,1,2,1:2:0:0:
440,262,40883,5,12,0:0:0:0:
394,8,41041,1,0,1:0:0:0:
106,106,41198,6,0,P|114:140|119:192,1,58.7999982055665,12|0,0:0|0:0,0:0:0:0:
206,255,41356,2,0,P|198:221|193:169,1,58.7999982055665,12|0,0:0|0:0,0:0:0:0:
180,62,41514,2,0,L|146:258,1,176.399994616699,12|0,0:0|0:0,0:0:0:0:
96,288,41830,5,2,1:3:0:0:
22,311,41988,1,2,1:3:0:0:
209,357,42146,5,8,0:0:0:0:
271,333,42225,1,8,0:0:0:0:
330,309,42304,1,8,0:0:0:0:
384,282,42383,1,8,0:0:0:0:
434,307,42462,5,4,1:2:0:0:
236,220,42620,1,4,1:2:0:0:
430,121,42778,1,10,1:2:0:0:
450,141,42857,1,10,1:2:0:0:
424,157,42936,1,10,1:2:0:0:
449,176,43015,1,10,1:2:0:0:
424,190,43094,6,0,P|384:192|308:212,1,98,2|0,1:3|0:0,0:0:0:0:
389,12,43252,2,0,P|341:23|292:26,1,98,2|0,1:3|0:0,0:0:0:0:
13,194,43409,5,4,1:2:0:0:
319,132,43567,1,4,1:2:0:0:
67,27,43725,5,10,1:2:0:0:
10,70,43804,1,10,1:2:0:0:
49,130,43883,1,10,1:2:0:0:
112,105,43962,1,10,1:2:0:0:
101,33,44041,5,4,1:2:0:0:
310,244,44199,1,4,1:2:0:0:
101,362,44357,5,10,1:2:0:0:
58,306,44436,1,10,1:2:0:0:
108,256,44515,1,10,1:2:0:0:
64,197,44594,1,10,1:2:0:0:
122,131,44673,2,0,P|80:270|50:393,1,257.250002453327,2|0,1:2|0:0,0:0:0:0:
36,367,44988,6,0,B|253:385|242:81|511:144,1,539,2|0,1:3|0:0,0:0:0:0:
496,154,45935,6,0,B|341:182|395:32|217:74,1,257.250002453327,2|0,1:3|0:0,0:0:0:0:
255,61,46250,6,0,P|259:114|268:189,1,98,6|0,1:2|1:0,0:0:0:0:
0,302,46565,1,10,0:0:0:0:
83,373,46724,2,0,P|86:313|88:258,1,98,2|0,1:2|1:0,0:0:0:0:
189,21,47039,1,10,0:0:0:0:
110,64,47197,5,2,1:2:0:0:
181,247,47355,1,0,1:0:0:0:
348,98,47513,1,10,0:0:0:0:
312,12,47671,1,2,1:2:0:0:
57,148,47828,2,0,P|146:157|295:189,1,220.500008411408,10|0,0:0|0:0,0:0:0:0:
347,202,48144,5,2,1:3:0:0:
125,334,48302,1,0,1:0:0:0:
481,362,48460,2,0,P|409:338|303:330,1,176.399994616699,10|2,0:0|1:2,0:0:0:0:
296,342,48776,2,0,P|352:332|426:325,1,117.599996411133,2|8,1:3|0:0,0:0:0:0:
101,102,49092,5,2,1:2:0:0:
141,168,49250,1,0,1:0:0:0:
411,19,49407,2,0,P|388:76|352:203,1,176.399994616699,10|0,0:0|1:2,0:0:0:0:
396,355,49723,2,0,L|378:170,1,176.399994616699,10|0,0:0|0:0,0:0:0:0:
247,132,50039,6,0,P|321:147|466:150,1,176.399994616699,2|0,1:3|0:0,0:0:0:0:
491,127,50355,1,10,0:0:0:0:
295,381,50513,2,0,P|293:348|289:315,1,58.7999982055665,2|0,1:2|0:0,0:0:0:0:
123,226,50671,1,2,1:3:0:0:
214,16,50828,1,10,0:0:0:0:
396,144,50986,5,2,1:3:0:0:
371,223,51144,1,0,1:0:0:0:
381,152,51302,1,10,0:0:0:0:
88,95,51460,5,2,1:2:0:0:
131,314,51618,1,10,0:0:0:0:
114,116,51776,1,2,1:2:0:0:
333,0,51934,6,0,P|313:63|303:129,1,117.599996411133,2|0,1:3|1:0,0:0:0:0:
472,381,52250,2,0,L|441:188,1,176.399994616699,8|0,0:0|1:2,0:0:0:0:
381,152,52565,1,2,1:3:0:0:
506,332,52723,1,8,0:0:0:0:
306,372,52881,6,0,P|291:245|202:83,2,284.200008673096,2|10|10,1:3|0:0|0:0,0:0:0:0:
0,249,53671,2,0,P|11:217|59:209,1,71.050002168274,8|8,0:0|0:0,0:0:0:0:
101,52,53828,6,0,L|74:288,1,213.150006504822,4|0,1:2|0:0,0:0:0:0:
215,368,54144,2,0,L|178:192,1,147,8|0,0:0|0:0,0:0:0:0:
230,56,54460,5,8,0:0:0:0:
273,102,54539,1,0,1:0:0:0:
322,66,54618,1,8,0:0:0:0:
358,116,54697,1,8,0:0:0:0:
414,78,54776,6,0,P|341:100|205:161,1,205.799993719483,4|0,1:2|0:0,0:0:0:0:
0,0,55092,2,0,L|217:51,1,205.799993719483,8|0,0:0|0:0,0:0:0:0:
138,206,55407,1,8,0:0:0:0:
99,252,55486,1,8,0:0:0:0:
59,211,55565,1,8,0:0:0:0:
31,256,55644,1,8,0:0:0:0:
3,207,55723,6,0,L|314:286,1,294,4|0,1:2|0:0,0:0:0:0:
451,373,56039,2,0,P|405:296|267:123,1,294,8|0,0:0|0:0,0:0:0:0:
39,14,56355,1,8,0:0:0:0:
80,65,56434,1,0,1:0:0:0:
137,29,56513,1,8,0:0:0:0:
174,88,56592,1,8,0:0:0:0:
228,45,56671,5,12,1:2:0:0:
258,96,56750,1,8,0:0:0:0:
321,106,56828,1,8,1:2:0:0:
340,78,56907,1,8,0:0:0:0:
380,66,56986,5,8,1:2:0:0:
425,118,57065,1,8,0:0:0:0:
375,170,57144,1,0,1:0:0:0:
310,142,57223,1,0,1:0:0:0:
276,186,57302,1,8,0:0:0:0:
460,383,57460,1,8,0:0:0:0:
467,352,57539,1,0,1:0:0:0:
479,327,57618,6,0,P|428:306|380:299,1,78.4,6|0,1:2|0:0,0:0:0:0:
512,236,57776,2,0,P|474:226|438:210,1,78.4,6|0,1:2|0:0,0:0:0:0:
425,118,57934,6,0,P|389:134|351:143,1,78.4,8|0,0:0|0:0,0:0:0:0:
339,359,58092,2,0,P|301:368|265:384,1,78.4,2|2,0:0|0:0,0:0:0:0:
181,346,58250,5,8,0:0:0:0:
128,333,58328,1,0,0:0:0:0:
72,323,58407,1,8,0:0:0:0:
28,311,58486,1,8,0:0:0:0:
10,321,58565,6,0,P|51:311|102:295,1,78.4,4|0,1:2|0:0,0:0:0:0:
0,219,58723,2,0,P|37:207|75:198,1,78.4,0|0,1:0|0:0,0:0:0:0:
139,138,58881,6,0,P|177:128|214:117,1,78.4,8|0,0:0|0:0,0:0:0:0:
148,344,59039,2,0,P|185:332|223:323,1,78.4,2|0,0:0|0:0,0:0:0:0:
308,364,59197,5,10,0:0:0:0:
326,304,59276,1,8,0:0:0:0:
345,245,59355,1,8,0:0:0:0:
356,179,59434,1,8,0:0:0:0:
380,172,59513,6,0,P|397:217|409:270,1,78.4,4|0,1:2|0:0,0:0:0:0:
420,101,59671,2,0,P|407:66|397:31,1,49,0|0,1:0|0:0,0:0:0:0:
512,379,59828,2,0,P|448:372|382:344,1,127.399994168091,4|2,1:2|0:0,0:0:0:0:
366,335,60065,1,0,0:0:0:0:
299,293,60144,2,0,P|288:327|278:380,1,63.6999970840455,8|0,0:0|0:0,0:0:0:0:
196,371,60302,2,0,P|207:337|217:284,1,63.6999970840455,8|8,0:0|0:0,0:0:0:0:
495,26,60460,6,0,B|428:184|344:22|288:215|288:215|350:167|352:269|423:195|423:195|381:172|363:111|400:37|400:37|356:-22|290:11|282:64,1,764.399965008547,4|4,1:2|0:0,0:0:0:0:
291,38,61722,6,0,P|297:84|306:126,1,73.5000028038026,2|2,0:0|0:0,0:0:0:0:
262,246,62038,2,0,P|256:200|247:158,1,73.5000028038026,2|2,0:0|0:0,0:0:0:0:
206,38,62354,2,0,P|200:84|191:126,1,73.5000028038026,2|2,0:0|0:0,0:0:0:0:
347,262,62670,2,0,P|353:216|362:174,1,73.5000028038026,2|2,0:0|0:0,0:0:0:0:
410,115,62985,2,0,P|445:141|470:172,1,73.5000028038026,2|2,0:0|0:0,0:0:0:0:
455,256,63301,2,0,P|448:292|443:328,1,73.5000028038026,2|2,0:0|0:0,0:0:0:0:
243,154,63617,2,0,P|238:190|231:226,1,73.5000028038026,2|2,0:0|0:0,0:0:0:0:
480,379,63933,6,0,P|436:335|324:303,1,147,12|0,0:0|0:0,0:0:0:0:
290,335,64249,2,0,P|256:346|230:353,1,49,2|2,0:0|0:0,0:0:0:0:
176,316,64564,2,0,P|146:322|119:322,1,49,2|2,0:0|0:0,0:0:0:0:
61,292,64880,2,0,P|48:320|41:349,1,49,2|2,0:0|0:0,0:0:0:0:
15,232,65196,2,0,P|28:208|36:184,1,49,2|2,0:0|0:0,0:0:0:0:
103,150,65512,2,0,P|126:162|153:185,1,49,2|2,0:0|0:0,0:0:0:0:
218,162,65828,2,0,P|244:183|277:195,1,49,2|2,0:0|0:0,0:0:0:0:
364,103,66143,6,0,L|356:30,1,73.5,2|0,0:3|0:0,0:0:0:0:
341,22,66459,5,4,1:2:0:0:
445,117,66617,1,6,1:2:0:0:
318,36,66775,2,0,B|203:30|262:164|142:162,1,220.500008411408,2|0,1:2|0:0,0:0:0:0:
93,127,67091,1,0,1:0:0:0:
88,117,67170,1,0,0:0:0:0:
89,106,67249,1,8,0:0:0:0:
95,94,67328,1,8,0:0:0:0:
107,83,67407,5,14,1:2:0:0:
107,153,67485,1,0,0:0:0:0:
73,213,67564,1,6,1:2:0:0:
10,240,67643,1,0,0:0:0:0:
3,228,67722,6,0,P|34:232|98:248,1,73.5000028038026,4|0,1:0|0:0,0:0:0:0:
16,152,67880,2,0,P|51:160|88:165,1,73.5000028038026,2|0,0:0|0:0,0:0:0:0:
159,129,68038,6,0,P|190:133|254:149,1,73.5000028038026,12|8,0:0|0:0,0:0:0:0:
123,301,68196,2,0,P|158:309|195:314,1,73.5000028038026,8|8,0:0|0:0,0:0:0:0:
309,112,68354,6,0,P|316:79|322:25,1,73.5000028038026,12|0,1:2|0:0,0:0:0:0:
275,312,68512,2,0,P|268:345|262:399,1,73.5000028038026,4|0,1:0|0:0,0:0:0:0:
512,242,68670,2,0,B|410:284|409:152|295:197,1,220.500008411408,0|0,1:2|0:0,0:0:0:0:
220,166,68985,5,0,1:0:0:0:
188,230,69064,1,8,0:0:0:0:
141,237,69143,1,0,1:0:0:0:
115,221,69222,1,8,0:0:0:0:
113,208,69301,2,0,P|119:173|127:141,3,49,0|0|4|8,1:2|1:0|1:2|0:0,0:0:0:0:
6,37,69617,6,0,L|255:94,1,220.500008411408,4|0,1:2|1:0,0:0:0:0:
270,217,69933,2,0,P|202:264|87:373,1,220.500008411408,12|0,1:2|1:0,0:0:0:0:
75,343,70249,5,2,1:2:0:0:
420,258,70407,1,2,1:2:0:0:
97,141,70722,5,2,1:2:0:0:
334,371,70880,1,2,1:2:0:0:
377,21,71196,5,8,0:0:0:0:
367,20,71275,1,8,0:0:0:0:
356,20,71354,1,8,0:0:0:0:
341,20,71433,1,8,0:0:0:0:
328,18,71512,6,0,P|323:58|321:104,1,61.25,6|0,1:2|1:0,0:0:0:0:
190,384,71670,2,0,P|195:344|197:298,1,61.25,10|0,0:0|1:0,0:0:0:0:
184,18,71828,6,0,P|189:58|191:104,1,61.25,10|8,0:0|0:0,0:0:0:0:
322,384,71986,2,0,P|317:344|315:298,1,61.25,0|8,1:0|0:0,0:0:0:0:
184,150,72143,5,2,0:3:0:0:
178,167,72222,1,2,0:3:0:0:
194,206,72301,1,2,0:3:0:0:
252,234,72380,1,2,0:3:0:0:
313,186,72459,1,2,0:3:0:0:
306,126,72538,1,2,0:3:0:0:
326,101,72617,1,2,0:3:0:0:
337,97,72696,1,2,0:3:0:0:
352,96,72775,6,0,P|345:157|328:356,1,245,4|0,1:2|0:0,0:0:0:0:
