osu file format v14

[General]
AudioFilename: audio.mp3
AudioLeadIn: 0
PreviewTime: 45856
Countdown: 0
SampleSet: Soft
StackLeniency: 0.3
Mode: 0
LetterboxInBreaks: 0
WidescreenStoryboard: 1

[Editor]
DistanceSpacing: 0.75
BeatDivisor: 4
GridSize: 16
TimelineZoom: 1.6

[Metadata]
Title:Noxious
TitleUnicode:Noxious
Artist:Marmalade butcher
ArtistUnicode:Marmalade butcher
Creator:atlas-
Version:Collab Hard
Source:
Tags:featured artist fa math j-rock j rock instrumental alternative aeniko morrighan lugu omtereston seolv lukas [_l_u_k_a_s_] nyantiaz intiaz bluirre
BeatmapID:3344068
BeatmapSetID:1638116

[Difficulty]
HPDrainRate:4
CircleSize:3.8
OverallDifficulty:6.5
ApproachRate:8
SliderMultiplier:1.9
SliderTickRate:1

[Events]
//Background and Video events
0,0,"553275.jpg",0,0
//Break Periods
2,34135,37292
//Storyboard Layer 0 (Background)
//Storyboard Layer 1 (Fail)
//Storyboard Layer 2 (Pass)
//Storyboard Layer 3 (Foreground)
//Storyboard Layer 4 (Overlay)
//Storyboard Sound Samples

[TimingPoints]
622,315.789473684211,4,2,1,35,1,0
938,315.789473684211,4,2,1,70,1,0
1569,-100,4,2,1,74,0,0
2201,-100,4,2,1,67,0,0
3464,-100,4,2,1,74,0,0
6306,-100,4,2,1,70,0,0
6622,315.789473684211,4,2,1,74,1,0
7253,-100,4,2,1,70,0,0
7885,-100,4,2,1,74,0,0
8674,-100,4,2,1,70,0,0
9937,315.789473684211,4,2,1,64,1,0
9937,-133.333333333333,4,2,1,64,0,0
14989,-133.333333333333,4,2,1,70,0,0
17515,315.789473684211,4,2,1,68,1,0
17515,-133.333333333333,4,2,1,68,0,0
21620,315.789473684211,4,2,1,68,1,0
21620,-133.333333333333,4,2,1,68,0,0
25725,315.789473684211,4,2,1,68,1,0
25725,-133.333333333333,4,2,1,68,0,0
29830,315.789473684211,4,2,1,70,1,0
30777,-133.333333333333,4,2,1,70,0,0
33935,315.789473684211,4,2,1,58,1,0
37724,-100,4,2,1,70,0,0
38041,315.789473684211,3,2,1,76,1,0
41831,315.789473684211,4,2,1,68,1,0
42462,-100,4,2,1,72,0,0
44988,315.789473684211,4,2,1,50,1,0
45935,-133.333333333333,4,2,1,60,0,0
46250,315.789473684211,3,2,1,84,1,0
53828,-100,3,2,1,88,0,0
61407,315.789473684211,4,2,1,75,1,0
61722,-333.333333333333,4,2,1,65,0,0
63933,-333.333333333333,4,2,1,75,0,0
64249,-333.333333333333,4,2,1,65,0,0
66459,-100,4,2,1,74,0,0
71354,-100,4,2,1,67,0,0
71512,-100,4,2,1,80,0,0
72459,-133.333333333333,4,2,1,80,0,0
72775,-100,4,2,1,75,0,0

[Colours]
Combo1 : 132,215,255
Combo2 : 255,255,166
Combo3 : 255,157,157
Combo4 : 255,184,149

[HitObjects]
56,364,938,6,0,L|41:254,1,95,2|2,1:2|0:0,0:0:0:0:
150,155,1253,2,0,L|135:265,1,95,8|0,1:2|0:0,0:0:0:0:
214,300,1569,6,0,B|230:307|230:307|273:295,3,47.5,2|2|2|2,1:2|0:0|0:0|1:2,0:0:0:0:
291,280,1885,2,0,B|307:273|307:273|350:285,3,47.5,0|0|0|0,0:0|0:0|1:0|0:0,0:0:0:0:
379,272,2201,5,2,1:3:0:0:
410,204,2359,1,2,1:3:0:0:
344,165,2516,1,10,1:2:0:0:
186,42,2832,6,0,L|286:27,2,95,0|0|8,0:0|0:0|0:0,0:0:0:0:
153,59,3227,1,8,0:0:0:0:
153,59,3306,2,0,P|148:111|146:121,1,47.5,8|8,0:0|0:0,0:0:0:0:
121,134,3464,6,0,P|130:180|136:227,1,95,4|10,1:2|1:2,0:0:0:0:
196,291,3780,2,0,P|186:337|180:384,1,95,10|0,1:2|0:0,0:0:0:0:
62,377,4095,6,0,P|50:316|48:310,3,47.5,2|2|2|2,0:3|0:3|0:3|0:3,0:0:0:0:
75,294,4411,2,0,P|87:233|89:227,3,47.5,2|2|2|2,0:3|0:3|0:3|0:3,0:0:0:0:
98,207,4727,6,0,P|171:236|179:259,1,95,6|0,1:2|0:0,0:0:0:0:
247,310,5043,2,0,P|320:281|327:261,1,95,4|0,0:0|0:0,0:0:0:0:
407,309,5359,2,0,P|412:242|428:139,1,142.5,2|0,1:2|0:0,0:0:0:0:
426,141,5674,6,0,B|387:127|364:150|372:162|337:194|278:163,2,142.5,10|10|10,0:0|0:0|0:0,0:0:0:0:
503,192,6306,1,6,1:3:0:0:
314,87,6622,6,0,P|261:67|217:65,1,95,4|8,1:2|1:2,0:0:0:0:
155,14,6937,2,0,P|111:32|64:36,1,95,8|2,1:2|1:2,0:0:0:0:
4,154,7253,2,0,P|63:126|167:115,2,142.5,2|2|2,1:3|0:3|0:3,0:0:0:0:
17,274,7885,6,0,P|31:308|25:332,4,47.5,10|10|10|10|2,0:0|0:0|0:0|0:0|0:3,0:0:0:0:
138,325,8358,2,0,P|124:359|130:383,2,47.5,10|10|10,0:0|0:0|0:0,0:0:0:0:
214,257,8674,2,0,L|378:269,1,142.5,2|2,0:3|0:3,0:0:0:0:
486,364,9148,2,0,L|447:357,1,95,2|2,0:3|0:3,0:0:0:0:
487,208,9622,6,0,P|475:156|473:146,3,47.5,8|8|8|8,0:0|0:0|0:0|0:0,0:0:0:0:
470,145,9937,6,0,P|434:153|384:160,1,71.2500027179719,6|2,1:2|0:0,0:0:0:0:
338,96,10252,2,0,P|302:88|252:81,1,71.2500027179719,8|2,0:0|0:3,0:0:0:0:
201,39,10568,1,2,1:2:0:0:
201,39,10726,1,2,1:2:0:0:
161,110,10884,2,0,P|162:160|184:193,1,71.2500027179719,2|8,0:3|0:0,0:0:0:0:
225,241,11200,2,0,P|224:291|202:324,1,71.2500027179719,0|2,0:0|1:2,0:0:0:0:
121,280,11515,1,8,0:0:0:0:
121,280,11831,6,0,B|108:299|108:299|116:332,3,35.625001358986,8|8|8|8,0:0|0:0|0:0|0:0,0:0:0:0:
99,332,12147,2,0,B|86:351|86:351|94:384,3,35.625001358986,8|8|8|8,1:2|1:2|1:2|1:2,0:0:0:0:
99,373,12463,6,0,P|136:378|175:344,1,71.2500027179719,6|2,1:2|0:0,0:0:0:0:
232,296,12779,2,0,P|267:310|284:359,1,71.2500027179719,8|2,0:0|0:3,0:0:0:0:
359,367,13094,1,2,1:2:0:0:
359,367,13252,1,2,1:2:0:0:
416,312,13410,2,0,L|403:220,1,71.2500027179719,2|8,0:3|0:0,0:0:0:0:
381,158,13726,2,0,L|394:66,1,71.2500027179719,0|2,0:0|1:2,0:0:0:0:
473,28,14042,1,8,0:0:0:0:
303,100,14358,6,0,P|261:91|257:91,3,35.625001358986,8|8|8|8,1:2|1:2|1:2|1:2,0:0:0:0:
257,70,14673,2,0,P|215:79|211:79,3,35.625001358986,8|8|8|8,1:2|1:2|1:2|1:2,0:0:0:0:
205,90,14989,6,0,B|182:101|182:101|171:165,2,71.2500027179719,4|2|8,1:2|0:0|0:0,0:0:0:0:
126,26,15463,2,0,B|102:18|102:18|49:55,2,71.2500027179719,4|2|8,1:2|0:0|0:0,0:0:0:0:
90,125,15937,6,0,B|67:136|67:136|56:200,2,71.2500027179719,4|0|8,1:2|0:0|0:0,0:0:0:0:
177,236,16411,2,0,B|168:260|168:260|205:313,2,71.2500027179719,4|0|8,1:2|0:0|0:0,0:0:0:0:
326,230,16884,5,2,1:2:0:0:
307,212,17515,6,0,P|294:154|284:88,1,106.875004076958,0|0,1:2|0:0,0:0:0:0:
298,72,17830,1,10,0:0:0:0:
371,29,17988,1,2,1:2:0:0:
465,74,18146,2,0,P|475:120|483:167,1,71.2500027179719,0|8,0:0|0:0,0:0:0:0:
473,232,18462,2,0,P|424:216|403:177,1,71.2500027179719,10|0,0:0|1:2,0:0:0:0:
296,173,18778,2,0,L|150:160,1,142.500005435944,10|10,0:0|0:0,0:0:0:0:
71,240,19251,1,0,1:2:0:0:
71,240,19409,6,0,L|175:250,1,71.2500027179719,0|2,1:2|0:3,0:0:0:0:
163,320,19725,2,0,L|267:330,1,71.2500027179719,10|0,0:0|1:2,0:0:0:0:
279,250,20041,6,0,L|383:240,1,71.2500027179719,0|10,1:2|0:0,0:0:0:0:
408,317,20357,2,0,L|512:307,1,71.2500027179719,2|0,0:3|1:2,0:0:0:0:
512,227,20672,6,0,P|503:175|494:60,1,142.500005435944,8|2,0:0|1:2,0:0:0:0:
390,16,21146,1,2,0:0:0:0:
390,16,21304,2,0,P|356:19|322:20,3,35.625001358986,10|8|8|8,0:0|0:0|0:0|0:0,0:0:0:0:
324,22,21620,6,0,P|280:54|278:99,1,71.2500027179719,6|0,1:2|1:0,0:0:0:0:
258,160,21935,1,8,0:0:0:0:
170,188,22093,2,0,P|159:138|153:21,1,142.500005435944,0|8,1:0|0:0,0:0:0:0:
52,0,22567,2,0,P|47:76|32:152,1,142.500005435944,0|10,0:0|0:0,0:0:0:0:
24,237,23041,5,0,1:0:0:0:
24,237,23198,2,0,P|75:267|110:264,1,71.2500027179719,8|0,0:0|1:0,0:0:0:0:
165,283,23514,2,0,P|216:252|251:255,1,71.2500027179719,0|2,1:0|1:3,0:0:0:0:
307,294,23830,2,0,P|358:324|393:321,1,71.2500027179719,10|0,0:0|1:0,0:0:0:0:
452,309,24146,2,0,P|454:259|461:192,1,106.875004076958,0|0,1:2|0:0,0:0:0:0:
463,184,24462,2,0,P|461:137|455:90,1,71.2500027179719,2|0,0:3|1:0,0:0:0:0:
444,28,24777,5,8,0:0:0:0:
444,28,24935,1,0,1:0:0:0:
335,0,25093,2,0,L|241:12,1,71.2500027179719,10|0,0:0|1:0,0:0:0:0:
190,34,25409,5,8,0:0:0:0:
182,37,25488,1,8,0:0:0:0:
171,43,25567,2,0,L|156:95,1,35.625001358986,8|8,0:0|0:0,0:0:0:0:
147,107,25725,6,0,P|134:153|133:194,1,71.2500027179719,0|0,1:2|1:2,0:0:0:0:
181,252,26040,1,10,0:0:0:0:
251,177,26198,6,0,P|264:226|265:268,1,71.2500027179719,2|0,1:2|0:0,0:0:0:0:
263,323,26514,1,8,0:0:0:0:
342,348,26672,6,0,L|442:355,1,71.2500027179719,10|0,0:0|1:2,0:0:0:0:
502,368,26988,5,10,0:0:0:0:
502,368,27146,1,0,1:2:0:0:
512,284,27303,2,0,P|470:245|425:245,1,71.2500027179719,10|0,0:0|1:2,0:0:0:0:
397,176,27619,2,0,P|355:215|310:215,1,71.2500027179719,0|2,1:2|0:3,0:0:0:0:
284,156,27935,1,10,0:0:0:0:
314,76,28093,1,0,1:2:0:0:
245,32,28251,6,0,P|178:25|143:20,1,71.2500027179719,0|10,1:2|0:0,0:0:0:0:
96,115,28567,2,0,P|138:108|180:106,1,71.2500027179719,2|0,0:3|1:2,0:0:0:0:
239,175,28882,6,0,P|245:234|250:265,1,71.2500027179719,8|0,0:0|1:2,0:0:0:0:
154,319,29198,2,0,P|160:271|163:224,1,71.2500027179719,2|2,1:2|0:0,0:0:0:0:
85,106,29514,6,0,P|77:158|72:168,3,35.625001358986,10|10|10|10,0:0|0:0|0:0|0:0,0:0:0:0:
74,169,29830,6,0,B|107:279|8:239|38:357,1,190,6|8,1:2|0:0,0:0:0:0:
138,380,30303,2,0,B|105:270|204:310|174:192,1,190,0|8,1:0|0:0,0:0:0:0:
170,113,30777,2,0,P|212:122|251:102,1,71.2500027179719,2|0,0:3|1:0,0:0:0:0:
368,114,31093,2,0,P|332:129|308:185,1,71.2500027179719,8|0,0:0|1:0,0:0:0:0:
382,275,31408,2,0,P|384:225|390:177,1,71.2500027179719,2|0,0:3|1:0,0:0:0:0:
470,150,31724,1,0,1:0:0:0:
470,150,31882,1,8,2:0:0:0:
499,239,32040,6,0,P|503:286|506:333,1,71.2500027179719,10|0,0:0|1:0,0:0:0:0:
394,380,32356,2,0,P|398:332|401:285,1,71.2500027179719,2|8,0:3|0:0,0:0:0:0:
294,220,32672,2,0,P|298:267|301:314,1,71.2500027179719,2|0,0:3|1:0,0:0:0:0:
215,362,32987,5,8,0:0:0:0:
215,362,33145,1,8,0:0:0:0:
161,279,33303,2,0,B|123:275|123:275|98:310,1,71.2500027179719,8|0,0:0|0:0,0:0:0:0:
8,277,33619,2,0,P|5:250|-5:218,3,35.625001358986,8|8|8|8,1:2|1:2|1:2|1:2,0:0:0:0:
0,296,33935,5,4,0:0:0:0:
33,320,38042,6,0,L|145:294,2,95,14|2|2,0:0|0:0|1:2,0:0:0:0:
22,241,38515,2,0,L|134:215,2,95,14|2|2,0:0|0:0|1:2,0:0:0:0:
2,164,38989,6,0,L|114:138,1,95,12|0,0:0|1:0,0:0:0:0:
238,83,39305,2,0,L|126:57,1,95,12|12,0:0|0:0,0:0:0:0:
67,40,39620,1,12,0:0:0:0:
257,320,39935,6,0,L|145:294,2,95,14|2|2,0:0|0:0|1:2,0:0:0:0:
268,241,40408,2,0,L|156:215,2,95,14|2|2,0:0|0:0|1:2,0:0:0:0:
288,164,40882,6,0,L|176:138,1,95,12|0,0:0|1:0,0:0:0:0:
52,83,41198,2,0,L|164:57,1,95,12|12,0:0|0:0,0:0:0:0:
223,40,41513,1,12,0:0:0:0:
367,150,41831,6,0,P|392:223|399:260,1,95,2|2,1:3|1:3,0:0:0:0:
445,315,42146,2,0,P|471:270|479:265,3,47.5,8|8|8|8,0:0|0:0|0:0|0:0,0:0:0:0:
431,331,42462,6,0,P|358:306|321:299,1,95,4|4,1:2|1:2,0:0:0:0:
266,253,42778,2,0,P|311:227|316:219,3,47.5,10|10|10|10,1:2|1:2|1:2|1:2,0:0:0:0:
248,251,43094,6,0,P|175:226|138:219,1,95,2|2,1:3|1:3,0:0:0:0:
97,145,43409,2,0,P|170:120|207:113,1,95,4|4,1:2|1:2,0:0:0:0:
244,56,43725,2,0,P|225:41|203:35,3,47.5,10|10|10|10,1:2|1:2|1:2|1:2,0:0:0:0:
265,70,44041,6,0,P|338:45|375:38,1,95,4|4,1:2|1:2,0:0:0:0:
398,117,44357,2,0,P|379:131|356:138,3,47.5,10|10|10|10,1:2|1:2|1:2|1:2,0:0:0:0:
405,105,44673,5,2,1:2:0:0:
493,255,44988,1,2,1:3:0:0:
399,187,45935,6,0,P|406:138|360:102,1,106.875004076958,2|0,1:3|0:0,0:0:0:0:
354,113,46250,6,0,P|421:166|517:128,1,190,6|10,1:2|0:0,0:0:0:0:
448,51,46723,2,0,P|374:-4|289:29,1,190,2|10,1:2|0:0,0:0:0:0:
279,115,47197,2,0,P|270:175|259:218,1,95,2|0,1:2|0:0,0:0:0:0:
336,313,47513,2,0,P|343:266|354:220,1,95,10|0,0:0|0:0,0:0:0:0:
447,150,47828,2,0,P|457:196|464:243,1,95,10|0,0:0|0:0,0:0:0:0:
502,321,48144,6,0,P|450:352|397:341,1,95,2|0,1:3|1:0,0:0:0:0:
336,313,48460,2,0,P|298:285|251:283,1,95,10|2,0:0|1:2,0:0:0:0:
184,318,48776,5,2,1:3:0:0:
103,292,48934,1,8,0:0:0:0:
96,212,49092,6,0,P|78:140|71:108,1,95,2|0,1:2|0:0,0:0:0:0:
147,92,49407,2,0,P|157:45|169:0,1,95,10|0,0:0|1:2,0:0:0:0:
248,19,49723,2,0,P|258:65|271:111,1,95,10|2,0:0|1:2,0:0:0:0:
265,198,50039,2,0,P|311:186|358:175,1,95,2|0,1:3|1:0,0:0:0:0:
461,156,50355,1,10,0:0:0:0:
422,224,50513,1,2,1:2:0:0:
351,265,50671,6,0,P|356:321|367:363,2,95,2|10|2,1:3|0:0|1:3,0:0:0:0:
265,198,51144,2,0,P|260:142|249:100,2,95,0|10|2,1:0|0:0|1:2,0:0:0:0:
222,284,51618,2,0,B|192:278|192:249|196:246|184:225|143:222,1,95,10|2,0:0|1:2,0:0:0:0:
61,248,51934,6,0,P|73:177|80:106,1,142.5,2|0,1:3|0:0,0:0:0:0:
84,89,52250,2,0,B|127:74|149:112|146:118|177:137|233:110,1,142.5,8|0,0:0|0:0,0:0:0:0:
228,115,52565,6,0,B|251:71|251:71|233:23,1,95,2|8,1:3|0:0,0:0:0:0:
342,0,52881,2,0,B|327:43|327:43|350:87,1,95,2|0,1:3|1:0,0:0:0:0:
348,180,53197,6,0,B|332:222|332:222|355:266,1,95,10|2,0:0|1:2,0:0:0:0:
452,313,53513,2,0,B|467:270|467:270|444:226,1,95,10|8,0:0|0:0,0:0:0:0:
355,266,53828,6,0,L|299:277,3,47.5,4|0|0|0,1:2|0:0|1:0|0:0,0:0:0:0:
294,279,54144,2,0,L|238:268,3,47.5,8|0|0|0,0:0|0:0|0:0|0:0,0:0:0:0:
234,268,54460,2,0,L|178:279,3,47.5,8|0|8|8,0:0|1:0|0:0|0:0,0:0:0:0:
179,281,54776,6,0,P|142:237|94:233,1,95,4|0,1:2|1:0,0:0:0:0:
42,159,55092,6,0,L|31:103,3,47.5,8|0|0|0,0:0|0:0|0:0|0:0,0:0:0:0:
37,98,55408,2,0,L|48:42,3,47.5,8|8|8|8,0:0|0:0|0:0|0:0,0:0:0:0:
50,41,55723,2,0,L|154:26,1,95,4|0,1:2|1:0,0:0:0:0:
209,76,56039,6,0,P|258:86|285:141,1,95,8|2,0:0|0:0,0:0:0:0:
388,175,56355,2,0,P|339:185|312:240,1,95,8|8,0:0|0:0,0:0:0:0:
266,298,56671,6,0,P|237:335|192:342,1,95,12|8,1:2|1:2,0:0:0:0:
114,213,56987,2,0,P|142:250|187:257,1,95,8|0,1:2|1:0,0:0:0:0:
198,243,57302,6,0,L|224:184,3,47.5,8|0|8|0,0:0|1:0|0:0|1:0,0:0:0:0:
224,187,57618,6,0,P|228:133|251:81,1,95,6|6,1:2|1:2,0:0:0:0:
146,88,57934,2,0,P|137:41|116:0,1,95,8|0,0:0|0:0,0:0:0:0:
28,39,58250,6,0,P|44:83|47:130,1,95,8|8,0:0|0:0,0:0:0:0:
19,235,58565,2,0,P|67:212|124:206,1,95,4|0,1:2|1:0,0:0:0:0:
196,266,58881,6,0,P|240:250|266:246,3,47.5,8|0|2|0,0:0|1:0|0:0|0:0,0:0:0:0:
256,250,59197,2,0,P|315:236|363:216,1,95,10|8,0:0|0:0,0:0:0:0:
408,154,59513,6,0,B|389:135|389:135|354:146,1,47.5,4|0,1:2|0:0,0:0:0:0:
350,133,59671,2,0,P|386:71|426:63,2,95,0|4|2,1:0|1:2|0:0,0:0:0:0:
247,153,60144,2,0,P|192:168|180:171,3,47.5,8|0|8|8,0:0|0:0|0:0|0:0,0:0:0:0:
180,165,60460,2,0,P|116:162|9:152,1,142.5,4|0,1:2|0:0,0:0:0:0:
21,151,60776,6,0,B|52:113|52:113|34:64,1,95
151,85,61092,2,0,B|120:47|120:47|138:-2,1,95
223,27,61407,5,4,0:0:0:0:
223,27,61722,6,0,B|314:13|314:13|327:66|304:113|247:98|223:158|268:223,1,327.749989997864,2|0,0:0|0:0,0:0:0:0:
283,218,63617,2,0,L|321:208,1,28.4999991302491,2|2,0:0|0:0,0:0:0:0:
411,154,63933,1,12,0:0:0:0:
169,107,64249,6,0,B|96:118|96:118|115:56|70:10|70:10|47:20|4:31|4:31|17:54|27:84,1,313.49999043274,2|2,0:0|0:0,0:0:0:0:
20,167,66143,1,2,0:3:0:0:
159,343,66459,6,0,L|216:325,3,47.5,4|0|6|0,1:2|0:0|1:2|0:0,0:0:0:0:
218,323,66775,2,0,P|277:338|329:356,1,95,2|0,1:2|0:0,0:0:0:0:
378,269,67091,6,0,B|385:262|385:262|376:213,3,47.5,0|0|8|8,1:0|0:0|0:0|0:0,0:0:0:0:
378,214,67407,2,0,B|385:207|385:207|375:105,1,95,14|6,1:2|1:2,0:0:0:0:
288,55,67722,6,0,B|220:69|220:69|227:76|227:76|138:92,1,142.5,4|0,1:0|0:0,0:0:0:0:
155,89,68038,2,0,B|144:98|128:104|128:104|118:232,1,142.5,12|8,0:0|0:0,0:0:0:0:
120,228,68354,6,0,L|138:293,3,47.5,12|0|4|0,1:2|0:0|1:0|0:0,0:0:0:0:
139,286,68670,2,0,L|249:299,1,95,0|0,1:2|0:0,0:0:0:0:
251,289,68985,2,0,L|361:302,1,95,0|0,1:0|1:0,0:0:0:0:
416,231,69301,6,0,L|434:166,3,47.5,0|0|4|8,1:2|1:0|1:2|0:0,0:0:0:0:
430,169,69617,2,0,L|417:59,1,95,4|0,1:2|0:0,0:0:0:0:
323,111,69933,2,0,L|310:1,1,95,12|8,1:2|0:0,0:0:0:0:
216,0,70249,5,2,1:2:0:0:
216,0,70407,1,2,1:2:0:0:
83,73,70722,5,2,1:2:0:0:
83,73,70880,1,2,1:2:0:0:
168,170,71196,6,0,P|193:174|224:179,3,47.5,8|8|8|8,0:0|0:0|0:0|0:0,0:0:0:0:
240,181,71512,5,6,1:2:0:0:
240,181,71670,1,10,0:0:0:0:
344,175,71828,2,0,P|332:236|328:279,1,95,10|0,0:0|0:0,0:0:0:0:
293,354,72143,6,0,L|241:343,3,47.5,2|2|2|2,0:3|0:3|0:3|0:3,0:0:0:0:
220,337,72459,6,0,L|168:348,3,35.625001358986,2|2|2|2,0:3|0:3|0:3|0:3,0:0:0:0:
158,358,72775,5,4,1:2:0:0:
