osu file format v14

[General]
AudioFilename: audio.mp3
AudioLeadIn: 0
PreviewTime: 64403
Countdown: 0
SampleSet: Soft
StackLeniency: 0.7
Mode: 0
LetterboxInBreaks: 0
WidescreenStoryboard: 0

[Editor]
DistanceSpacing: 1.2
BeatDivisor: 4
GridSize: 8
TimelineZoom: 2.1

[Metadata]
Title:Mirage Age
TitleUnicode:Mirage Age
Artist:Marmalade butcher
ArtistUnicode:Marmalade butcher
Creator:Gordon
Version:Phantasmagoria
Source:
Tags:Instrumental featured artist fa Math Post Rock Lazarus Xoul Cycopton Wanpachi Ascended -_ascended_- PaRaDoGi PotatoDew Nijika Ijichi Megafan allice calliecube obamacube smokebloke callieonosu Japanese Electronica Electronic Chaotic Maniku pop'n music peace BEMANI
BeatmapID:3315944
BeatmapSetID:1624087

[Difficulty]
HPDrainRate:6
CircleSize:4.5
OverallDifficulty:9.5
ApproachRate:9.5
SliderMultiplier:2.8
SliderTickRate:1

[Events]
//Background and Video events
0,0,"unknown.png",0,0
//Break Periods
//Storyboard Layer 0 (Background)
//Storyboard Layer 1 (Fail)
//Storyboard Layer 2 (Pass)
//Storyboard Layer 3 (Foreground)
//Storyboard Layer 4 (Overlay)
//Storyboard Sound Samples

[TimingPoints]
1860,389.61038961039,4,2,1,50,1,0
1860,-166.666666666667,4,2,1,50,0,0
2639,-125,4,2,1,50,0,0
3028,-166.666666666667,4,2,1,50,0,0
3323,389.61038961039,4,2,1,50,1,0
3323,-125,4,2,1,50,0,0
3712,-166.666666666667,4,2,1,50,0,0
4297,-125,4,2,1,50,0,0
4792,389.61038961039,4,2,1,50,1,0
4792,-125,4,2,1,50,0,0
6259,389.61038961039,4,2,1,50,1,0
6259,-125,4,2,1,50,0,0
7525,-35.7142857142857,4,2,1,50,0,0
7724,389.61038961039,4,2,1,70,1,0
7724,-66.6666666666667,4,2,1,70,0,0
9183,389.61038961039,4,2,1,70,1,0
9183,-66.6666666666667,4,2,1,70,0,0
10630,389.61038961039,4,2,1,70,1,0
10630,-66.6666666666667,4,2,1,70,0,0
12105,389.61038961039,4,2,1,70,1,0
12105,-66.6666666666667,4,2,1,70,0,0
13570,389.61038961039,5,2,1,70,1,0
13570,-66.6666666666667,5,2,1,70,0,0
15518,389.61038961039,4,2,1,70,1,0
15518,-66.6666666666667,4,2,1,70,0,0
16975,389.61038961039,5,2,1,70,1,0
16975,-66.6666666666667,5,2,1,70,0,0
18917,389.61038961039,4,2,1,70,1,0
18917,-66.6666666666667,4,2,1,70,0,0
20085,-500,4,2,1,70,0,0
20465,389.61038961039,6,2,1,70,1,0
22787,389.61038961039,3,2,1,70,1,0
23566,-41.6666666666667,3,2,1,70,0,0
23761,-41.6666666666667,3,2,1,70,0,0
23974,389.61038961039,4,3,1,90,1,0
23974,-40,4,3,1,90,0,1
37610,-250,4,3,1,90,0,1
37902,-250,4,2,1,5,0,1
38001,389.61038961039,6,2,1,60,1,0
40046,-83.3333333333333,6,2,1,60,0,0
40353,389.61038961039,7,2,1,60,1,0
42884,389.61038961039,6,2,1,60,1,0
44929,-83.3333333333333,6,2,1,60,0,0
45225,389.61038961039,7,2,1,60,1,0
47075,-66.6666666666667,7,2,1,60,0,0
47948,389.61038961039,6,3,1,70,1,0
48240,-76.9230769230769,6,3,1,70,0,0
48727,-35.7142857142857,6,3,1,70,0,0
48922,-76.9230769230769,6,3,1,70,0,0
50281,389.61038961039,7,3,1,70,1,0
50573,-76.9230769230769,7,3,1,70,0,0
51060,-33.3333333333333,7,3,1,70,0,0
51255,-76.9230769230769,7,3,1,70,0,0
52827,389.61038961039,6,3,1,70,1,0
52827,-76.9230769230769,6,3,1,70,0,0
53606,-35.7142857142857,6,3,1,70,0,0
53801,-76.9230769230769,6,3,1,70,0,0
55145,389.61038961039,5,3,1,70,1,0
55437,-125,5,3,1,70,0,0
55632,-125,5,3,1,20,0,0
55755,389.61038961039,5,3,1,70,1,0
55755,-125,5,3,1,70,0,0
56047,-166.666666666667,5,3,1,70,0,0
56242,-166.666666666667,5,3,1,5,0,0
56339,-166.666666666667,5,3,1,70,0,0
56631,-166.666666666667,5,3,1,70,0,0
56729,-166.666666666667,5,3,1,5,0,0
56826,-166.666666666667,5,3,1,70,0,0
57002,389.61038961039,4,3,1,70,1,0
58170,-500,4,3,1,70,0,0
58463,-500,4,3,1,5,0,0
58559,389.61038961039,4,3,1,80,1,0
58559,-55.5555555555556,4,3,1,80,0,0
58948,-66.6666666666667,4,3,1,80,0,0
60312,-40,4,3,1,80,0,0
60604,-100,4,3,1,80,0,0
63234,-125,4,3,1,80,0,0
64403,-83.3333333333333,4,3,1,80,0,0
64597,-100,4,3,1,80,0,0
64792,-40,4,3,1,80,0,1
64987,-66.6666666666667,4,3,1,80,0,1
65474,-40,4,3,1,80,0,1
65669,-66.6666666666667,4,3,1,80,0,1
65961,-100,4,3,1,80,0,1
66740,-40,4,3,1,80,0,1
67033,-66.6666666666667,4,3,1,80,0,1
67909,-100,4,3,1,80,0,1
68299,-66.6666666666667,4,3,1,80,0,1
68688,-100,4,3,1,80,0,1
69468,-83.3333333333333,4,3,1,80,0,1
69857,-41.6666666666667,4,3,1,80,0,1
70052,-83.3333333333333,4,3,1,80,0,1
71026,-41.6666666666667,4,3,1,80,0,1
71221,-83.3333333333333,4,3,1,80,0,1
71416,-66.6666666666667,4,3,1,80,0,1
72195,-83.3333333333333,4,3,1,80,0,1
72584,-66.6666666666667,4,3,1,80,0,1
73169,-55.5555555555556,4,3,1,80,0,1
73753,-83.3333333333333,4,3,1,80,0,1
74143,-50,4,3,1,80,0,1
74922,-45.4545454545455,4,3,1,80,0,1
75507,-40,4,3,1,80,0,1
76091,-50,4,3,1,80,0,1
77260,-66.6666666666667,4,3,1,80,0,0
78818,-40,4,3,1,80,0,1
91091,-55.5555555555556,4,3,1,80,0,1
91286,-45.4545454545455,4,3,1,70,0,0
91870,-66.6666666666667,4,3,1,70,0,0
92844,-40,4,3,1,70,0,0
93429,-125,4,3,1,70,0,0
94403,-35.7142857142857,4,3,1,70,0,0
94987,-66.6666666666667,4,3,1,70,0,0
95961,-166.666666666666,4,3,1,70,0,0
96156,-166.666666666666,4,3,1,5,0,0
96253,-166.666666666666,4,3,1,70,0,0
96448,-166.666666666666,4,3,1,5,0,0
96546,-125,4,3,1,70,0,0
96838,-100,4,3,1,5,0,0
96935,-100,4,3,1,70,0,0
97520,-66.6666666666667,4,3,1,75,0,0
99273,-35.7142857142857,4,3,1,75,0,0
103753,-100,4,3,1,75,0,0
103948,-43.4782608695652,4,3,1,75,0,0
105507,-66.6666666666667,4,3,1,75,0,0
106870,-100,4,3,1,75,0,0
107065,-55.5555555555556,4,3,1,75,0,0
108429,-35.7142857142857,4,3,1,75,0,0
108623,-66.6666666666667,4,3,1,75,0,0
109208,-100,4,3,1,75,0,0
109987,-100,4,3,1,75,0,0
113104,389.61038961039,3,2,1,60,1,0
117779,-66.6666666666667,3,3,1,60,0,0
118168,-100,3,3,1,60,0,0
118948,-100,3,3,1,60,0,0
122454,-100,3,3,1,60,0,0
123233,-45.4545454545455,3,3,1,60,0,0
123623,-100,3,3,1,60,0,0
130636,-66.6666666666667,3,3,1,90,0,0
131026,-100,3,3,1,90,0,0
131806,389.61038961039,6,3,1,90,1,0
131806,-40,6,3,1,90,0,0
132000,-40,6,3,1,5,0,0
132098,-40,6,3,1,90,0,0
132293,-40,6,3,1,5,0,0
132390,-50,6,3,1,90,0,0
132585,-50,6,3,1,5,0,0
132682,-50,6,3,1,90,0,0
132877,-50,6,3,1,5,0,0
132974,-50,6,3,1,90,0,0
133754,-1000,6,3,1,90,0,0
134147,389.61038961039,4,3,1,80,1,0
139698,-31.25,4,3,1,80,0,0
139991,-40,4,3,1,80,0,0
140380,-40,4,3,1,90,0,1
140770,-40,4,3,1,90,0,1
141159,-100,4,3,1,90,0,1
141939,-40,4,3,1,90,0,1
142328,-50,4,3,1,90,0,1
142718,-100,4,3,1,90,0,1
143497,-50,4,3,1,90,0,1
144276,-100,4,3,1,90,0,1
145056,-40,4,3,1,90,0,1
145835,-40,4,3,1,90,0,1
146614,-40,4,3,1,90,0,1
147393,-100,4,3,1,90,0,1
148172,-40,4,3,1,90,0,1
148562,-50,4,3,1,90,0,1
149731,-40,4,3,1,90,0,1
150510,-100,4,3,1,90,0,1
151289,-1000,4,3,1,90,0,0
151679,-1000,4,3,1,5,0,0
151874,-1000,4,3,1,80,0,0
152458,-83.3333333333333,4,3,1,80,0,0
152848,-31.25,4,3,1,80,0,1
153043,-66.6666666666667,4,3,1,80,0,1
153530,-35.7142857142857,4,3,1,80,0,1
154017,-66.6666666666667,4,3,1,80,0,1
154406,-83.3333333333333,4,3,1,80,0,1
154796,-40,4,3,1,80,0,1
155088,-66.6666666666667,4,3,1,80,0,1
155575,-83.3333333333333,4,3,1,80,0,1
156354,-66.6666666666667,4,3,1,80,0,1
156744,-100,4,3,1,80,0,1
157523,-66.6666666666667,4,3,1,80,0,1
157718,-166.666666666667,4,3,1,80,0,1
157913,-40,4,3,1,80,0,1
158205,-83.3333333333333,4,3,1,80,0,1
159082,-33.3333333333333,4,3,1,80,0,1
159276,-83.3333333333333,4,3,1,80,0,1
159763,-40,4,3,1,80,0,1
160250,-66.6666666666667,4,3,1,80,0,1
161224,-66.6666666666667,4,3,1,80,0,1
161809,-100,4,3,1,80,0,1
162198,-50,4,3,1,80,0,1
162978,-55.5555555555556,4,3,1,80,0,1
163757,-66.6666666666667,4,3,1,80,0,1
163952,-76.9230769230769,4,3,1,80,0,1
164147,-90.9090909090909,4,3,1,80,0,1
164341,-111.111111111111,4,3,1,80,0,1
164536,-142.857142857143,4,3,1,80,0,1
164731,-200,4,3,1,80,0,1
164926,-100,4,3,1,80,0,1
165315,-66.6666666666667,4,3,1,90,0,1
168432,-40,4,3,1,90,0,1
168724,-66.6666666666667,4,3,1,90,0,1
170672,-50,4,3,1,90,0,1
170965,-40,4,3,1,90,0,1
171549,-66.6666666666667,4,3,1,90,0,1
174666,-83.3333333333333,4,3,1,90,0,1
177783,-100,4,3,1,80,0,0
177880,-40,4,3,1,80,0,0
178172,-50,4,3,1,80,0,0
178465,-66.6666666666667,4,3,1,80,0,0
178757,-100,4,3,1,80,0,0
179344,389.61038961039,4,3,1,70,1,0
179344,-66.6666666666667,4,3,1,70,0,0
180814,389.61038961039,4,3,1,70,1,0
180814,-66.6666666666667,4,3,1,70,0,0
182275,389.61038961039,4,3,1,70,1,0
182275,-66.6666666666667,4,3,1,70,0,0
183736,389.61038961039,4,3,1,70,1,0
183736,-66.6666666666667,4,3,1,70,0,0
185199,389.61038961039,5,3,1,70,1,0
185199,-66.6666666666667,5,3,1,70,0,0
187137,389.61038961039,4,3,1,70,1,0
187137,-66.6666666666667,4,3,1,70,0,0
188616,389.61038961039,5,3,1,70,1,0
188616,-66.6666666666667,5,3,1,70,0,0
190558,389.61038961039,4,3,1,70,1,0
190558,-66.6666666666667,4,3,1,70,0,0
191714,-500,4,3,1,70,0,0
192105,389.61038961039,6,3,1,80,1,0
194434,389.61038961039,4,2,1,80,1,0

[Colours]
Combo1 : 255,140,252
Combo2 : 179,102,255
Combo3 : 24,254,180
Combo4 : 255,198,241

[HitObjects]
0,364,1860,5,4,1:2:0:0:
15,329,1957,1,0,0:2:0:0:
45,310,2054,1,0,0:2:0:0:
83,312,2152,1,0,0:2:0:0:
123,369,2249,6,0,P|144:379|175:375,3,41.9999987182618,0|0|0|0,0:2|0:2|0:2|0:2,0:2:0:0:
211,324,2639,37,0,0:2:0:0:
211,324,2736,1,0,0:2:0:0:
211,324,2834,2,0,L|215:264,1,56,0|0,0:2|0:2,0:2:0:0:
153,232,3028,6,0,L|149:172,2,41.9999987182618,0|0|0,0:2|0:2|0:2,0:2:0:0:
211,324,3323,37,0,0:2:0:0:
226,289,3420,1,0,0:2:0:0:
256,270,3517,1,0,0:2:0:0:
294,272,3615,1,0,0:2:0:0:
341,332,3712,6,0,P|362:344|395:343,3,41.9999987182618,0|0|0|0,0:2|0:2|0:2|0:2,0:2:0:0:
439,300,4102,37,0,0:2:0:0:
439,300,4199,1,0,0:2:0:0:
439,300,4297,2,0,L|443:243,1,56,0|0,0:2|0:2,0:2:0:0:
368,206,4491,5,0,0:2:0:0:
369,220,4589,1,0,0:2:0:0:
370,235,4686,1,0,0:2:0:0:
436,168,4792,37,0,3:2:0:0:
444,148,4889,1,0,3:2:0:0:
444,126,4986,1,0,3:2:0:0:
433,107,5084,2,0,L|375:100,1,56,2|0,0:3|0:2,0:2:0:0:
321,151,5279,5,0,3:2:0:0:
300,152,5376,1,0,3:2:0:0:
281,153,5473,2,0,L|158:162,1,112,2|0,0:3|3:2,0:2:0:0:
46,65,5863,2,0,L|160:74,1,112,2|0,0:3|3:2,0:2:0:0:
214,22,6155,1,2,0:3:0:0:
152,82,6259,37,0,0:2:0:0:
144,102,6356,1,0,3:2:0:0:
144,124,6453,1,0,3:2:0:0:
155,143,6551,2,0,L|211:139,1,56,2|0,0:3|0:2,0:2:0:0:
275,174,6746,5,0,3:2:0:0:
296,175,6843,1,0,3:2:0:0:
317,177,6940,1,2,0:3:0:0:
338,179,7038,1,0,3:2:0:0:
358,180,7135,2,0,P|337:197|325:229,1,56,2|0,0:3|0:2,0:2:0:0:
297,321,7330,38,0,P|281:297|253:292,1,56,4|0,1:2|0:2,0:2:0:0:
231,383,7525,6,0,P|223:296|206:180,1,195.999994018555,8|0,0:2|0:2,0:2:0:0:
124,54,7724,6,2,P|60:83|147:137,1,210.000008010865,4|0,1:2|1:2,0:1:0:0:
147,141,8016,1,8,0:2:0:0:
229,69,8113,21,8,0:3:0:0:
279,86,8211,1,0,1:2:0:0:
301,137,8308,1,0,3:2:0:0:
276,186,8405,1,0,1:2:0:0:
242,254,8503,5,8,0:2:0:0:
209,275,8600,1,8,0:3:0:0:
193,312,8698,1,8,1:3:0:0:
202,348,8795,1,0,3:2:0:0:
273,362,8892,37,8,0:2:0:0:
312,352,8990,1,8,0:2:0:0:
350,343,9087,1,0,1:2:0:0:
451,383,9183,22,2,P|459:271|478:170,1,210.000008010865,4|2,1:2|1:3,0:1:0:0:
482,158,9475,1,8,0:2:0:0:
494,58,9572,21,2,0:3:0:0:
444,58,9670,1,8,1:3:0:0:
408,86,9767,1,0,3:2:0:0:
395,130,9864,1,8,1:3:0:0:
358,202,9962,5,8,0:2:0:0:
338,220,10059,1,0,0:2:0:0:
295,226,10157,1,0,1:2:0:0:
232,186,10254,1,8,0:2:0:0:
143,171,10351,37,8,0:2:0:0:
139,130,10449,1,12,0:3:0:0:
137,91,10546,1,4,1:3:0:0:
215,3,10630,22,2,P|285:2|229:87,1,210.000008010865,4|0,1:2|1:2,0:1:0:0:
230,91,10922,1,8,0:2:0:0:
153,77,11019,21,0,3:2:0:0:
103,81,11116,1,0,1:2:0:0:
80,123,11213,1,8,0:3:0:0:
101,167,11311,1,0,1:2:0:0:
118,240,11409,5,8,0:2:0:0:
148,274,11507,1,0,3:2:0:0:
142,312,11604,1,0,1:2:0:0:
128,335,11701,1,8,0:2:0:0:
46,319,11799,37,8,0:2:0:0:
40,293,11896,1,8,0:2:0:0:
49,269,11993,1,2,1:1:0:0:
120,221,12105,22,2,P|217:238|338:276,1,210.000008010865,4|0,1:2|1:2,0:1:0:0:
335,276,12397,1,8,0:2:0:0:
398,361,12494,21,0,3:2:0:0:
427,330,12591,1,0,1:2:0:0:
436,291,12688,1,0,3:2:0:0:
421,253,12786,1,4,1:3:0:0:
360,201,12884,5,8,0:2:0:0:
345,182,12981,1,0,3:2:0:0:
346,142,13079,1,0,1:2:0:0:
400,86,13176,1,8,0:2:0:0:
474,130,13273,37,8,0:2:0:0:
483,159,13371,1,8,0:3:0:0:
476,187,13468,1,4,1:3:0:0:
424,246,13570,22,2,P|320:261|213:285,1,210.000008010865,4|0,1:2|1:2,0:1:0:0:
209,293,13862,1,8,0:2:0:0:
170,381,13959,21,0,3:2:0:0:
132,357,14057,1,0,1:2:0:0:
114,321,14154,1,2,0:3:0:0:
119,281,14251,1,8,0:2:0:0:
170,225,14349,5,0,1:2:0:0:
183,191,14446,1,8,0:2:0:0:
174,166,14544,1,8,0:2:0:0:
168,158,14641,37,0,1:2:0:0:
184,166,14738,1,8,0:2:0:0:
204,167,14836,1,8,0:3:0:0:
268,203,14933,5,4,1:3:0:0:
283,192,15031,1,12,0:3:0:0:
292,174,15128,1,8,0:3:0:0:
355,140,15225,37,8,0:2:0:0:
352,122,15323,1,8,0:2:0:0:
339,106,15420,1,0,1:2:0:0:
300,26,15518,22,2,P|231:12|271:106,1,210.000008010865,4|0,1:2|1:2,0:1:0:0:
269,109,15810,1,8,0:2:0:0:
357,91,15907,21,0,3:2:0:0:
405,101,16005,1,0,1:2:0:0:
438,135,16102,1,0,3:2:0:0:
443,185,16199,1,0,1:2:0:0:
415,253,16297,5,2,0:3:0:0:
384,285,16394,1,0,3:2:0:0:
381,325,16492,1,0,1:2:0:0:
400,360,16589,1,8,0:2:0:0:
466,339,16686,37,8,0:2:0:0:
472,317,16784,1,8,0:2:0:0:
467,297,16881,1,0,1:2:0:0:
409,241,16975,22,2,P|304:235|195:220,1,210.000008010865,4|0,1:2|1:2,0:1:0:0:
186,212,17267,1,8,0:2:0:0:
139,120,17364,21,0,3:2:0:0:
99,142,17462,1,0,1:2:0:0:
83,180,17559,1,0,3:2:0:0:
90,221,17656,1,8,0:2:0:0:
126,285,17754,5,0,1:2:0:0:
139,319,17851,1,8,0:2:0:0:
130,344,17949,1,8,0:2:0:0:
126,352,18046,37,0,1:2:0:0:
139,340,18143,1,8,0:3:0:0:
158,333,18241,1,4,0:3:0:0:
226,354,18338,5,0,1:2:0:0:
243,361,18436,1,8,0:3:0:0:
262,359,18533,1,2,1:1:0:0:
312,304,18630,37,8,0:2:0:0:
329,302,18728,1,8,0:2:0:0:
348,309,18825,1,2,1:1:0:0:
424,365,18917,22,2,P|506:335|442:275,1,210.000008010865,4|0,1:2|1:2,0:1:0:0:
430,277,19209,1,8,0:2:0:0:
361,317,19306,21,0,3:2:0:0:
319,334,19404,1,0,1:2:0:0:
278,327,19501,1,8,0:2:0:0:
249,300,19598,1,0,3:2:0:0:
191,249,19696,5,8,0:2:0:0:
140,200,19793,1,8,0:2:0:0:
71,198,19891,1,8,0:2:0:0:
18,242,19988,1,8,0:2:0:0:
15,316,20085,38,2,P|47:315|66:304,1,42,4|0,1:2|0:2,0:1:0:0:
139,206,20465,5,14,1:1:0:0:
147,197,20562,1,0,3:2:0:0:
159,194,20659,1,0,3:2:0:0:
204,133,20757,37,10,1:1:0:0:
215,134,20854,1,0,3:2:0:0:
225,142,20952,1,0,3:2:0:0:
296,130,21049,5,10,1:1:0:0:
301,139,21146,1,0,3:2:0:0:
300,152,21244,1,0,3:2:0:0:
344,206,21341,37,10,1:1:0:0:
340,216,21439,1,8,0:2:0:0:
328,222,21536,1,8,0:2:0:0:
247,213,21633,5,6,1:1:0:0:
451,77,21828,1,8,1:3:0:0:
492,341,22023,1,12,0:3:0:0:
257,218,22218,37,8,0:2:0:0:
477,332,22413,1,4,1:3:0:0:
262,365,22607,1,8,0:2:0:0:
261,373,22705,1,8,0:2:0:0:
264,383,22787,5,2,1:3:0:0:
274,360,22884,1,0,0:2:0:0:
275,334,22981,1,0,0:2:0:0:
267,311,23079,1,0,0:2:0:0:
226,150,23274,37,0,0:2:0:0:
218,173,23371,1,0,0:2:0:0:
219,199,23468,1,0,0:2:0:0:
225,209,23566,22,2,B|273:184|306:229|297:239|316:273|369:265,1,167.999994873047,4|0,1:3|0:2,0:2:0:0:
370,273,23761,2,2,B|318:282|299:248|309:238|276:193|220:218,1,167.999994873047,4|0,1:3|0:2,0:2:0:0:
120,331,23974,21,6,1:1:0:0:
49,334,24071,1,0,0:2:0:0:
8,277,24168,1,0,1:2:0:0:
29,211,24266,2,0,P|136:224|239:229,1,175,8|0,0:2|0:2,0:2:0:0:
336,211,24461,21,0,1:2:0:0:
347,215,24559,1,8,0:2:0:0:
357,223,24656,1,0,0:2:0:0:
384,293,24753,21,0,1:2:0:0:
452,319,24850,1,8,0:2:0:0:
512,276,24948,1,8,0:2:0:0:
508,202,25045,1,8,0:2:0:0:
444,165,25142,21,8,0:3:0:0:
436,176,25240,1,4,0:3:0:0:
436,189,25337,2,0,P|377:176|260:153,1,175,8|0,0:2|0:2,0:2:0:0:
136,193,25532,21,6,1:1:0:0:
65,196,25629,1,0,0:2:0:0:
24,139,25727,1,0,1:2:0:0:
45,74,25824,2,0,P|117:80|233:98,1,175,8|0,0:2|0:2,0:2:0:0:
305,182,26019,21,0,1:2:0:0:
309,192,26116,1,8,0:2:0:0:
311,205,26214,1,0,0:2:0:0:
254,256,26311,21,0,1:2:0:0:
229,294,26409,1,8,0:3:0:0:
229,335,26506,1,0,0:2:0:0:
251,369,26603,1,4,0:3:0:0:
262,379,26701,21,8,0:2:0:0:
299,313,26798,1,8,0:2:0:0:
280,238,26896,1,8,0:2:0:0:
212,198,26993,1,8,0:2:0:0:
185,185,27090,21,4,1:2:0:0:
163,151,27188,1,8,0:2:0:0:
163,110,27285,1,0,1:2:0:0:
188,72,27383,2,0,P|271:85|371:92,1,175,8|0,0:2|0:2,0:2:0:0:
511,30,27577,21,0,1:2:0:0:
510,40,27675,1,8,0:2:0:0:
506,53,27772,1,0,0:2:0:0:
456,107,27870,21,0,1:2:0:0:
431,145,27967,1,8,0:3:0:0:
431,186,28064,1,0,0:2:0:0:
453,220,28162,1,4,0:3:0:0:
463,229,28259,21,8,0:2:0:0:
397,192,28357,1,8,0:2:0:0:
325,211,28454,1,8,0:2:0:0:
282,279,28551,1,0,0:2:0:0:
286,294,28649,21,6,1:1:0:0:
278,255,28746,1,0,0:2:0:0:
247,233,28844,1,0,1:2:0:0:
208,240,28941,2,0,B|172:245|136:284|154:308|119:344|68:339,1,175,8|0,0:2|0:2,0:2:0:0:
51,259,29136,1,0,1:2:0:0:
51,259,29233,2,0,P|113:275|224:313,1,175,8|0,0:2|0:2,0:2:0:0:
323,363,29428,37,8,0:2:0:0:
331,371,29493,1,8,0:2:0:0:
348,377,29558,1,8,0:3:0:0:
365,372,29623,1,0,1:2:0:0:
384,357,29688,1,0,1:2:0:0:
397,333,29753,1,0,1:2:0:0:
439,312,29818,1,8,0:3:0:0:
475,338,29883,1,4,0:3:0:0:
473,365,29948,1,8,0:3:0:0:
450,364,30012,6,0,P|451:281|461:178,1,175,10|0,0:1|0:2,0:1:0:0:
446,29,30208,21,6,1:1:0:0:
506,57,30305,1,0,0:2:0:0:
512,127,30402,1,0,1:2:0:0:
458,173,30500,2,0,P|345:150|277:143,1,175,8|0,0:2|0:2,0:2:0:0:
172,219,30695,21,0,1:2:0:0:
161,215,30793,1,8,0:2:0:0:
151,207,30890,1,0,0:2:0:0:
121,143,30987,21,0,1:2:0:0:
57,118,31084,1,8,0:2:0:0:
0,158,31181,1,8,0:2:0:0:
4,227,31279,1,8,0:3:0:0:
66,260,31376,21,8,0:2:0:0:
78,264,31474,1,4,0:3:0:0:
90,273,31572,1,8,0:2:0:0:
99,286,31669,1,8,0:2:0:0:
74,382,31766,21,6,1:1:0:0:
8,358,31863,1,0,0:2:0:0:
5,289,31961,1,0,1:2:0:0:
65,254,32058,2,0,P|155:264|249:268,1,175,8|0,0:2|0:2,0:2:0:0:
377,239,32253,21,0,1:2:0:0:
381,229,32350,1,8,0:2:0:0:
382,216,32448,1,0,0:2:0:0:
358,149,32545,21,0,1:2:0:0:
386,86,32642,1,8,0:2:0:0:
454,74,32740,1,8,0:2:0:0:
500,126,32837,1,8,0:2:0:0:
460,187,32935,22,0,B|415:179|379:218|397:242|362:278|311:273,1,175,2|0,1:3|0:2,0:2:0:0:
313,268,33129,2,0,B|355:272|390:236|372:212|408:173|453:181,1,175,4|0,1:2|0:2,0:2:0:0:
512,320,33324,21,6,1:1:0:0:
482,383,33422,1,0,0:2:0:0:
413,380,33519,1,0,1:2:0:0:
383,316,33616,2,0,P|384:226|379:128,1,175,8|0,0:2|0:2,0:2:0:0:
287,16,33811,21,0,1:2:0:0:
277,12,33909,1,8,0:2:0:0:
264,10,34006,1,0,0:2:0:0:
213,67,34103,21,0,1:2:0:0:
175,92,34201,1,8,0:3:0:0:
134,92,34298,1,0,0:2:0:0:
100,70,34396,1,4,0:3:0:0:
90,59,34493,21,8,0:2:0:0:
156,22,34590,1,8,0:2:0:0:
231,41,34688,1,8,0:2:0:0:
271,109,34785,1,0,0:2:0:0:
278,130,34883,21,6,1:1:0:0:
275,157,34980,1,0,0:2:0:0:
273,184,35077,1,0,1:2:0:0:
270,212,35175,2,0,B|233:216|189:188|200:160|157:134|109:152,1,175,8|0,0:2|0:2,0:2:0:0:
120,234,35370,1,0,1:2:0:0:
120,234,35467,2,0,P|192:187|273:137,1,175,8|0,0:2|0:2,0:2:0:0:
399,139,35662,5,8,0:2:0:0:
405,144,35727,1,8,0:2:0:0:
413,155,35792,1,8,0:3:0:0:
419,175,35857,1,4,0:3:0:0:
411,191,35922,1,0,1:2:0:0:
394,205,35986,1,0,1:2:0:0:
371,234,36051,1,4,0:3:0:0:
365,282,36116,1,8,0:3:0:0:
389,293,36181,1,4,0:3:0:0:
400,274,36246,6,2,P|317:275|214:285,1,175,12|0,0:2|0:2,0:1:0:0:
95,347,36441,5,10,0:1:0:0:
68,276,36538,1,10,0:1:0:0:
275,138,36733,37,10,0:1:0:0:
248,209,36831,1,10,0:1:0:0:
52,81,37026,5,10,0:1:0:0:
38,45,37123,1,10,0:1:0:0:
24,9,37221,1,10,0:1:0:0:
24,9,37610,38,2,P|55:43|50:96,1,84,12|0,0:2|0:2,0:1:0:0:
5,175,38001,5,6,1:2:0:0:
21,132,38098,1,2,0:2:0:0:
62,113,38195,1,2,1:2:0:0:
105,128,38293,1,10,0:1:0:0:
283,326,38488,1,0,1:2:0:0:
286,341,38586,37,10,0:2:0:0:
240,347,38683,1,2,0:2:0:0:
203,321,38781,1,10,0:2:0:0:
195,277,38878,2,0,L|202:196,1,70,2|0,0:1|1:2,0:2:0:0:
222,78,39073,1,8,0:2:0:0:
231,65,39170,5,2,3:2:0:0:
276,66,39267,1,2,0:2:0:0:
308,97,39364,1,2,1:2:0:0:
308,142,39462,1,10,0:1:0:0:
131,373,39656,1,0,1:2:0:0:
118,383,39754,37,10,0:2:0:0:
90,346,39851,1,2,0:2:0:0:
94,303,39948,1,10,0:2:0:0:
129,274,40046,2,0,B|174:255|219:294|198:311|230:353|284:339,1,167.999994873047,2|2,0:1|0:1,0:2:0:0:
373,233,40353,5,6,1:2:0:0:
330,213,40450,1,2,0:2:0:0:
288,228,40547,1,2,1:2:0:0:
268,270,40645,1,10,0:1:0:0:
54,358,40841,1,0,1:2:0:0:
51,364,40938,37,10,0:2:0:0:
94,384,41035,1,2,0:2:0:0:
136,369,41132,1,10,0:2:0:0:
156,327,41230,2,0,L|149:249,1,70,2|0,0:1|1:2,0:2:0:0:
133,132,41425,1,8,0:2:0:0:
124,117,41522,5,2,0:2:0:0:
77,125,41619,1,2,1:2:0:0:
51,162,41716,1,2,1:2:0:0:
59,207,41814,1,10,0:1:0:0:
294,119,42008,1,8,1:2:0:0:
311,118,42105,37,2,0:2:0:0:
328,74,42202,1,2,0:2:0:0:
309,32,42301,37,10,0:2:0:0:
318,39,42365,1,8,0:2:0:0:
332,46,42430,1,8,0:2:0:0:
346,47,42495,1,8,0:2:0:0:
361,44,42560,1,10,0:1:0:0:
373,37,42625,1,8,0:2:0:0:
394,24,42690,21,8,0:3:0:0:
463,0,42788,1,4,0:3:0:0:
508,65,42885,37,6,1:2:0:0:
492,108,42981,1,2,0:2:0:0:
451,127,43078,1,2,1:2:0:0:
408,112,43176,1,10,0:1:0:0:
168,21,43371,1,0,1:2:0:0:
165,6,43468,5,10,0:2:0:0:
211,0,43565,1,2,0:2:0:0:
248,26,43663,1,10,0:2:0:0:
256,70,43760,2,0,L|249:151,1,70,2|0,0:1|1:2,0:2:0:0:
239,298,43956,1,8,0:2:0:0:
248,311,44053,37,2,0:2:0:0:
293,310,44150,1,2,1:2:0:0:
325,279,44247,1,2,1:2:0:0:
325,234,44345,1,10,0:1:0:0:
205,51,44539,5,0,1:2:0:0:
183,90,44636,1,10,0:2:0:0:
194,133,44733,1,2,0:2:0:0:
233,156,44831,1,10,0:2:0:0:
244,155,44929,2,0,P|311:147|416:147,1,167.999994873047,2|10,0:1|0:1,0:2:0:0:
487,88,45225,37,6,1:2:0:0:
463,49,45322,1,2,0:2:0:0:
420,37,45419,1,2,1:2:0:0:
381,59,45517,1,10,0:1:0:0:
253,222,45712,1,0,1:2:0:0:
258,234,45809,5,10,0:2:0:0:
234,273,45906,1,2,0:2:0:0:
191,285,46003,1,10,0:2:0:0:
152,263,46101,2,0,L|139:192,1,70,2|0,0:1|1:2,0:2:0:0:
95,23,46296,1,8,0:2:0:0:
83,19,46393,37,6,1:2:0:0:
44,43,46490,1,10,0:2:0:0:
32,86,46587,1,10,0:2:0:0:
54,125,46686,6,0,L|132:113,1,70,2|0,1:1|0:2,0:2:0:0:
326,195,46880,2,0,L|248:183,1,70,2|0,1:1|0:2,0:2:0:0:
175,304,47075,2,0,P|187:187|200:80,1,210.000008010865,2|0,1:1|0:2,0:2:0:0:
165,22,47367,21,8,0:2:0:0:
176,15,47432,1,8,0:2:0:0:
190,11,47497,1,8,0:2:0:0:
205,14,47562,5,10,0:1:0:0:
264,59,47660,1,8,0:2:0:0:
293,83,47757,1,8,0:3:0:0:
315,82,47854,1,8,0:2:0:0:
378,42,47948,5,4,1:2:0:0:
440,82,48045,1,0,0:2:0:0:
423,149,48142,1,0,1:2:0:0:
399,167,48240,2,0,P|350:168|305:195,1,90.9999958343508,8|0,0:2|0:2,0:2:0:0:
184,208,48435,1,0,1:2:0:0:
184,208,48532,2,0,P|231:221|267:259,1,90.9999958343508,8|0,0:2|0:2,0:2:0:0:
293,326,48727,6,0,P|282:223|271:130,1,195.999994018555,8|0,0:2|0:2,0:2:0:0:
328,0,48922,2,0,P|288:5|272:54,1,90.9999958343508,0|8,1:2|0:2,0:2:0:0:
340,115,49116,5,0,0:2:0:0:
351,122,49180,1,0,0:2:0:0:
365,126,49245,1,0,0:2:0:0:
394,121,49311,21,0,1:2:0:0:
450,171,49409,2,0,P|440:201|428:264,1,90.9999958343508,8|0,0:2|0:2,0:2:0:0:
401,381,49603,1,0,1:2:0:0:
401,381,49701,2,0,P|383:336|357:288,1,90.9999958343508,8|4,0:2|0:3,0:2:0:0:
271,240,49896,1,8,0:2:0:0:
271,240,49993,2,0,P|297:327|353:283,1,181.999991668702,0|8,0:2|0:2,0:2:0:0:
335,177,50281,5,4,1:2:0:0:
269,139,50378,1,0,0:2:0:0:
205,169,50475,1,0,1:2:0:0:
196,187,50573,2,0,P|175:229|172:272,1,90.9999958343508,8|0,0:2|0:2,0:2:0:0:
266,384,50768,1,0,1:2:0:0:
266,384,50865,2,0,P|262:338|242:298,1,90.9999958343508,8|0,0:2|0:2,0:2:0:0:
104,295,51060,38,0,P|214:286|317:276,1,210.000008010865,8|0,0:2|0:2,0:2:0:0:
432,377,51255,2,0,P|392:367|360:325,1,90.9999958343508,0|8,1:2|0:2,0:2:0:0:
361,220,51449,21,0,0:2:0:0:
364,207,51513,1,0,0:2:0:0:
363,192,51578,1,0,0:2:0:0:
342,169,51644,37,0,1:2:0:0:
294,115,51742,2,0,P|286:70|284:24,1,90.9999958343508,8|0,0:2|0:2,0:2:0:0:
437,168,51936,1,0,1:2:0:0:
437,168,52034,2,0,P|435:213|427:258,1,90.9999958343508,8|0,0:2|0:2,0:2:0:0:
335,350,52229,37,8,0:2:0:0:
259,370,52326,1,8,0:2:0:0:
188,341,52423,1,8,0:2:0:0:
161,267,52521,1,8,0:2:0:0:
190,196,52618,5,8,0:3:0:0:
181,201,52716,1,4,0:3:0:0:
119,146,52827,37,12,0:2:0:0:
179,104,52924,1,0,0:2:0:0:
246,140,53021,1,0,1:2:0:0:
253,159,53119,2,0,P|287:179|356:194,1,90.9999958343508,8|0,0:2|0:2,0:2:0:0:
493,201,53314,1,0,1:2:0:0:
493,201,53411,2,0,P|447:208|409:231,1,90.9999958343508,8|0,0:2|0:2,0:2:0:0:
383,312,53606,6,0,L|363:99,1,195.999994018555,8|0,0:2|0:2,0:2:0:0:
459,0,53801,2,0,P|455:43|417:71,1,90.9999958343508,0|8,1:2|0:2,0:2:0:0:
306,76,53995,5,2,0:3:0:0:
293,73,54059,1,0,0:2:0:0:
278,74,54124,1,0,0:2:0:0:
255,95,54190,21,0,1:2:0:0:
224,158,54288,2,0,P|179:181|142:172,1,90.9999958343508,8|0,0:2|0:2,0:2:0:0:
51,43,54482,1,0,1:2:0:0:
51,43,54580,2,0,P|93:70|104:107,1,90.9999958343508,8|0,0:2|0:2,0:2:0:0:
38,251,54775,2,0,P|40:200|66:172,1,90.9999958343508,8|0,0:2|0:2,0:2:0:0:
117,304,54969,21,8,0:2:0:0:
107,306,55034,1,8,0:2:0:0:
98,307,55099,1,8,0:2:0:0:
65,327,55145,5,4,1:2:0:0:
93,370,55242,1,0,0:2:0:0:
139,372,55339,1,8,0:2:0:0:
189,320,55437,2,0,P|197:264|214:198,1,112,2|0,1:1|0:2,0:2:0:0:
338,77,55755,5,4,1:2:0:0:
295,22,55852,1,0,0:2:0:0:
228,31,55949,1,0,0:2:0:0:
188,106,56047,2,0,P|201:145|208:187,1,83.9999974365235,10|0,0:1|0:2,0:2:0:0:
124,250,56339,37,4,1:2:0:0:
50,212,56436,1,0,0:2:0:0:
48,134,56534,1,8,0:2:0:0:
139,91,56631,2,0,P|161:98|182:115,1,41.9999987182618,6|0,1:1|0:2,0:2:0:0:
225,64,56826,1,10,0:1:0:0:
275,156,57002,5,4,1:2:0:0:
288,179,57099,1,0,0:2:0:0:
280,207,57196,1,0,1:2:0:0:
228,255,57294,37,8,0:2:0:0:
213,277,57391,1,0,0:2:0:0:
223,304,57489,1,0,1:2:0:0:
283,355,57586,6,0,P|316:349|343:317,1,70,8|0,0:2|0:2,0:2:0:0:
420,301,57781,2,0,P|423:267|400:232,1,70,0|0,1:2|0:2,0:2:0:0:
403,154,57976,1,8,0:2:0:0:
397,146,58073,1,8,0:2:0:0:
391,141,58170,38,2,B|391:129|378:124|378:124|378:137|390:139,1,42,8|0,0:2|0:2,1:1:0:0:
479,157,58559,22,0,B|396:126|368:195|372:199|377:206|347:280|271:261,1,251.999992309571,6|0,1:1|0:2,0:2:0:0:
204,233,58851,1,0,1:2:0:0:
204,233,58948,38,0,P|188:177|170:125,1,105.000004005432,8|0,0:2|0:2,0:2:0:0:
248,2,59143,1,8,0:2:0:0:
248,2,59240,2,0,P|199:17|195:75,1,105.000004005432,0|2,1:2|0:3,0:2:0:0:
269,195,59435,1,8,0:2:0:0:
269,195,59533,2,0,P|280:145|232:112,1,105.000004005432,0|8,1:2|0:2,0:2:0:0:
84,89,59727,5,8,0:2:0:0:
84,104,59825,1,8,0:3:0:0:
89,114,59922,2,0,P|126:148|178:123,1,105.000004005432,8|0,0:2|0:2,0:2:0:0:
202,26,60117,37,8,0:2:0:0:
202,26,60214,1,0,0:2:0:0:
202,26,60312,2,0,B|196:88|196:88|211:129|211:129|203:205,1,175,2|0,1:3|0:2,0:2:0:0:
98,257,60507,21,8,0:2:0:0:
113,190,60604,2,0,P|137:200|157:218,2,35,8|8|8,0:2|0:2|0:2,0:2:0:0:
63,144,60799,1,8,0:2:0:0:
96,116,60896,37,8,0:2:0:0:
114,132,60994,1,8,0:3:0:0:
120,157,61091,1,8,0:3:0:0:
112,183,61188,1,4,0:3:0:0:
41,226,61286,21,10,0:3:0:0:
28,244,61383,1,8,0:3:0:0:
27,269,61481,1,4,1:3:0:0:
38,290,61578,1,4,0:3:0:0:
51,300,61675,37,6,1:1:0:0:
63,298,61740,1,8,0:3:0:0:
77,297,61805,1,8,0:3:0:0:
89,296,61870,1,4,0:3:0:0:
100,295,61935,1,4,0:3:0:0:
186,351,62065,37,8,0:3:0:0:
198,353,62130,1,4,0:3:0:0:
212,354,62195,1,8,0:3:0:0:
224,355,62260,1,4,1:3:0:0:
238,356,62325,1,4,0:3:0:0:
321,289,62455,5,8,0:3:0:0:
330,279,62520,1,8,0:3:0:0:
342,271,62584,1,8,0:3:0:0:
355,267,62649,1,4,1:3:0:0:
369,264,62714,1,0,1:3:0:0:
457,224,62844,37,8,0:2:0:0:
453,185,62909,1,8,0:2:0:0:
475,160,62974,1,8,0:3:0:0:
507,139,63039,1,2,1:1:0:0:
511,115,63103,1,8,0:3:0:0:
500,98,63170,1,8,0:3:0:0:
487,94,63234,38,0,P|430:97|354:113,1,112,2|0,1:3|0:2,0:2:0:0:
272,55,63623,1,4,0:2:0:0:
306,31,63721,1,0,0:2:0:0:
347,35,63818,1,0,0:2:0:0:
376,64,63916,1,0,0:2:0:0:
380,105,64013,2,0,L|374:165,1,56,0|0,0:2|0:2,0:2:0:0:
319,289,64208,37,8,0:2:0:0:
317,278,64305,1,8,0:2:0:0:
316,267,64403,2,0,P|289:239|238:237,1,83.9999974365235,10|8,0:1|0:2,0:2:0:0:
187,192,64597,2,2,P|151:204|126:250,1,70,8|0,0:3|0:2,0:1:0:0:
209,302,64792,22,0,P|221:209|238:123,1,175,6|0,1:1|0:2,0:2:0:0:
144,6,64987,2,0,P|155:62|162:119,1,105.000004005432,0|0,1:2|0:2,0:2:0:0:
81,280,65182,2,0,P|88:227|98:176,1,105.000004005432,8|0,0:2|0:2,0:2:0:0:
168,118,65377,1,0,0:2:0:0:
168,118,65474,2,0,B|220:93|248:135|244:141|241:146|265:195|325:184,1,175,8|0,0:2|0:2,0:2:0:0:
425,182,65669,1,0,1:2:0:0:
413,158,65766,1,0,0:2:0:0:
393,146,65864,1,0,1:2:0:0:
366,145,65961,2,0,P|341:154|313:186,1,70,8|0,0:2|0:2,0:2:0:0:
276,299,66156,37,2,1:1:0:0:
276,299,66253,1,8,0:2:0:0:
276,299,66351,2,0,P|270:264|260:230,1,70,2|0,0:1|0:2,0:2:0:0:
328,118,66546,2,0,P|318:152|313:187,1,70,0|0,1:2|0:2,0:2:0:0:
406,160,66740,38,0,P|316:151|232:144,1,175,10|0,0:1|0:2,0:2:0:0:
74,107,66935,1,2,0:1:0:0:
74,107,67033,2,0,P|133:102|193:96,1,105.000004005432,8|0,0:2|0:2,0:2:0:0:
300,8,67227,1,0,1:2:0:0:
298,33,67325,1,2,0:1:0:0:
295,60,67422,1,0,1:2:0:0:
294,86,67520,2,0,P|289:145|283:205,1,105.000004005432,10|0,0:1|0:2,0:2:0:0:
361,102,67714,2,0,P|356:161|350:221,1,105.000004005432,2|8,1:1|0:2,0:2:0:0:
397,344,67909,21,2,1:1:0:0:
410,339,68006,1,8,0:2:0:0:
435,312,68103,1,2,1:1:0:0:
433,278,68201,1,2,0:1:0:0:
399,248,68299,2,0,B|329:228|294:280|313:299|284:359|206:327,1,210.000008010865,10|2,0:1|1:1,0:2:0:0:
169,281,68591,1,8,0:2:0:0:
169,281,68688,38,0,P|193:260|251:264,1,70,2|8,1:1|0:2,0:2:0:0:
388,321,68883,2,0,P|357:309|332:258,1,70,2|0,0:1|1:2,0:2:0:0:
313,111,69078,2,0,P|318:143|286:190,1,70,10|2,0:1|0:1,0:2:0:0:
253,258,69273,37,2,1:1:0:0:
253,258,69370,1,8,0:2:0:0:
253,258,69468,2,0,P|234:224|186:207,1,83.9999974365235,6|8,1:2|0:2,0:2:0:0:
309,298,69662,2,0,P|337:271|388:273,1,83.9999974365235,2|0,1:1|0:2,0:2:0:0:
282,365,69857,22,0,P|286:257|298:183,1,167.999994873047,14|0,1:2|0:2,0:2:0:0:
347,62,70052,1,2,1:2:0:0:
347,62,70149,2,0,P|352:103|353:145,1,83.9999974365235,10|2,0:2|0:2,0:2:0:0:
297,203,70344,1,10,0:2:0:0:
270,219,70442,1,2,0:2:0:0:
239,207,70539,1,2,1:2:0:0:
201,143,70636,37,10,0:1:0:0:
150,92,70734,1,8,0:2:0:0:
88,119,70831,1,8,0:3:0:0:
83,164,70929,1,8,0:3:0:0:
97,179,71026,38,0,P|178:161|267:148,1,167.999994873047,6|0,1:1|0:2,0:2:0:0:
395,102,71221,2,0,P|347:95|299:85,1,83.9999974365235,0|0,1:2|0:2,0:2:0:0:
172,21,71416,2,0,P|187:68|202:131,1,105.000004005432,8|0,0:2|0:2,0:2:0:0:
242,259,71610,1,0,1:2:0:0:
242,259,71708,2,0,P|254:207|270:158,1,105.000004005432,8|0,0:2|0:2,0:2:0:0:
386,30,71903,21,0,1:2:0:0:
413,25,72000,1,0,0:2:0:0:
446,40,72097,1,0,1:2:0:0:
461,77,72195,2,0,P|446:125|435:177,1,83.9999974365235,8|0,0:2|0:2,0:2:0:0:
485,278,72390,1,2,1:1:0:0:
485,278,72487,1,8,0:2:0:0:
485,278,72584,38,0,B|427:310|387:262|391:258|397:254|368:185|298:218,1,210.000008010865,2|0,1:1|1:2,0:2:0:0:
222,379,72974,1,10,0:1:0:0:
281,333,73169,1,2,1:1:0:0:
281,333,73266,38,2,P|268:187|253:67,1,251.999992309571,8|2,0:2|1:1,0:1:0:0:
169,17,73559,1,2,0:1:0:0:
159,33,73656,1,2,1:1:0:0:
164,53,73753,22,0,P|207:60|246:73,1,83.9999974365235,10|0,0:1|0:2,0:2:0:0:
232,141,73948,2,0,P|192:127|150:121,1,83.9999974365235,2|8,1:1|0:2,0:2:0:0:
55,135,74143,38,0,B|137:89|164:178|159:182|154:187|193:288|288:235,1,280,6|2,1:1|1:1,0:2:0:0:
356,124,74533,1,10,0:1:0:0:
347,101,74630,1,2,0:1:0:0:
309,80,74727,1,2,1:1:0:0:
241,79,74825,1,8,0:2:0:0:
192,25,74922,38,0,P|222:87|239:170,1,154.000004699707,2|0,0:1|1:2,0:2:0:0:
172,237,75117,1,2,0:1:0:0:
230,277,75214,1,2,1:1:0:0:
240,271,75312,1,10,0:1:0:0:
247,384,75507,21,2,1:1:0:0:
247,384,75604,1,10,1:1:0:0:
247,384,75701,2,0,P|254:294|277:205,1,175,2|0,1:2|0:2,0:2:0:0:
319,357,75896,2,0,P|329:269|353:182,1,175,2|0,1:1|0:2,0:2:0:0:
501,167,76091,38,0,L|362:178,1,140,10|0,0:1|0:2,0:2:0:0:
230,144,76286,1,10,0:1:0:0:
218,157,76383,1,0,1:2:0:0:
214,171,76481,37,2,0:1:0:0:
167,119,76578,1,8,0:2:0:0:
99,115,76675,1,2,1:1:0:0:
59,140,76773,1,8,0:2:0:0:
41,141,76870,5,10,0:1:0:0:
24,134,76968,1,8,0:3:0:0:
4,111,77065,1,8,0:2:0:0:
4,45,77162,1,8,0:2:0:0:
80,20,77260,5,2,1:3:0:0:
76,30,77357,1,2,0:2:0:0:
74,38,77455,1,2,0:2:0:0:
72,48,77552,1,2,0:2:0:0:
145,98,77649,37,6,0:2:0:0:
157,114,77747,1,2,0:2:0:0:
163,133,77844,1,2,1:2:0:0:
164,155,77942,1,2,0:2:0:0:
219,219,78039,37,10,0:2:0:0:
211,231,78103,1,2,0:2:0:0:
205,243,78168,1,2,0:2:0:0:
200,256,78233,1,2,0:2:0:0:
196,269,78298,1,2,0:2:0:0:
192,283,78363,1,2,0:2:0:0:
212,304,78429,37,2,0:3:0:0:
246,326,78494,1,2,0:3:0:0:
291,322,78559,1,2,0:3:0:0:
321,307,78623,1,2,0:3:0:0:
366,304,78688,1,2,0:3:0:0:
385,323,78753,1,2,0:3:0:0:
392,331,78818,5,6,1:1:0:0:
463,334,78916,1,0,0:2:0:0:
504,277,79013,1,0,1:2:0:0:
483,211,79110,2,0,P|376:224|273:229,1,175,8|0,0:2|0:2,0:2:0:0:
194,179,79306,21,0,1:2:0:0:
185,170,79404,1,8,0:2:0:0:
180,159,79501,1,0,0:2:0:0:
185,84,79598,21,0,1:2:0:0:
134,32,79696,1,8,0:2:0:0:
61,45,79793,1,8,0:2:0:0:
34,114,79891,1,8,0:2:0:0:
76,175,79988,21,8,0:3:0:0:
88,168,80085,1,4,0:3:0:0:
94,156,80182,2,0,P|172:159|266:178,1,175,8|0,0:2|0:2,0:2:0:0:
387,164,80376,21,6,1:1:0:0:
458,167,80473,1,0,0:2:0:0:
499,110,80570,1,0,1:2:0:0:
478,45,80669,2,0,P|406:51|290:69,1,175,8|0,0:2|0:2,0:2:0:0:
218,153,80863,21,0,1:2:0:0:
214,163,80961,1,8,0:2:0:0:
212,176,81058,1,0,0:2:0:0:
269,227,81155,21,0,1:2:0:0:
294,265,81252,1,8,0:3:0:0:
294,306,81351,1,0,0:2:0:0:
272,340,81447,1,4,0:3:0:0:
261,350,81545,21,8,0:2:0:0:
224,284,81642,1,8,0:2:0:0:
243,209,81739,1,8,0:2:0:0:
311,169,81837,1,8,0:2:0:0:
338,156,81934,21,6,1:1:0:0:
360,122,82032,1,8,0:2:0:0:
360,81,82129,1,0,1:2:0:0:
335,43,82227,2,0,P|252:56|152:63,1,175,8|0,0:2|0:2,0:2:0:0:
41,7,82422,21,0,1:2:0:0:
42,17,82520,1,8,0:2:0:0:
46,30,82617,1,0,0:2:0:0:
96,84,82714,21,0,1:2:0:0:
121,122,82812,1,8,0:3:0:0:
121,163,82909,1,0,0:2:0:0:
99,197,83007,1,4,0:3:0:0:
89,206,83104,21,8,0:2:0:0:
155,169,83201,1,8,0:2:0:0:
227,188,83299,1,8,0:2:0:0:
270,256,83396,1,0,0:2:0:0:
259,269,83493,21,6,1:1:0:0:
267,230,83591,1,0,0:2:0:0:
298,208,83688,1,0,1:2:0:0:
337,215,83786,2,0,B|373:220|409:259|391:283|426:319|477:314,1,175,8|0,0:2|0:2,0:2:0:0:
494,234,83980,1,0,1:2:0:0:
494,234,84078,2,0,P|432:250|321:288,1,175,8|0,0:2|0:2,0:2:0:0:
210,370,84273,37,8,0:2:0:0:
202,378,84338,1,8,0:2:0:0:
185,384,84403,1,8,0:3:0:0:
168,379,84468,1,0,1:2:0:0:
149,364,84533,1,0,1:2:0:0:
142,341,84597,1,0,1:2:0:0:
114,326,84662,1,8,0:3:0:0:
75,333,84727,1,4,0:3:0:0:
66,366,84792,1,8,0:3:0:0:
83,371,84857,6,0,P|82:288|72:185,1,175,10|0,0:1|0:2,0:2:0:0:
76,43,85051,21,6,1:1:0:0:
16,71,85148,1,0,0:2:0:0:
10,141,85247,1,0,1:2:0:0:
64,187,85344,2,0,P|177:164|245:157,1,175,8|0,0:2|0:2,0:2:0:0:
340,219,85539,21,0,1:2:0:0:
351,215,85636,1,8,0:2:0:0:
361,207,85734,1,0,0:2:0:0:
391,143,85831,21,0,1:2:0:0:
455,118,85929,1,8,0:2:0:0:
512,158,86026,1,8,0:2:0:0:
508,227,86123,1,8,0:3:0:0:
442,260,86221,21,8,0:2:0:0:
432,268,86318,1,4,0:3:0:0:
427,282,86415,1,8,0:2:0:0:
425,298,86512,1,8,0:2:0:0:
439,376,86610,21,6,1:1:0:0:
509,359,86707,1,0,0:2:0:0:
511,286,86804,1,0,1:2:0:0:
447,254,86902,2,0,P|357:264|263:268,1,175,8|0,0:2|0:2,0:2:0:0:
135,239,87097,21,0,1:2:0:0:
131,229,87195,1,8,0:2:0:0:
130,216,87292,1,0,0:2:0:0:
154,149,87389,21,0,1:2:0:0:
126,86,87486,1,8,0:2:0:0:
58,74,87583,1,8,0:2:0:0:
12,126,87681,1,8,0:2:0:0:
52,187,87779,22,0,B|97:179|133:218|115:242|150:278|201:273,1,175,2|0,1:3|0:2,0:2:0:0:
199,268,87973,2,0,B|157:272|122:236|140:212|104:173|59:181,1,175,4|0,1:2|0:2,0:2:0:0:
0,320,88168,21,6,1:1:0:0:
30,383,88265,1,0,0:2:0:0:
99,380,88364,1,0,1:2:0:0:
129,316,88461,2,0,P|128:226|133:128,1,175,8|0,0:2|0:2,0:2:0:0:
225,16,88655,21,0,1:2:0:0:
235,12,88753,1,8,0:2:0:0:
248,10,88850,1,0,0:2:0:0:
299,67,88948,21,0,1:2:0:0:
337,92,89046,1,8,0:3:0:0:
378,92,89143,1,0,0:2:0:0:
412,70,89240,1,4,0:3:0:0:
422,59,89337,21,8,0:2:0:0:
356,22,89434,1,8,0:2:0:0:
281,41,89533,1,8,0:2:0:0:
241,109,89629,1,0,0:2:0:0:
246,177,89727,21,6,1:1:0:0:
218,236,89825,1,0,0:2:0:0:
156,261,89922,1,0,1:2:0:0:
89,240,90020,1,8,0:2:0:0:
53,182,90117,21,8,0:2:0:0:
52,166,90181,1,8,0:2:0:0:
51,152,90246,1,8,0:2:0:0:
47,138,90311,1,8,0:3:0:0:
44,126,90376,1,4,0:3:0:0:
40,112,90441,1,8,0:3:0:0:
30,99,90506,37,2,1:3:0:0:
37,103,90570,1,0,0:2:0:0:
48,109,90635,1,8,0:3:0:0:
69,112,90700,1,4,0:3:0:0:
83,101,90765,1,0,1:2:0:0:
95,82,90830,1,0,1:2:0:0:
115,51,90895,1,4,0:3:0:0:
160,31,90961,1,8,0:3:0:0:
212,59,91026,1,4,0:3:0:0:
217,103,91091,6,2,P|205:173|199:231,1,125.999996154785,12|0,0:2|0:2,0:1:0:0:
351,384,91286,6,2,P|364:275|188:243,1,308.000009399414,6|0,1:1|0:2,0:1:0:0:
65,382,91578,2,2,P|51:273|227:241,1,308.000009399414,14|0,1:1|0:2,0:1:0:0:
196,355,91870,38,2,P|201:282|215:134,1,210.000008010865,6|0,1:1|1:2,0:1:0:0:
428,65,92260,1,4,1:2:0:0:
462,1,92455,5,8,0:2:0:0:
488,22,92552,1,8,0:2:0:0:
501,53,92649,1,8,1:3:0:0:
497,87,92747,1,4,0:3:0:0:
478,114,92844,2,2,B|403:199|309:118|341:88|267:-2|169:52,1,350,6|0,1:1|0:2,0:1:0:0:
40,116,93136,2,0,B|114:200|208:119|176:89|250:-1|348:53,1,350,14|0,1:1|0:2,0:2:0:0:
258,149,93429,37,14,1:1:0:0:
185,306,93623,37,0,1:2:0:0:
195,318,93688,1,8,0:2:0:0:
208,324,93753,1,8,0:3:0:0:
222,324,93818,1,4,0:3:0:0:
236,319,93883,1,4,0:3:0:0:
247,311,93948,1,4,0:3:0:0:
263,284,94013,21,8,0:2:0:0:
280,217,94110,1,8,0:2:0:0:
346,200,94208,1,8,0:2:0:0:
399,250,94305,1,8,0:2:0:0:
379,321,94403,2,2,P|201:226|13:274,1,391.99998803711,6|0,1:1|0:2,0:1:0:0:
137,337,94695,2,2,P|315:242|503:290,1,391.99998803711,14|8,1:1|0:2,0:1:0:0:
270,366,94987,37,14,1:1:0:0:
160,174,95378,5,8,0:2:0:0:
161,181,95475,1,8,0:2:0:0:
163,190,95572,1,8,0:3:0:0:
178,235,95669,1,4,0:3:0:0:
222,254,95766,1,4,1:3:0:0:
265,235,95864,1,8,0:2:0:0:
276,220,95961,38,0,P|266:178|252:133,1,83.9999974365235,10|0,0:1|0:2,0:2:0:0:
245,142,96253,2,0,P|257:182|267:222,1,83.9999974365235,10|0,0:1|0:2,0:2:0:0:
306,300,96546,6,0,B|351:288|377:331|369:344|396:380|447:362,1,168,14|0,0:1|0:2,0:2:0:0:
476,300,96935,37,8,0:2:0:0:
394,263,97033,1,8,0:2:0:0:
324,291,97130,1,12,0:2:0:0:
299,355,97227,1,8,0:3:0:0:
268,375,97325,1,8,0:2:0:0:
242,369,97422,1,8,0:2:0:0:
236,362,97520,6,0,P|221:319|186:248,1,105.000004005432,6|2,1:2|0:2,0:2:0:0:
220,184,97714,1,2,1:2:0:0:
91,228,97812,2,0,L|298:273,1,210.000008010865,10|0,0:2|1:2,0:2:0:0:
506,231,98104,37,14,0:2:0:0:
448,287,98201,1,2,0:2:0:0:
376,257,98299,1,2,1:2:0:0:
324,204,98396,1,10,0:2:0:0:
254,221,98494,1,2,1:2:0:0:
236,284,98591,1,10,0:2:0:0:
242,311,98688,21,10,0:2:0:0:
236,336,98786,1,10,0:2:0:0:
246,350,98883,1,8,0:3:0:0:
242,358,98981,1,4,0:3:0:0:
245,364,99078,1,4,1:2:0:0:
208,99,99273,38,0,B|145:24|57:88|102:163|141:135,1,195.999994018555,2|8,1:1|0:2,0:2:0:0:
304,99,99468,2,0,B|366:24|454:88|409:163|370:135,1,195.999994018555,6|0,0:1|1:2,0:2:0:0:
256,48,99662,1,8,0:2:0:0:
17,290,99857,37,2,1:2:0:0:
80,322,99955,1,10,0:2:0:0:
140,279,100052,1,10,0:2:0:0:
140,209,100149,1,2,0:2:0:0:
84,151,100247,37,10,0:2:0:0:
62,111,100312,1,10,0:2:0:0:
84,71,100377,1,8,0:3:0:0:
128,64,100442,1,4,0:3:0:0:
157,82,100507,1,4,0:3:0:0:
165,101,100571,1,4,1:3:0:0:
165,113,100636,1,6,1:3:0:0:
72,245,100831,38,0,P|176:228|290:221,1,195.999994018555,2|8,1:1|0:2,0:2:0:0:
500,361,101123,1,0,1:2:0:0:
495,367,101221,37,10,0:2:0:0:
476,384,101318,1,2,0:2:0:0:
439,384,101416,1,2,1:2:0:0:
397,359,101513,1,10,0:2:0:0:
380,297,101610,1,2,1:2:0:0:
433,245,101708,21,10,0:2:0:0:
437,239,101757,1,8,0:2:0:0:
436,232,101805,5,10,0:2:0:0:
378,180,101903,1,10,0:2:0:0:
369,112,102000,1,8,0:3:0:0:
394,82,102097,1,4,0:3:0:0:
404,78,102195,1,4,1:3:0:0:
137,275,102390,22,2,P|222:278|300:356,1,195.999994018555,12|0,0:2|0:2,0:1:0:0:
378,274,102584,2,2,P|282:282|217:352,1,195.999994018555,8|8,0:2|0:2,0:1:0:0:
257,212,102877,37,8,0:2:0:0:
263,205,102974,1,2,1:2:0:0:
269,185,103071,1,10,0:2:0:0:
266,145,103169,1,10,0:2:0:0:
201,120,103266,1,10,0:2:0:0:
139,171,103364,37,14,0:2:0:0:
94,193,103429,1,10,0:2:0:0:
50,180,103494,1,10,0:2:0:0:
41,145,103559,1,10,0:2:0:0:
56,121,103623,1,10,0:2:0:0:
73,115,103688,1,10,0:2:0:0:
84,117,103753,22,0,P|101:149|98:183,1,70,2|0,1:3|0:2,0:2:0:0:
0,250,103948,2,2,P|121:217|322:183,1,322.000006141663,10|2,0:1|1:2,0:1:0:0:
436,246,104240,1,2,1:2:0:0:
436,246,104338,2,0,P|354:251|324:168,1,161.000003070831,10|0,0:2|0:2,0:2:0:0:
397,14,104533,37,2,1:2:0:0:
469,23,104630,1,2,0:2:0:0:
502,79,104727,1,10,0:2:0:0:
479,139,104825,1,6,1:3:0:0:
466,149,104922,37,2,0:2:0:0:
452,149,105020,1,6,1:3:0:0:
439,149,105117,2,2,P|291:128|107:98,1,322.000006141663,8|4,0:2|1:2,0:1:0:0:
380,79,105507,22,0,P|361:130|346:198,1,105.000004005432,10|0,0:1|0:2,0:2:0:0:
316,59,105701,2,0,P|297:110|282:178,1,105.000004005432,2|0,1:1|1:2,0:2:0:0:
222,197,105896,1,8,0:2:0:0:
28,355,106091,37,10,0:2:0:0:
0,286,106188,1,8,0:3:0:0:
41,227,106286,1,8,0:3:0:0:
108,229,106383,1,10,0:2:0:0:
146,298,106481,21,10,0:2:0:0:
178,338,106546,1,8,0:2:0:0:
230,331,106611,1,8,0:3:0:0:
247,299,106676,1,8,0:3:0:0:
239,272,106740,1,4,0:3:0:0:
224,262,106805,1,4,1:3:0:0:
213,261,106870,6,0,P|196:290|206:331,1,70,2|0,1:3|0:2,0:2:0:0:
303,380,107065,2,2,P|324:254|260:143,1,251.999992309571,10|2,0:1|1:2,0:1:0:0:
160,95,107357,1,2,1:2:0:0:
160,95,107455,2,0,P|201:148|280:136,1,125.999996154785,12|0,0:2|0:2,0:2:0:0:
399,20,107649,21,2,1:2:0:0:
467,48,107746,1,2,0:2:0:0:
480,119,107844,1,10,0:2:0:0:
431,165,107941,1,10,0:2:0:0:
376,220,108039,1,2,1:2:0:0:
364,294,108136,1,10,0:2:0:0:
419,348,108234,1,10,0:2:0:0:
478,321,108331,1,10,0:2:0:0:
466,296,108429,2,0,P|360:272|249:260,1,195.999994018555,4|2,1:2|0:2,0:2:0:0:
107,140,108623,38,0,P|126:191|141:259,1,105.000004005432,10|0,0:1|0:2,0:2:0:0:
171,121,108818,2,0,P|190:172|205:240,1,105.000004005432,2|0,1:1|1:2,0:2:0:0:
262,255,109013,1,8,0:2:0:0:
484,101,109208,38,0,P|478:47|398:39,1,140,10|0,0:1|1:2,0:2:0:0:
332,196,109500,2,0,P|381:174|363:95,1,140,14|0,0:1|1:2,0:2:0:0:
250,86,109792,2,0,P|268:106|302:85,1,70,10|0,0:1|0:2,0:2:0:0:
221,11,109987,22,0,P|249:177|274:372,1,350,6|0,1:2|0:2,0:2:0:0:
339,287,110571,37,2,0:2:0:0:
330,293,110669,1,2,0:2:0:0:
323,298,110766,2,0,B|264:258|214:292|227:318|184:359|116:318,2,210,10|8|4,0:2|0:3|0:3,0:2:0:0:
481,378,111546,37,10,0:1:0:0:
508,307,111643,1,10,0:1:0:0:
310,225,111838,5,10,0:1:0:0:
337,296,111935,1,10,0:1:0:0:
472,188,112130,37,10,0:1:0:0:
499,117,112227,1,10,0:1:0:0:
341,44,112423,5,10,0:1:0:0:
368,115,112520,1,10,0:1:0:0:
478,5,112714,5,8,0:2:0:0:
477,17,112812,1,8,0:3:0:0:
476,28,112909,1,8,1:3:0:0:
475,40,113007,1,4,0:3:0:0:
438,64,113104,21,4,1:2:0:0:
395,47,113201,1,0,0:2:0:0:
351,49,113298,1,0,0:2:0:0:
309,67,113396,1,0,0:2:0:0:
278,100,113493,1,0,0:2:0:0:
262,142,113591,1,0,0:2:0:0:
263,187,113688,1,0,0:2:0:0:
281,228,113785,1,0,0:2:0:0:
313,259,113883,1,0,0:2:0:0:
354,276,113980,1,0,0:2:0:0:
399,276,114078,1,0,0:2:0:0:
441,259,114175,1,0,0:2:0:0:
449,246,114272,5,0,0:2:0:0:
445,196,114369,1,0,0:2:0:0:
424,151,114467,1,0,0:2:0:0:
388,118,114564,1,0,0:2:0:0:
342,100,114662,1,0,0:2:0:0:
293,102,114759,1,0,0:2:0:0:
247,122,114856,1,0,0:2:0:0:
213,158,114954,1,0,0:2:0:0:
195,204,115051,1,0,0:2:0:0:
196,252,115149,1,0,0:2:0:0:
210,280,115246,5,0,3:2:0:0:
217,276,115343,1,0,3:2:0:0:
225,271,115441,21,2,0:3:0:0:
263,249,115539,1,0,0:2:0:0:
289,215,115636,1,0,0:2:0:0:
302,174,115733,1,0,0:2:0:0:
300,132,115831,1,0,0:2:0:0:
281,93,115928,1,0,0:2:0:0:
247,65,116026,1,0,0:2:0:0:
208,52,116123,1,0,0:2:0:0:
165,53,116220,1,0,0:2:0:0:
127,72,116318,1,0,0:2:0:0:
98,103,116415,1,0,0:2:0:0:
83,144,116513,1,0,0:2:0:0:
84,169,116610,5,0,0:2:0:0:
113,205,116708,1,0,0:2:0:0:
155,214,116805,1,0,0:2:0:0:
198,207,116902,1,0,0:2:0:0:
235,185,117000,1,0,0:2:0:0:
262,150,117097,1,0,0:2:0:0:
260,136,117195,5,0,3:2:0:0:
255,125,117292,1,0,3:2:0:0:
255,111,117389,1,0,3:2:0:0:
345,6,117584,5,0,0:2:0:0:
345,20,117649,1,0,0:2:0:0:
340,31,117714,1,0,0:2:0:0:
332,42,117779,6,0,L|211:30,1,105.000004005432,4|0,0:2|0:2,0:2:0:0:
150,70,117974,1,0,0:2:0:0:
150,70,118071,1,0,0:2:0:0:
150,70,118168,2,0,L|77:78,1,70,0|0,0:2|0:2,0:2:0:0:
24,43,118363,5,2,0:3:0:0:
219,20,118558,1,2,0:3:0:0:
320,187,118753,1,0,0:2:0:0:
320,187,118850,1,0,0:2:0:0:
320,187,118948,37,2,0:3:0:0:
130,153,119142,1,2,0:3:0:0:
281,42,119337,1,0,0:2:0:0:
281,42,119434,1,0,0:2:0:0:
281,42,119532,2,0,L|273:122,1,70,2|0,0:3|0:2,0:2:0:0:
314,175,119727,1,0,0:2:0:0:
315,192,119824,1,0,0:2:0:0:
317,209,119921,1,0,0:2:0:0:
318,227,120019,1,0,0:2:0:0:
338,257,120116,5,0,0:2:0:0:
338,257,120214,1,0,0:2:0:0:
338,257,120311,1,2,0:3:0:0:
123,304,120506,1,2,0:3:0:0:
339,332,120701,37,0,0:2:0:0:
339,332,120798,1,0,0:2:0:0:
339,332,120896,1,2,0:3:0:0:
105,225,121091,1,2,0:3:0:0:
222,372,121285,5,0,0:2:0:0:
222,372,121383,1,0,0:2:0:0:
222,372,121480,2,0,L|228:303,1,70,2|0,0:3|0:2,0:2:0:0:
265,240,121675,2,0,L|258:171,1,70,2|0,0:3|0:2,0:2:0:0:
219,114,121870,1,0,1:2:0:0:
477,239,122065,37,10,2:2:0:0:
503,300,122162,1,10,2:2:0:0:
470,360,122259,1,10,2:2:0:0:
402,372,122357,1,10,2:2:0:0:
353,325,122454,6,0,P|337:242|318:176,1,140,6|8,1:2|0:2,0:2:0:0:
260,219,122746,1,2,0:2:0:0:
260,219,122844,2,0,P|274:243|318:266,1,70,8|0,0:2|0:2,0:2:0:0:
423,294,123039,2,0,P|388:299|361:319,1,70,2|8,0:2|0:2,0:2:0:0:
439,374,123233,38,0,P|445:290|457:210,1,154.000004699707,0|8,1:2|0:2,0:2:0:0:
436,97,123428,1,10,0:2:0:0:
501,149,123526,1,8,0:2:0:0:
464,213,123623,6,0,B|436:195|394:230|414:245|385:275|320:259,1,140,2|8,1:2|0:2,0:2:0:0:
290,164,123915,1,2,0:2:0:0:
290,164,124013,2,0,P|317:168|355:201,1,70,8|0,0:2|0:2,0:2:0:0:
226,111,124207,2,0,P|209:132|161:148,1,70,2|8,0:2|0:2,0:2:0:0:
16,117,124402,37,10,1:2:0:0:
43,52,124500,1,8,0:2:0:0:
110,36,124597,1,2,0:2:0:0:
163,77,124694,1,8,0:2:0:0:
170,148,124792,6,0,P|158:239|153:311,1,140,2|8,1:2|0:2,0:2:0:0:
179,356,125084,1,2,0:2:0:0:
179,356,125181,38,0,P|209:338|220:296,1,70,8|0,1:2|0:2,0:2:0:0:
126,197,125376,2,0,P|152:219|195:217,1,70,2|8,0:2|0:2,0:2:0:0:
260,97,125571,2,0,P|246:129|262:169,1,70,10|0,0:2|0:2,0:2:0:0:
384,215,125766,1,10,0:2:0:0:
384,215,125863,1,8,0:2:0:0:
384,215,125961,6,0,B|356:233|314:198|334:183|305:153|240:169,1,140,2|8,1:2|0:2,0:2:0:0:
210,264,126253,1,2,0:2:0:0:
210,264,126351,2,0,P|237:260|275:227,1,70,8|0,1:2|0:2,0:2:0:0:
376,320,126545,2,0,P|359:299|311:283,1,70,2|8,0:2|0:2,0:2:0:0:
200,329,126740,37,10,1:2:0:0:
136,349,126837,1,8,0:2:0:0:
80,311,126934,1,8,0:2:0:0:
74,242,127032,1,8,0:2:0:0:
125,197,127129,6,0,P|194:183|276:175,1,140,6|8,1:2|0:2,0:2:0:0:
319,128,127422,1,2,0:2:0:0:
319,128,127519,38,0,P|292:105|248:108,1,70,8|0,1:2|0:2,0:2:0:0:
184,227,127714,2,0,P|196:195|180:155,1,70,2|8,0:3|0:2,0:2:0:0:
45,133,127909,2,0,P|79:135|112:107,1,70,2|0,1:2|0:2,0:2:0:0:
191,11,128104,1,10,0:2:0:0:
156,53,128201,1,8,0:2:0:0:
169,15,128298,6,0,P|174:99|185:167,1,140,2|8,1:2|0:2,0:2:0:0:
248,131,128591,1,2,0:2:0:0:
248,131,128688,2,0,P|237:105|196:77,1,70,8|0,1:2|0:2,0:2:0:0:
105,34,128883,1,10,0:2:0:0:
62,86,128980,1,8,0:2:0:0:
63,16,129078,2,0,P|85:47|101:96,1,70,10|0,1:2|0:2,0:2:0:0:
49,211,129272,2,0,P|64:176|99:138,1,70,8|0,0:2|0:2,0:2:0:0:
197,219,129467,37,2,1:2:0:0:
223,296,129597,1,2,0:2:0:0:
177,228,129727,1,2,0:2:0:0:
254,101,129857,21,2,1:2:0:0:
303,40,129987,1,2,0:2:0:0:
271,113,130116,1,2,0:2:0:0:
124,111,130246,37,2,1:2:0:0:
44,95,130376,1,2,0:2:0:0:
126,89,130506,1,2,0:2:0:0:
210,141,130636,38,2,B|267:174|308:123|286:90|322:33|385:42|390:75,1,210.000008010865,2|8,1:1|0:2,0:1:0:0:
441,105,130928,1,2,0:2:0:0:
441,105,131026,2,0,P|428:140|419:185,1,70,8|0,1:2|0:2,0:2:0:0:
489,258,131220,1,8,0:2:0:0:
510,216,131318,1,8,0:2:0:0:
466,270,131415,5,8,1:2:0:0:
496,294,131513,1,8,0:2:0:0:
505,320,131610,1,8,0:3:0:0:
507,336,131707,1,0,0:2:0:0:
501,344,131806,6,0,B|415:437|334:306|424:266|319:155|253:241,1,350,14|0,1:1|0:2,0:2:0:0:
10,344,132098,2,0,B|96:437|177:306|87:266|192:155|258:241,1,350,6|0,1:1|0:2,0:2:0:0:
420,222,132390,38,0,B|485:276|388:367|337:286|366:260|314:178|234:254,1,280,14|0,1:1|0:2,0:2:0:0:
91,222,132682,2,0,B|26:276|123:367|174:286|145:260|197:178|277:254,1,280,6|0,1:1|0:2,0:2:0:0:
256,313,132974,37,2,1:2:0:0:
270,336,133104,1,8,0:3:0:0:
241,336,133234,1,4,0:3:0:0:
257,159,133364,21,8,0:2:0:0:
292,101,133494,1,8,0:2:0:0:
219,101,133624,1,0,1:2:0:0:
260,227,133754,38,2,B|256:231|255:237|255:237|254:231|250:227,1,23.3333333333333,10|0,0:2|0:2,0:1:0:0:
258,206,134147,37,14,0:1:0:0:
258,206,134341,1,2,0:1:0:0:
450,175,135121,21,0,1:2:0:0:
73,245,135315,1,8,0:2:0:0:
258,28,135705,21,10,0:1:0:0:
258,28,135900,1,10,0:1:0:0:
179,27,136680,21,0,1:2:0:0:
260,42,136777,1,0,1:2:0:0:
340,57,136874,1,10,0:2:0:0:
258,356,137263,21,10,0:1:0:0:
258,356,137458,1,10,0:1:0:0:
335,332,138238,21,0,1:2:0:0:
260,346,138335,1,0,1:2:0:0:
184,360,138432,1,8,0:2:0:0:
258,206,138823,21,10,0:1:0:0:
258,206,139017,1,10,0:1:0:0:
369,260,139211,21,8,0:2:0:0:
404,235,139309,1,8,0:2:0:0:
408,200,139406,1,8,0:2:0:0:
380,179,139504,1,8,0:2:0:0:
354,177,139601,1,10,0:2:0:0:
345,185,139698,38,0,B|278:204|239:156|262:139|211:82|145:106,1,224,6|0,1:1|0:2,0:2:0:0:
327,112,139893,1,8,0:2:0:0:
327,112,139991,2,0,P|254:135|162:173,1,175,6|0,1:1|0:2,0:2:0:0:
123,231,140185,1,8,0:2:0:0:
58,179,140283,1,8,0:2:0:0:
121,237,140380,6,2,B|229:277|251:162|244:162|237:163|220:9|366:40,1,350,4|2,1:2|0:1,0:1:0:0:
333,136,140672,1,0,3:2:0:0:
333,136,140770,2,2,P|234:137|143:158,1,175,14|2,0:2|0:1,0:1:0:0:
0,23,141062,1,10,0:2:0:0:
0,23,141159,22,0,P|28:49|41:100,1,70,2|10,1:2|0:2,0:2:0:0:
28,223,141354,2,0,P|41:191|67:168,1,70,2|0,1:1|0:2,0:2:0:0:
241,189,141549,5,10,0:2:0:0:
250,261,141646,1,8,0:3:0:0:
197,314,141743,1,2,1:2:0:0:
123,304,141841,1,10,0:2:0:0:
105,238,141939,6,2,B|210:178|257:276|249:279|240:283|294:379|404:339,1,350,6|2,1:2|1:1,0:1:0:0:
448,274,142231,1,0,0:2:0:0:
448,274,142328,2,2,P|413:202|347:219,1,140,14|2,0:2|0:1,0:1:0:0:
0,366,142621,1,10,0:2:0:0:
0,366,142718,22,0,P|35:363|66:400,1,70,2|10,0:2|0:2,0:2:0:0:
227,305,142913,2,0,P|200:326|166:323,1,70,2|8,1:1|0:2,0:2:0:0:
59,248,143108,5,10,0:1:0:0:
55,181,143205,1,8,0:2:0:0:
107,138,143302,1,0,1:2:0:0:
172,152,143400,1,8,0:2:0:0:
195,222,143497,6,2,B|106:246|89:164|98:161|112:158|88:51|-3:82,1,280,6|2,1:1|1:1,0:1:0:0:
27,155,143789,1,0,0:2:0:0:
27,155,143887,2,2,P|95:146|170:156,1,140,14|2,0:2|0:1,0:1:0:0:
397,25,144179,1,10,0:2:0:0:
397,25,144276,22,0,P|367:47|353:88,1,70,2|8,0:2|0:2,0:2:0:0:
342,263,144471,2,0,P|331:226|297:199,1,70,2|2,1:1|0:2,0:2:0:0:
219,104,144666,37,8,0:2:0:0:
175,89,144731,1,8,0:2:0:0:
138,115,144796,1,8,0:3:0:0:
117,154,144861,1,4,0:3:0:0:
80,168,144926,1,12,0:3:0:0:
64,157,144991,1,12,0:3:0:0:
65,148,145056,38,2,B|158:79|212:207|202:209|193:213|227:338|325:291,1,350,6|2,1:1|1:1,0:1:0:0:
284,201,145348,1,0,0:2:0:0:
284,201,145445,2,2,P|191:224|106:257,1,175,14|2,0:2|0:1,0:1:0:0:
0,384,145737,1,8,0:3:0:0:
74,357,145835,37,8,0:2:0:0:
74,357,145932,2,0,B|79:294|79:294|101:251|101:251|107:185,1,175,6|0,1:1|0:2,0:2:0:0:
148,383,146127,1,8,0:2:0:0:
148,383,146224,2,2,B|153:320|153:320|175:277|175:277|181:211,1,175,6|0,0:2|0:2,0:1:0:0:
259,65,146419,1,8,0:2:0:0:
263,76,146517,1,10,0:1:0:0:
267,85,146614,6,2,B|376:55|397:156|386:160|369:164|399:296|511:257,1,350,6|2,1:1|1:1,0:1:0:0:
474,167,146906,1,0,0:2:0:0:
474,167,147004,2,2,P|390:178|297:165,1,175,14|2,0:2|0:1,0:1:0:0:
100,6,147296,1,10,0:2:0:0:
100,6,147393,22,0,P|129:22|133:71,1,70,2|8,1:2|0:2,0:2:0:0:
242,226,147588,2,0,P|225:194|234:161,1,70,2|2,1:1|0:2,0:2:0:0:
318,32,147783,5,10,0:2:0:0:
384,21,147880,1,8,0:3:0:0:
431,69,147977,1,8,1:3:0:0:
423,135,148075,1,10,0:2:0:0:
420,143,148172,6,2,B|327:212|273:84|283:82|292:78|258:-47|160:0,1,350,6|2,1:1|1:1,0:1:0:0:
100,49,148465,1,0,0:2:0:0:
100,49,148562,2,2,P|78:113|147:167,1,140,12|2,0:2|0:1,0:1:0:0:
512,254,148855,1,10,0:2:0:0:
460,196,148953,21,2,0:2:0:0:
461,165,149050,1,10,0:2:0:0:
486,152,149148,1,4,1:3:0:0:
506,247,149245,1,8,0:2:0:0:
463,201,149342,5,10,0:1:0:0:
441,136,149439,1,8,0:2:0:0:
376,118,149536,1,0,1:2:0:0:
322,154,149634,1,8,0:2:0:0:
317,173,149731,6,2,B|212:233|165:135|173:132|182:128|128:32|18:72,1,350,6|2,0:1|1:1,0:1:0:0:
78,146,150023,1,0,0:2:0:0:
78,146,150121,2,2,P|159:150|242:109,1,175,12|2,0:2|0:1,0:1:0:0:
413,0,150413,1,10,0:2:0:0:
413,0,150510,22,0,P|385:26|372:77,1,70,2|10,0:2|0:2,0:2:0:0:
356,228,150705,2,0,P|343:196|317:173,1,70,2|2,1:1|0:2,0:2:0:0:
202,85,150900,5,8,1:2:0:0:
169,143,150997,1,2,1:2:0:0:
198,204,151094,1,2,1:2:0:0:
264,218,151192,1,2,1:2:0:0:
306,167,151289,38,2,P|291:157|279:152,1,28,6|0,1:1|0:2,0:1:0:0:
44,347,151874,1,0,1:2:0:0:
46,361,151971,1,0,1:2:0:0:
48,373,152069,37,8,0:2:0:0:
56,384,152134,1,8,0:2:0:0:
98,380,152198,1,8,0:2:0:0:
134,341,152263,1,8,0:3:0:0:
185,338,152328,1,4,0:3:0:0:
217,374,152393,1,8,0:3:0:0:
205,384,152458,6,2,P|191:347|210:300,1,83.9999974365235,6|0,1:2|0:2,0:1:0:0:
191,235,152653,2,2,P|217:207|269:204,1,83.9999974365235,2|0,0:2|0:2,0:1:0:0:
312,307,152848,22,0,B|261:335|208:297|229:267|176:204|108:239,1,224,6|0,1:1|0:2,0:2:0:0:
52,295,153043,2,0,P|94:330|159:307,1,105.000004005432,0|0,1:2|0:2,0:2:0:0:
369,214,153237,2,0,P|317:195|264:239,1,105.000004005432,8|0,0:2|0:2,0:2:0:0:
216,363,153432,1,0,0:2:0:0:
216,363,153530,2,0,L|197:162,1,195.999994018555,8|0,0:2|0:2,0:2:0:0:
148,37,153724,1,0,1:2:0:0:
114,62,153822,1,0,0:2:0:0:
113,99,153919,1,0,1:2:0:0:
141,126,154017,2,0,P|195:124|248:114,1,105.000004005432,8|0,0:2|0:2,0:2:0:0:
354,21,154211,37,2,1:1:0:0:
354,21,154309,1,8,0:2:0:0:
354,21,154406,2,0,P|320:54|321:112,1,83.9999974365235,2|0,0:1|0:2,0:2:0:0:
333,235,154601,2,0,P|321:189|270:160,1,83.9999974365235,0|0,1:2|0:2,0:2:0:0:
192,137,154796,38,0,P|282:132|366:130,1,175,10|0,0:1|0:2,0:2:0:0:
511,87,154991,1,2,0:1:0:0:
511,87,155088,2,0,P|452:78|392:69,1,105.000004005432,8|0,0:2|0:2,0:2:0:0:
244,0,155283,1,0,1:2:0:0:
290,0,155380,1,2,0:1:0:0:
320,27,155478,1,0,1:2:0:0:
318,56,155575,2,0,P|309:93|297:160,1,83.9999974365235,10|0,0:1|0:2,0:2:0:0:
246,67,155770,2,0,P|237:104|225:171,1,83.9999974365235,2|8,1:1|0:2,0:2:0:0:
130,266,155965,21,2,1:1:0:0:
117,260,156062,1,8,0:2:0:0:
103,235,156159,1,2,1:1:0:0:
117,191,156257,1,2,0:1:0:0:
163,165,156354,2,0,B|237:150|263:197|235:217|276:277|344:258,1,210.000008010865,10|2,0:1|1:1,0:2:0:0:
390,207,156647,1,8,0:2:0:0:
390,207,156744,38,0,P|361:185|324:183,1,70,2|8,1:1|0:2,0:2:0:0:
194,284,156939,2,0,P|227:269|247:238,1,70,2|0,0:1|1:2,0:2:0:0:
223,79,157134,2,0,P|218:115|235:148,1,70,10|2,0:1|0:1,0:2:0:0:
390,207,157328,37,2,1:1:0:0:
378,195,157426,1,8,0:2:0:0:
339,181,157523,1,6,1:2:0:0:
298,202,157621,1,8,0:2:0:0:
288,252,157718,2,0,L|302:306,1,41.9999987182618,2|0,1:1|0:2,0:2:0:0:
244,376,157913,2,0,B|188:386|165:346|177:333|149:279|89:303,1,175,14|0,1:2|0:2,0:2:0:0:
235,304,158108,1,2,1:2:0:0:
235,304,158205,22,0,P|269:284|314:277,1,83.9999974365235,10|2,0:2|0:2,0:2:0:0:
423,335,158400,1,10,0:2:0:0:
441,326,158497,1,2,0:2:0:0:
459,282,158595,1,2,1:2:0:0:
437,241,158692,37,10,0:1:0:0:
401,177,158789,1,8,0:2:0:0:
449,134,158887,1,8,0:3:0:0:
486,152,158984,1,8,0:3:0:0:
492,166,159082,38,0,P|387:169|270:178,1,210.000008010865,6|0,1:1|0:2,0:2:0:0:
212,223,159276,2,0,P|234:257|274:265,1,83.9999974365235,0|0,1:2|0:2,0:2:0:0:
466,97,159471,2,0,P|425:105|403:139,1,83.9999974365235,8|0,0:2|0:2,0:2:0:0:
462,288,159666,1,0,1:2:0:0:
489,349,159763,22,0,B|445:369|398:346|423:323|377:282|317:312,1,175,8|0,0:2|0:2,0:2:0:0:
136,342,159958,1,0,1:2:0:0:
167,364,160056,1,0,0:2:0:0:
207,354,160153,1,0,1:2:0:0:
231,320,160250,2,0,L|224:188,1,105.000004005432,8|0,0:2|0:2,0:2:0:0:
270,71,160445,37,2,1:1:0:0:
306,106,160543,1,8,0:2:0:0:
291,142,160640,2,0,B|236:156|186:120|220:98|175:41|100:64,1,210.000008010865,2|0,1:1|1:2,0:2:0:0:
0,161,161030,1,10,0:1:0:0:
267,65,161224,37,2,1:1:0:0:
267,65,161322,2,2,P|235:197|218:283,1,210.000008010865,8|2,0:2|1:1,0:1:0:0:
243,374,161614,1,2,0:1:0:0:
243,374,161711,1,2,1:1:0:0:
243,373,161809,22,0,P|264:369|295:334,1,70,10|0,0:1|0:2,0:2:0:0:
203,140,162004,2,0,P|194:160|210:204,1,70,2|8,1:1|0:2,0:2:0:0:
400,172,162198,38,0,B|328:132|268:209|298:242|254:316|164:269,1,280,6|2,1:1|1:1,0:2:0:0:
7,122,162588,1,10,0:1:0:0:
16,99,162685,1,2,0:1:0:0:
54,78,162782,1,2,1:1:0:0:
122,77,162880,1,8,0:2:0:0:
181,37,162978,38,0,P|151:99|139:171,1,125.999996154785,2|0,0:1|1:2,0:2:0:0:
155,238,163172,1,2,0:1:0:0:
100,286,163269,1,2,1:1:0:0:
89,284,163367,1,10,0:1:0:0:
248,362,163562,21,2,1:1:0:0:
275,382,163659,1,10,1:1:0:0:
296,379,163757,2,0,P|342:352|339:282,1,105.000004005432,2|0,1:2|0:2,0:2:0:0:
180,255,163952,2,0,P|226:281|285:243,1,90.9999958343508,2|0,1:1|0:2,0:2:0:0:
232,114,164147,2,0,P|232:160|286:188,1,77.0000023498536,10|0,0:1|0:2,0:2:0:0:
380,100,164341,2,0,P|336:125|339:190,1,62.9999980773926,10|0,0:1|1:2,0:0:0:0:
462,185,164536,2,0,P|435:170|402:191,1,48.9999985046387,2|8,0:1|0:2,0:0:0:0:
433,299,164731,2,0,P|432:272|401:256,1,35,2|8,1:1|0:2,0:0:0:0:
323,209,164926,21,10,0:1:0:0:
333,228,165023,1,8,0:2:0:0:
354,229,165121,1,8,0:3:0:0:
357,221,165218,1,4,0:3:0:0:
359,210,165315,6,0,P|315:179|263:189,1,105.000004005432,6|0,1:1|0:2,0:2:0:0:
115,223,165510,1,2,1:2:0:0:
121,292,165608,2,0,P|169:269|186:219,1,105.000004005432,10|2,0:2|0:2,0:2:0:0:
223,65,165802,1,2,1:2:0:0:
159,34,165900,2,0,P|154:86|189:127,1,105.000004005432,10|2,0:2|0:2,0:2:0:0:
402,120,166095,37,2,1:2:0:0:
420,88,166192,1,10,0:2:0:0:
387,22,166289,1,4,0:3:0:0:
317,31,166387,1,2,1:2:0:0:
309,48,166484,22,0,L|323:165,1,105.000004005432,10|0,0:2|0:2,0:2:0:0:
276,325,166679,1,10,0:2:0:0:
239,257,166776,1,8,0:2:0:0:
245,249,166874,38,0,P|289:241|357:277,1,105.000004005432,2|10,1:2|0:2,0:2:0:0:
452,159,167069,1,2,1:2:0:0:
512,213,167166,2,0,P|464:233|413:226,1,105.000004005432,10|2,0:2|0:2,0:2:0:0:
272,116,167361,1,2,1:2:0:0:
308,59,167458,2,0,L|322:176,1,105.000004005432,10|2,0:2|0:2,0:2:0:0:
348,339,167653,37,2,1:2:0:0:
281,384,167750,1,10,0:2:0:0:
202,371,167848,1,2,0:2:0:0:
169,299,167945,1,10,0:2:0:0:
132,228,168043,21,10,0:1:0:0:
66,204,168140,1,8,0:2:0:0:
15,248,168237,1,8,0:3:0:0:
10,269,168335,1,4,0:3:0:0:
13,281,168432,38,2,B|84:356|163:247|155:241|146:235|195:115|299:175,1,350,6|2,1:1|1:1,0:1:0:0:
356,264,168724,2,0,P|310:281|253:259,1,105.000004005432,10|0,0:1|0:2,0:2:0:0:
70,173,168919,1,0,1:2:0:0:
70,173,169017,2,0,P|116:156|173:178,1,105.000004005432,10|0,0:1|0:2,0:2:0:0:
270,311,169211,37,2,1:1:0:0:
339,343,169309,1,10,0:2:0:0:
405,319,169406,1,2,0:2:0:0:
430,247,169504,1,2,1:2:0:0:
386,171,169601,21,10,0:2:0:0:
410,132,169699,1,2,0:2:0:0:
456,134,169796,1,10,0:2:0:0:
484,174,169894,1,10,0:2:0:0:
481,193,169991,38,0,P|450:211|386:181,1,105.000004005432,2|8,1:2|0:2,0:2:0:0:
259,52,170185,2,0,P|290:69|296:140,1,105.000004005432,2|8,1:2|0:2,0:2:0:0:
258,313,170380,2,0,P|257:277|315:236,1,105.000004005432,2|0,0:1|1:2,0:2:0:0:
308,369,170575,1,8,0:2:0:0:
308,369,170672,38,2,B|225:419|177:343|197:328|168:245|67:280,1,280,2|8,0:1|0:2,0:1:0:0:
101,348,170965,2,0,P|183:322|277:306,1,175,2|0,1:1|0:2,0:2:0:0:
413,311,171159,37,10,0:1:0:0:
383,286,171224,1,8,0:2:0:0:
395,244,171289,1,8,0:3:0:0:
414,221,171354,1,4,0:3:0:0:
437,192,171419,1,8,0:3:0:0:
439,169,171484,1,4,0:3:0:0:
423,150,171549,37,6,1:2:0:0:
392,123,171647,1,2,0:3:0:0:
383,160,171744,1,2,1:2:0:0:
412,121,171841,37,10,0:2:0:0:
367,100,171939,1,2,0:2:0:0:
370,147,172036,1,2,1:2:0:0:
405,96,172134,37,10,0:2:0:0:
338,82,172232,1,2,0:2:0:0:
358,144,172329,1,2,1:2:0:0:
400,59,172426,21,10,0:2:0:0:
307,65,172524,1,2,0:2:0:0:
355,137,172621,1,2,1:2:0:0:
354,92,172718,37,10,0:1:0:0:
475,373,172913,1,10,0:2:0:0:
475,373,173010,1,10,0:1:0:0:
475,373,173108,37,2,1:2:0:0:
472,293,173205,1,10,0:2:0:0:
400,273,173302,1,2,1:2:0:0:
358,333,173400,1,10,0:2:0:0:
373,349,173497,22,0,P|390:297|362:243,1,105.000004005432,2|0,0:1|1:2,0:2:0:0:
217,227,173692,1,10,0:1:0:0:
217,227,173789,2,2,B|304:207|304:207|327:178|327:178|409:159,1,210.000008010865,2|8,0:2|0:2,0:1:0:0:
474,110,174082,2,0,B|437:77|437:77|374:83,1,105.000004005432,2|2,0:2|1:2,0:2:0:0:
263,146,174276,37,10,0:2:0:0:
192,141,174373,1,10,0:2:0:0:
158,76,174470,1,8,0:3:0:0:
191,18,174568,1,4,0:3:0:0:
260,3,174666,37,6,1:2:0:0:
260,3,174763,2,0,P|257:46|229:80,1,83.9999974365235,2|0,0:2|1:2,0:2:0:0:
105,102,174958,1,10,0:2:0:0:
105,102,175055,2,0,P|145:118|168:154,1,83.9999974365235,2|0,0:2|1:2,0:2:0:0:
124,290,175251,1,10,0:2:0:0:
124,290,175348,2,0,P|152:256|193:245,1,83.9999974365235,2|0,0:2|1:2,0:2:0:0:
323,304,175543,1,10,0:2:0:0:
323,304,175640,2,0,P|299:266|302:223,1,83.9999974365235,2|0,0:2|1:2,0:2:0:0:
402,119,175835,2,0,P|359:129|319:113,1,83.9999974365235,10|0,0:2|0:2,0:2:0:0:
449,14,176030,1,10,0:2:0:0:
445,43,176127,1,10,0:2:0:0:
453,54,176224,37,6,2:2:0:0:
461,74,176289,1,2,2:2:0:0:
471,93,176354,1,2,2:2:0:0:
403,120,176419,37,2,2:2:0:0:
399,132,176484,1,2,2:2:0:0:
396,143,176549,1,2,2:2:0:0:
456,189,176614,5,2,2:2:0:0:
460,205,176679,1,2,2:2:0:0:
464,219,176744,1,2,2:2:0:0:
388,230,176809,37,10,2:2:0:0:
381,243,176874,1,2,2:2:0:0:
373,258,176939,1,2,2:2:0:0:
438,301,177004,38,2,P|482:303|512:327,2,83.9999974365235,2|8|0,1:1|0:2|1:2,0:1:0:0:
164,354,177393,21,8,0:2:0:0:
125,353,177458,1,8,0:2:0:0:
102,322,177523,1,8,0:3:0:0:
64,310,177588,1,4,0:3:0:0:
22,329,177653,1,4,0:3:0:0:
19,343,177718,1,4,1:3:0:0:
23,354,177783,1,0,1:2:0:0:
29,356,177880,22,0,B|125:418|171:289|162:286|157:285|204:165|311:237,1,350,14|0,0:1|1:2,0:2:0:0:
162,150,178172,38,0,B|126:175|105:225|163:275|203:216|199:207|250:175|323:188|334:216|291:275,1,280,14|0,0:1|1:2,0:2:0:0:
258,134,178465,22,0,B|257:172|272:189|301:179|347:137|363:179|370:223|359:242|304:242,1,210.000008010865,14|0,0:1|1:2,0:2:0:0:
315,184,178757,38,0,B|295:209|293:229|317:239|313:267|280:284,1,70,14|0,0:1|0:2,0:2:0:0:
220,312,178952,37,10,0:2:0:0:
152,280,179049,1,0,1:2:0:0:
60,316,179147,37,2,0:3:0:0:
49,330,179211,1,2,0:3:0:0:
48,342,179276,1,2,0:3:0:0:
53,350,179344,38,0,P|132:324|90:228,1,210.000008010865,14|0,1:1|1:2,0:2:0:0:
80,223,179636,1,8,0:2:0:0:
19,168,179733,21,0,0:2:0:0:
3,132,179831,1,0,1:2:0:0:
22,94,179928,1,0,0:2:0:0:
65,81,180025,1,0,1:2:0:0:
136,64,180123,5,8,0:2:0:0:
152,98,180221,1,0,0:2:0:0:
193,108,180318,1,0,1:2:0:0:
231,83,180415,1,0,0:2:0:0:
311,61,180512,37,8,0:2:0:0:
307,77,180610,1,8,0:2:0:0:
305,94,180707,1,0,1:2:0:0:
366,170,180814,22,0,P|254:178|145:202,1,210.000008010865,6|0,1:1|1:2,0:2:0:0:
146,203,181106,1,8,0:2:0:0:
77,288,181203,37,0,0:2:0:0:
93,330,181300,1,0,1:2:0:0:
133,345,181397,1,2,0:3:0:0:
165,326,181495,1,0,1:2:0:0:
237,341,181593,37,8,0:2:0:0:
272,314,181690,1,0,0:2:0:0:
314,320,181787,1,0,1:2:0:0:
335,354,181885,1,8,0:2:0:0:
400,382,181982,5,8,0:2:0:0:
418,382,182080,1,8,0:3:0:0:
435,368,182177,1,0,1:2:0:0:
487,323,182275,6,0,P|508:252|405:262,1,210.000008010865,6|0,1:1|1:2,0:2:0:0:
399,268,182567,1,8,0:2:0:0:
338,346,182664,21,0,0:2:0:0:
294,361,182762,1,0,1:2:0:0:
254,340,182859,1,2,0:3:0:0:
249,301,182956,1,0,1:2:0:0:
201,228,183054,5,8,0:2:0:0:
231,189,183151,1,0,0:2:0:0:
228,143,183249,1,0,1:2:0:0:
203,107,183346,1,8,0:2:0:0:
175,35,183443,37,8,0:2:0:0:
144,57,183541,1,8,0:2:0:0:
102,42,183638,1,0,1:2:0:0:
21,11,183736,22,0,P|50:102|77:217,1,210.000008010865,6|0,1:1|1:2,0:2:0:0:
76,227,184028,1,8,0:2:0:0:
0,350,184125,37,0,0:2:0:0:
28,383,184223,1,0,1:2:0:0:
70,379,184320,1,0,0:2:0:0:
102,344,184417,1,0,1:2:0:0:
180,334,184515,37,8,0:2:0:0:
208,301,184613,1,0,0:2:0:0:
250,305,184710,1,0,1:2:0:0:
282,340,184807,1,8,0:2:0:0:
345,303,184904,5,8,0:2:0:0:
349,277,185002,1,8,0:3:0:0:
358,252,185099,1,0,1:2:0:0:
475,256,185199,6,0,P|513:307|418:300,1,210.000008010865,6|0,1:1|1:2,0:2:0:0:
415,294,185491,1,8,0:2:0:0:
388,185,185589,21,0,0:2:0:0:
343,170,185687,1,0,1:2:0:0:
301,188,185784,1,0,0:2:0:0:
290,233,185881,1,8,0:2:0:0:
206,247,185979,5,0,1:2:0:0:
189,290,186075,1,8,0:2:0:0:
147,310,186173,1,8,0:2:0:0:
124,297,186270,37,0,1:2:0:0:
114,282,186367,1,8,0:2:0:0:
110,262,186465,1,0,0:2:0:0:
67,202,186562,5,0,1:2:0:0:
76,187,186660,1,8,0:3:0:0:
93,176,186757,1,8,0:3:0:0:
118,109,186854,37,8,0:2:0:0:
138,110,186952,1,8,0:2:0:0:
155,120,187049,1,0,1:2:0:0:
161,195,187137,22,0,P|296:173|392:164,1,210.000008010865,6|0,1:1|1:2,0:2:0:0:
383,168,187429,1,8,0:2:0:0:
433,84,187526,21,2,0:3:0:0:
475,105,187624,1,0,1:2:0:0:
492,147,187721,1,2,0:3:0:0:
468,187,187818,1,0,1:2:0:0:
490,257,187916,5,8,0:2:0:0:
469,265,188013,1,0,0:2:0:0:
458,292,188111,1,0,1:2:0:0:
466,312,188208,1,8,0:2:0:0:
413,369,188305,37,8,0:2:0:0:
385,350,188403,1,8,0:2:0:0:
361,347,188500,1,0,1:2:0:0:
266,287,188616,22,0,P|198:333|290:351,1,210.000008010865,6|0,1:1|1:2,0:2:0:0:
294,355,188908,1,8,0:2:0:0:
365,275,189005,37,0,0:2:0:0:
384,250,189103,1,0,1:2:0:0:
383,211,189200,1,2,0:3:0:0:
355,185,189297,1,8,0:2:0:0:
331,114,189395,37,0,1:2:0:0:
320,100,189492,1,8,0:2:0:0:
319,79,189590,1,8,0:2:0:0:
328,72,189687,5,0,1:2:0:0:
321,88,189784,1,8,0:3:0:0:
307,103,189882,1,8,0:3:0:0:
282,173,189979,37,0,1:2:0:0:
265,174,190077,1,4,0:3:0:0:
246,166,190174,1,4,1:3:0:0:
177,184,190271,5,8,0:2:0:0:
166,167,190369,1,8,0:2:0:0:
165,148,190466,1,0,1:2:0:0:
227,70,190558,6,0,P|248:197|257:293,1,210.000008010865,6|0,1:1|1:2,0:2:0:0:
254,291,190850,1,8,0:2:0:0:
185,381,190947,21,2,0:3:0:0:
170,384,191045,1,0,1:2:0:0:
158,381,191142,1,12,0:2:0:0:
152,371,191239,1,0,0:2:0:0:
150,293,191337,5,8,0:2:0:0:
98,247,191434,1,8,0:2:0:0:
33,267,191532,1,8,0:2:0:0:
15,335,191629,1,8,0:2:0:0:
66,384,191726,38,0,P|83:356|84:335,1,42,6|0,1:1|0:2,0:2:0:0:
24,249,192105,5,10,0:1:0:0:
15,232,192202,1,0,0:2:0:0:
19,213,192299,1,0,0:2:0:0:
0,131,192398,37,10,0:1:0:0:
21,104,192495,1,0,0:2:0:0:
56,103,192592,1,0,0:2:0:0:
117,33,192690,21,10,0:1:0:0:
159,47,192787,1,0,0:2:0:0:
174,91,192884,1,0,0:2:0:0:
265,100,192981,37,10,0:1:0:0:
263,166,193079,1,0,0:2:0:0:
207,209,193176,1,0,0:2:0:0:
116,164,193273,37,10,0:1:0:0:
180,130,193371,2,0,P|207:131|257:159,1,70,0|0,1:2|1:2,0:2:0:0:
448,84,193566,21,10,0:1:0:0:
375,80,193663,2,0,P|350:93|317:139,1,70,0|0,1:2|1:2,0:2:0:0:
147,310,193858,37,10,0:1:0:0:
218,301,193955,2,0,P|239:283|264:232,1,70,0|0,1:2|1:2,0:2:0:0:
512,202,194150,37,10,0:1:0:0:
455,247,194247,2,0,P|427:249|373:231,1,70,8|8,0:2|0:2,0:2:0:0:
250,76,194434,21,6,1:2:0:0:
272,44,194531,1,2,0:2:0:0:
319,31,194628,1,2,0:2:0:0:
190,46,194726,37,2,0:2:0:0:
247,81,194823,1,2,0:2:0:0:
273,142,194921,1,2,0:2:0:0:
210,223,195018,37,2,1:2:0:0:
268,163,195115,1,8,0:3:0:0:
350,181,195213,5,10,0:2:0:0:
277,125,195310,1,2,0:2:0:0:
185,142,195408,1,10,0:2:0:0:
139,226,195505,1,10,0:2:0:0:
218,300,195602,21,10,0:2:0:0:
238,301,195667,1,8,0:2:0:0:
265,302,195732,1,8,0:3:0:0:
296,303,195797,1,4,0:3:0:0:
332,305,195862,1,4,1:3:0:0:
374,307,195927,1,4,0:3:0:0:
446,309,195992,37,6,1:1:0:0:
