osu file format v14

[General]
AudioFilename: audio.ogg
AudioLeadIn: 0
PreviewTime: 7694
Countdown: 0
SampleSet: Normal
StackLeniency: 0.7
Mode: 1
LetterboxInBreaks: 0
WidescreenStoryboard: 1

[Editor]
Bookmarks: 3334,4795,6256,7717,9178,10639,12100,13561,15509,16970,19015,20574,22911,23966,25524,27083,38106,40444,42879,45217,47944,50282,52814,55152,58561,64795,78821,91288,97522,109989,113106,131808,134145,152847,179340,180801,182262,183723,185184,187132,188593,190541,192100,194437,195996
DistanceSpacing: 0.4
BeatDivisor: 8
GridSize: 32
TimelineZoom: 2.6

[Metadata]
Title:Mirage Age
TitleUnicode:Mirage Age
Artist:Marmalade butcher
ArtistUnicode:Marmalade butcher
Creator:Eyenine
Version:Oni
Source:pop'n music peace
Tags:mtntwarz taikoseania featured artist fa math rock instrumental video game bemani maniku マ肉
BeatmapID:3167270
BeatmapSetID:1520484

[Difficulty]
HPDrainRate:5.5
CircleSize:5
OverallDifficulty:6
ApproachRate:5
SliderMultiplier:1.4
SliderTickRate:1

[Events]
//Background and Video events
0,0,"nexumorphic domain of genesis.jpg",0,0
//Break Periods
//Storyboard Layer 0 (Background)
//Storyboard Layer 1 (Fail)
//Storyboard Layer 2 (Pass)
//Storyboard Layer 3 (Foreground)
//Storyboard Layer 4 (Overlay)
//Storyboard Sound Samples

[TimingPoints]
1850,389.61038961039,4,1,0,65,1,0
1947,-100,4,1,0,20,0,0
3311,389.61038961039,4,1,0,20,1,0
3311,-133.333333333333,4,1,0,20,0,0
4577,-100,4,1,0,65,0,0
4772,389.61038961039,4,1,0,65,1,0
4772,-133.333333333333,4,1,0,65,0,0
6233,389.61038961039,4,1,0,65,1,0
6233,-133.333333333333,4,1,0,65,0,0
7694,389.61038961039,4,1,0,80,1,0
7694,-100,4,1,0,80,0,0
9155,389.61038961039,4,1,0,80,1,0
10616,389.61038961039,4,1,0,80,1,0
12077,389.61038961039,4,1,0,80,1,0
13538,389.61038961039,5,1,0,80,1,0
15486,389.61038961039,4,1,0,80,1,0
16947,389.61038961039,5,1,0,80,1,0
18895,389.61038961039,4,1,0,80,1,0
20453,389.61038961039,6,1,0,80,1,0
21719,-102.040816326531,6,1,0,80,0,0
21914,-104.166666666667,6,1,0,80,0,0
22108,-106.382978723404,6,1,0,80,0,0
22303,-108.695652173913,6,1,0,80,0,0
22498,-111.111111111111,6,1,0,80,0,0
22644,-112.359550561798,6,1,0,80,0,0
22741,-113.636363636364,6,1,0,80,0,0
22790,389.61038961039,3,1,0,80,1,8
22790,-113.636363636364,3,1,0,80,0,0
22791,389.61038961039,3,1,0,80,1,0
22791,-113.636363636364,3,1,0,80,0,0
22985,-113.636363636364,3,1,0,80,0,0
23959,389.61038961039,4,1,0,90,1,8
23959,-100,4,1,0,90,0,0
23960,389.61038961039,4,1,0,90,1,0
23960,-100,4,1,0,90,0,0
29365,-99.009900990099,4,1,0,90,0,0
29463,-97.0873786407767,4,1,0,90,0,0
29560,-95.2380952380952,4,1,0,90,0,0
29658,-93.4579439252336,4,1,0,90,0,0
29755,-91.743119266055,4,1,0,90,0,0
29852,-90.0900900900901,4,1,0,90,0,0
29950,-88.4955752212389,4,1,0,90,0,0
30096,-100,4,1,0,90,0,0
35599,-99.009900990099,4,1,0,90,0,0
35697,-97.0873786407767,4,1,0,90,0,0
35794,-95.2380952380952,4,1,0,90,0,0
35892,-93.4579439252336,4,1,0,90,0,0
35989,-91.743119266055,4,1,0,90,0,0
36086,-90.0900900900901,4,1,0,90,0,0
36184,-88.4955752212389,4,1,0,90,0,0
36330,-83.3333333333333,4,1,0,90,0,0
37450,-100,4,1,0,90,0,0
37937,-111.111111111111,4,1,0,90,0,0
37985,389.61038961039,6,1,0,80,1,8
37985,-111.111111111111,6,1,0,80,0,0
37986,389.61038961039,6,1,0,80,1,0
37986,-111.111111111111,6,1,0,80,0,0
40323,389.61038961039,6,1,0,80,1,8
40324,389.61038961039,7,1,0,80,1,0
40324,-111.111111111111,6,1,0,80,0,0
42856,389.61038961039,6,1,0,80,1,0
42856,-111.111111111111,6,1,0,80,0,0
45193,389.61038961039,6,1,0,80,1,8
45194,389.61038961039,7,1,0,80,1,0
45194,-111.111111111111,6,1,0,80,0,0
47921,389.61038961039,6,1,0,90,1,0
47921,-100,6,1,0,90,0,0
50258,389.61038961039,7,1,0,90,1,8
50259,389.61038961039,7,1,0,90,1,0
52791,389.61038961039,6,1,0,90,1,0
55128,389.61038961039,7,1,0,90,1,8
55129,389.61038961039,5,1,0,90,1,0
56979,389.61038961039,4,1,0,90,1,0
58488,-86.9565217391304,4,1,0,90,0,0
58537,389.61038961039,4,1,0,80,1,8
58538,389.61038961039,4,1,0,80,1,0
58538,-86.9565217391304,4,1,0,80,0,0
63408,-111.111111111111,4,1,0,80,0,0
64771,-95.2380952380952,4,1,0,100,0,1
77239,-95.2380952380952,4,1,0,100,0,0
77336,-111.111111111111,4,1,0,90,0,0
78749,-100,4,1,0,90,0,0
84203,-99.009900990099,4,1,0,90,0,0
84301,-97.0873786407767,4,1,0,90,0,0
84398,-95.2380952380952,4,1,0,90,0,0
84496,-93.4579439252336,4,1,0,90,0,0
84593,-91.743119266055,4,1,0,90,0,0
84690,-90.0900900900901,4,1,0,90,0,0
84788,-88.4955752212389,4,1,0,90,0,0
84934,-100,4,1,0,90,0,0
90437,-99.009900990099,4,1,0,90,0,0
90535,-97.0873786407767,4,1,0,90,0,0
90632,-95.2380952380952,4,1,0,90,0,0
90730,-93.4579439252336,4,1,0,90,0,0
90827,-91.743119266055,4,1,0,90,0,0
90924,-90.0900900900901,4,1,0,90,0,0
91022,-88.4955752212389,4,1,0,90,0,0
91168,-83.3333333333333,4,1,0,90,0,0
91995,-86.9565217391304,4,1,0,90,0,0
92093,-88.1057268722467,4,1,0,90,0,0
92190,-89.2857142857143,4,1,0,90,0,0
92288,-90.4977375565611,4,1,0,90,0,0
92385,-91.743119266055,4,1,0,90,0,0
92482,-93.0232558139535,4,1,0,90,0,0
92580,-94.3396226415094,4,1,0,90,0,0
92677,-95.6937799043062,4,1,0,90,0,0
92775,-83.3333333333333,4,1,0,90,0,0
93497,-86.9565217391304,4,1,0,90,0,0
93595,-88.1057268722467,4,1,0,90,0,0
93692,-89.2857142857143,4,1,0,90,0,0
93790,-90.4977375565611,4,1,0,90,0,0
93887,-91.743119266055,4,1,0,90,0,0
93984,-93.0232558139535,4,1,0,90,0,0
94082,-94.3396226415094,4,1,0,90,0,0
94179,-95.6937799043062,4,1,0,90,0,0
94285,-83.3333333333333,4,1,0,90,0,0
95063,-86.9565217391304,4,1,0,90,0,0
95161,-88.1057268722467,4,1,0,90,0,0
95258,-89.2857142857143,4,1,0,90,0,0
95356,-90.4977375565611,4,1,0,90,0,0
95453,-91.743119266055,4,1,0,90,0,0
95550,-93.0232558139535,4,1,0,90,0,0
95648,-94.3396226415094,4,1,0,90,0,0
95745,-95.6937799043062,4,1,0,90,0,0
95843,-83.3333333333333,4,1,0,90,0,0
96607,-87.719298245614,4,1,0,90,0,0
96705,-90.0900900900901,4,1,0,90,0,0
96802,-92.5925925925926,4,1,0,90,0,0
96900,-95.2380952380952,4,1,0,90,0,0
96997,-98.0392156862745,4,1,0,90,0,0
97094,-101.010101010101,4,1,0,90,0,0
97192,-104.166666666667,4,1,0,90,0,0
97289,-107.52688172043,4,1,0,90,0,0
97387,-111.111111111111,4,1,0,90,0,0
102169,-111.1111111111,4,1,0,90,0,0
102364,-109.5871140184,4,1,0,90,0,0
102558,-108.1118589966,4,1,0,90,0,0
102656,-107.3816251982,4,1,0,90,0,0
102851,-105.957562568,4,1,0,90,0,0
102948,-105.2631578947,4,1,0,90,0,0
103143,-103.8943718325,4,1,0,90,0,0
103240,-103.2266613662,4,1,0,90,0,0
103338,-102.5607267461,4,1,0,90,0,0
103435,-101.9099947671,4,1,0,90,0,0
103533,-101.2608865202,4,1,0,90,0,0
103630,-100.6264935736,4,1,0,90,0,0
103727,-100,4,1,0,90,0,0
110063,-111.111111111111,4,1,0,90,0,0
111525,-111.1111111111,4,1,0,90,0,0
111622,-109.2221949595,4,1,0,90,0,0
111817,-105.6127982646,4,1,0,90,0,0
111914,-103.9047650805,4,1,0,90,0,0
112109,-100.6329931533,4,1,0,90,0,0
112206,-99.0810518617,4,1,0,90,0,0
112401,-96.1016530965,4,1,0,90,0,0
112499,-94.6709606854,4,1,0,90,0,0
112693,-91.9608074607,4,1,0,90,0,0
112791,-90.6499098156,4,1,0,90,0,0
112888,-89.3886801113,4,1,0,90,0,0
112986,-88.1495940479,4,1,0,90,0,0
113083,389.61038961039,3,1,0,90,1,0
113083,-86.9565217391,4,1,0,90,0,0
113180,-133.333333333333,3,1,0,65,0,0
122401,-100,3,1,0,75,0,0
131784,389.61038961039,6,1,0,90,1,8
131784,-83.3333333333333,6,1,0,90,0,0
131785,389.61038961039,6,1,0,90,1,0
131785,-83.3333333333333,6,1,0,90,0,0
134122,389.61038961039,4,1,0,80,1,0
139576,-100,4,1,0,80,0,0
140323,-86.9565217391304,4,1,0,90,0,0
151362,-111.111111111111,4,1,0,90,0,0
152823,-95.2380952380952,4,1,0,100,0,1
177758,-95.2380952380952,4,1,0,100,0,0
177790,-95.2380952380952,4,1,0,80,0,0
179073,-100,4,1,0,80,0,0
179316,389.61038961039,4,1,0,80,1,8
179317,389.61038961039,4,1,0,80,1,0
180778,389.61038961039,4,1,0,80,1,0
182239,389.61038961039,4,1,0,80,1,0
183700,389.61038961039,4,1,0,80,1,0
185161,389.61038961039,5,1,0,80,1,0
187109,389.61038961039,4,1,0,80,1,0
188570,389.61038961039,5,1,0,80,1,0
190518,389.61038961039,4,1,0,80,1,0
192076,389.61038961039,6,1,0,80,1,8
192077,389.61038961039,6,1,0,80,1,0
194414,389.61038961039,4,1,0,80,1,0

[HitObjects]
160,256,1850,5,4,0:0:0:0:
352,128,4772,1,8,0:0:0:0:
352,128,4966,1,8,0:0:0:0:
352,128,5064,1,8,0:0:0:0:
352,128,5259,1,8,0:0:0:0:
352,128,5356,1,8,0:0:0:0:
352,128,5453,1,8,0:0:0:0:
352,128,5648,1,8,0:0:0:0:
352,128,5843,1,8,0:0:0:0:
352,128,6038,1,8,0:0:0:0:
352,128,6135,1,8,0:0:0:0:
352,128,6330,1,8,0:0:0:0:
352,128,6427,1,8,0:0:0:0:
352,128,6525,1,8,0:0:0:0:
352,128,6720,1,8,0:0:0:0:
352,128,6914,1,8,0:0:0:0:
352,128,7012,1,8,0:0:0:0:
352,128,7109,1,8,0:0:0:0:
160,128,7304,1,0,0:0:0:0:
160,128,7499,1,0,0:0:0:0:
160,256,7694,1,4,0:0:0:0:
352,128,7986,1,8,0:0:0:0:
160,128,8181,1,0,0:0:0:0:
160,128,8278,1,0,0:0:0:0:
160,128,8375,1,0,0:0:0:0:
352,128,8473,1,8,0:0:0:0:
160,128,8668,1,0,0:0:0:0:
352,128,8862,1,8,0:0:0:0:
352,128,8960,1,8,0:0:0:0:
160,256,9155,1,4,0:0:0:0:
160,128,9349,1,0,0:0:0:0:
352,128,9447,1,8,0:0:0:0:
352,128,9642,1,8,0:0:0:0:
160,128,9739,1,0,0:0:0:0:
160,128,9836,1,0,0:0:0:0:
352,128,9934,1,8,0:0:0:0:
160,128,10129,1,0,0:0:0:0:
352,128,10226,1,8,0:0:0:0:
352,128,10323,1,8,0:0:0:0:
160,128,10421,1,0,0:0:0:0:
160,256,10616,1,4,0:0:0:0:
352,128,10908,1,8,0:0:0:0:
160,128,11103,1,0,0:0:0:0:
160,128,11200,1,0,0:0:0:0:
160,128,11297,1,0,0:0:0:0:
352,128,11395,1,8,0:0:0:0:
160,128,11590,1,0,0:0:0:0:
352,128,11784,1,8,0:0:0:0:
352,128,11882,1,8,0:0:0:0:
160,256,12077,1,4,0:0:0:0:
160,128,12271,1,0,0:0:0:0:
352,128,12369,1,8,0:0:0:0:
352,128,12564,1,8,0:0:0:0:
352,128,12661,1,8,0:0:0:0:
160,128,12758,1,0,0:0:0:0:
352,128,12856,1,8,0:0:0:0:
160,128,12953,1,0,0:0:0:0:
352,128,13148,1,8,0:0:0:0:
352,128,13245,1,8,0:0:0:0:
160,128,13343,1,0,0:0:0:0:
160,256,13538,1,4,0:0:0:0:
352,128,13830,1,8,0:0:0:0:
160,128,14025,1,0,0:0:0:0:
160,128,14122,1,0,0:0:0:0:
352,128,14219,1,8,0:0:0:0:
352,128,14414,1,8,0:0:0:0:
160,128,14512,1,0,0:0:0:0:
352,128,14609,1,8,0:0:0:0:
352,128,14706,1,8,0:0:0:0:
160,128,14901,1,0,0:0:0:0:
352,128,14999,1,8,0:0:0:0:
160,128,15096,1,0,0:0:0:0:
160,256,15486,1,4,0:0:0:0:
352,128,15778,1,8,0:0:0:0:
160,128,15973,1,0,0:0:0:0:
160,128,16070,1,0,0:0:0:0:
160,128,16167,1,0,0:0:0:0:
352,128,16265,1,8,0:0:0:0:
160,128,16460,1,0,0:0:0:0:
352,128,16557,1,8,0:0:0:0:
352,128,16654,1,8,0:0:0:0:
160,128,16752,1,0,0:0:0:0:
160,256,16947,1,4,0:0:0:0:
160,128,17141,1,0,0:0:0:0:
352,128,17239,1,8,0:0:0:0:
160,128,17434,1,0,0:0:0:0:
160,128,17531,1,0,0:0:0:0:
352,128,17628,1,8,0:0:0:0:
352,128,17823,1,8,0:0:0:0:
352,128,17921,1,8,0:0:0:0:
160,128,18115,1,0,0:0:0:0:
160,128,18213,1,0,0:0:0:0:
160,128,18310,1,0,0:0:0:0:
160,128,18408,1,0,0:0:0:0:
352,128,18505,1,8,0:0:0:0:
160,256,18895,1,4,0:0:0:0:
160,128,19089,1,0,0:0:0:0:
352,128,19187,1,8,0:0:0:0:
160,128,19382,1,0,0:0:0:0:
352,128,19479,1,8,0:0:0:0:
352,128,19674,1,8,0:0:0:0:
352,128,19771,1,8,0:0:0:0:
160,128,19869,1,0,0:0:0:0:
352,128,19966,1,8,0:0:0:0:
160,128,20063,1,0,0:0:0:0:
352,256,20453,1,12,0:0:0:0:
160,128,20647,1,0,0:0:0:0:
352,128,20745,1,8,0:0:0:0:
160,128,20940,1,0,0:0:0:0:
352,128,21037,1,8,0:0:0:0:
160,128,21232,1,0,0:0:0:0:
352,128,21329,1,8,0:0:0:0:
352,128,21427,1,8,0:0:0:0:
352,128,21524,1,8,0:0:0:0:
160,128,21621,1,0,0:0:0:0:
160,128,21816,1,0,0:0:0:0:
160,128,22011,1,0,0:0:0:0:
352,128,22206,1,8,0:0:0:0:
160,128,22401,1,0,0:0:0:0:
352,128,22595,1,8,0:0:0:0:
352,128,22693,1,8,0:0:0:0:
160,128,22790,1,0,0:0:0:0:
160,128,23570,1,0,0:0:0:0:
160,128,23765,1,0,0:0:0:0:
160,256,23959,1,4,0:0:0:0:
160,128,24154,1,0,0:0:0:0:
352,128,24252,1,8,0:0:0:0:
160,128,24447,1,0,0:0:0:0:
160,128,24641,1,0,0:0:0:0:
352,128,24739,1,8,0:0:0:0:
352,128,24836,1,8,0:0:0:0:
160,128,24934,1,0,0:0:0:0:
352,128,25128,1,8,0:0:0:0:
160,256,25518,1,4,0:0:0:0:
160,128,25713,1,0,0:0:0:0:
352,128,25810,1,8,0:0:0:0:
160,128,26005,1,0,0:0:0:0:
160,128,26200,1,0,0:0:0:0:
352,128,26297,1,8,0:0:0:0:
160,128,26492,1,0,0:0:0:0:
160,128,26589,1,0,0:0:0:0:
352,128,26687,1,8,0:0:0:0:
352,128,26882,1,8,0:0:0:0:
160,256,27076,1,4,0:0:0:0:
160,128,27271,1,0,0:0:0:0:
352,128,27369,1,8,0:0:0:0:
160,128,27563,1,0,0:0:0:0:
160,128,27758,1,0,0:0:0:0:
352,128,27856,1,8,0:0:0:0:
352,128,27953,1,8,0:0:0:0:
160,128,28050,1,0,0:0:0:0:
352,128,28245,1,8,0:0:0:0:
160,256,28635,1,4,0:0:0:0:
160,128,28830,1,0,0:0:0:0:
352,128,28927,1,8,0:0:0:0:
160,128,29122,1,0,0:0:0:0:
160,128,29219,1,0,0:0:0:0:
352,128,29414,1,8,0:0:0:0:
352,128,29511,1,8,0:0:0:0:
160,128,29609,1,0,0:0:0:0:
160,128,29706,1,0,0:0:0:0:
352,128,29804,1,8,0:0:0:0:
352,128,29901,1,8,0:0:0:0:
352,128,29998,1,8,0:0:0:0:
160,256,30193,1,4,0:0:0:0:
160,128,30388,1,0,0:0:0:0:
352,128,30485,1,8,0:0:0:0:
160,128,30680,1,0,0:0:0:0:
160,128,30875,1,0,0:0:0:0:
352,128,30972,1,8,0:0:0:0:
352,128,31070,1,8,0:0:0:0:
160,128,31167,1,0,0:0:0:0:
352,128,31362,1,8,0:0:0:0:
160,256,31752,1,4,0:0:0:0:
160,128,31947,1,0,0:0:0:0:
352,128,32044,1,8,0:0:0:0:
160,128,32239,1,0,0:0:0:0:
160,128,32434,1,0,0:0:0:0:
352,128,32531,1,8,0:0:0:0:
352,128,32726,1,8,0:0:0:0:
352,128,32823,1,8,0:0:0:0:
160,128,32921,1,0,0:0:0:0:
160,128,33115,1,0,0:0:0:0:
160,256,33310,1,4,0:0:0:0:
160,128,33505,1,0,0:0:0:0:
352,128,33602,1,8,0:0:0:0:
160,128,33797,1,0,0:0:0:0:
160,128,33992,1,0,0:0:0:0:
352,128,34089,1,8,0:0:0:0:
352,128,34187,1,8,0:0:0:0:
160,128,34284,1,0,0:0:0:0:
352,128,34479,1,8,0:0:0:0:
160,256,34869,1,4,0:0:0:0:
160,128,35063,1,0,0:0:0:0:
352,128,35161,1,8,0:0:0:0:
160,128,35356,1,0,0:0:0:0:
160,128,35453,1,0,0:0:0:0:
352,128,35648,1,8,0:0:0:0:
352,128,35745,1,8,0:0:0:0:
160,128,35843,1,0,0:0:0:0:
160,128,35940,1,0,0:0:0:0:
352,128,36037,1,8,0:0:0:0:
352,128,36135,1,8,0:0:0:0:
352,128,36232,1,8,0:0:0:0:
352,128,36427,1,8,0:0:0:0:
352,128,36524,1,8,0:0:0:0:
352,128,36719,1,8,0:0:0:0:
352,128,36817,1,8,0:0:0:0:
352,128,37011,1,8,0:0:0:0:
352,128,37109,1,8,0:0:0:0:
352,128,37206,1,8,0:0:0:0:
352,128,37596,1,8,0:0:0:0:
160,128,37985,1,0,0:0:0:0:
160,128,38180,1,0,0:0:0:0:
352,128,38278,1,8,0:0:0:0:
160,128,38570,1,0,0:0:0:0:
160,128,38765,1,0,0:0:0:0:
352,128,38862,1,8,0:0:0:0:
160,128,39154,1,0,0:0:0:0:
160,128,39252,1,0,0:0:0:0:
160,128,39349,1,0,0:0:0:0:
352,128,39447,1,8,0:0:0:0:
160,128,39739,1,0,0:0:0:0:
160,128,39836,1,0,0:0:0:0:
160,128,39934,1,0,0:0:0:0:
352,128,40031,1,8,0:0:0:0:
160,128,40324,1,0,0:0:0:0:
160,128,40518,1,0,0:0:0:0:
352,128,40616,1,8,0:0:0:0:
160,128,40908,1,0,0:0:0:0:
160,128,41103,1,0,0:0:0:0:
352,128,41200,1,8,0:0:0:0:
160,128,41492,1,0,0:0:0:0:
160,128,41590,1,0,0:0:0:0:
160,128,41687,1,0,0:0:0:0:
352,128,41785,1,8,0:0:0:0:
352,128,41979,1,8,0:0:0:0:
160,128,42077,1,0,0:0:0:0:
352,128,42272,1,8,0:0:0:0:
352,128,42369,1,8,0:0:0:0:
352,128,42466,1,8,0:0:0:0:
160,128,42856,1,0,0:0:0:0:
160,128,43050,1,0,0:0:0:0:
352,128,43148,1,8,0:0:0:0:
160,128,43440,1,0,0:0:0:0:
160,128,43635,1,0,0:0:0:0:
352,128,43732,1,8,0:0:0:0:
160,128,44024,1,0,0:0:0:0:
160,128,44122,1,0,0:0:0:0:
160,128,44219,1,0,0:0:0:0:
352,128,44317,1,8,0:0:0:0:
160,128,44609,1,0,0:0:0:0:
160,128,44706,1,0,0:0:0:0:
160,128,44804,1,0,0:0:0:0:
352,128,44901,1,8,0:0:0:0:
160,128,45194,1,0,0:0:0:0:
160,128,45388,1,0,0:0:0:0:
352,128,45486,1,8,0:0:0:0:
160,128,45778,1,0,0:0:0:0:
160,128,45973,1,0,0:0:0:0:
352,128,46070,1,8,0:0:0:0:
160,128,46362,1,0,0:0:0:0:
352,128,46460,1,8,0:0:0:0:
352,256,46655,1,12,0:0:0:0:
352,256,46849,1,12,0:0:0:0:
352,256,47044,1,12,0:0:0:0:
352,128,47336,1,8,0:0:0:0:
352,128,47434,1,8,0:0:0:0:
160,128,47531,1,0,0:0:0:0:
160,128,47726,1,0,0:0:0:0:
352,256,47921,1,12,0:0:0:0:
160,128,48115,1,0,0:0:0:0:
352,128,48213,1,8,0:0:0:0:
160,128,48408,1,0,0:0:0:0:
352,128,48505,1,8,0:0:0:0:
352,128,48700,1,8,0:0:0:0:
160,128,48895,1,0,0:0:0:0:
352,128,49089,1,8,0:0:0:0:
352,128,49187,1,8,0:0:0:0:
160,128,49284,1,0,0:0:0:0:
160,128,49382,1,0,0:0:0:0:
352,128,49576,1,8,0:0:0:0:
160,128,49674,1,0,0:0:0:0:
352,128,49869,1,8,0:0:0:0:
352,128,49966,1,8,0:0:0:0:
160,128,50063,1,0,0:0:0:0:
160,256,50259,1,4,0:0:0:0:
160,128,50453,1,0,0:0:0:0:
352,128,50551,1,8,0:0:0:0:
160,128,50746,1,0,0:0:0:0:
352,128,50843,1,8,0:0:0:0:
352,128,51038,1,8,0:0:0:0:
160,128,51233,1,0,0:0:0:0:
352,128,51427,1,8,0:0:0:0:
352,128,51525,1,8,0:0:0:0:
160,128,51622,1,0,0:0:0:0:
160,128,51720,1,0,0:0:0:0:
352,128,51914,1,8,0:0:0:0:
160,128,52012,1,0,0:0:0:0:
352,128,52207,1,8,0:0:0:0:
352,128,52304,1,8,0:0:0:0:
160,128,52401,1,0,0:0:0:0:
160,256,52791,1,4,0:0:0:0:
160,128,52985,1,0,0:0:0:0:
352,128,53083,1,8,0:0:0:0:
160,128,53278,1,0,0:0:0:0:
352,128,53375,1,8,0:0:0:0:
352,128,53570,1,8,0:0:0:0:
160,128,53765,1,0,0:0:0:0:
352,128,53959,1,8,0:0:0:0:
352,128,54057,1,8,0:0:0:0:
160,128,54154,1,0,0:0:0:0:
160,128,54252,1,0,0:0:0:0:
352,128,54446,1,8,0:0:0:0:
160,128,54544,1,0,0:0:0:0:
352,128,54739,1,8,0:0:0:0:
352,128,54836,1,8,0:0:0:0:
160,128,54933,1,0,0:0:0:0:
160,256,55129,1,4,0:0:0:0:
160,128,55323,1,0,0:0:0:0:
352,128,55421,1,8,0:0:0:0:
160,256,55713,1,4,0:0:0:0:
160,128,55908,1,0,0:0:0:0:
352,128,56005,1,8,0:0:0:0:
160,128,56297,1,0,0:0:0:0:
352,128,56395,1,8,0:0:0:0:
352,128,56492,1,8,0:0:0:0:
160,128,56590,1,0,0:0:0:0:
160,128,56784,1,0,0:0:0:0:
352,128,56979,1,8,0:0:0:0:
352,128,57076,1,8,0:0:0:0:
160,128,57173,1,0,0:0:0:0:
160,128,57271,1,0,0:0:0:0:
160,128,57368,1,0,0:0:0:0:
352,128,57563,1,8,0:0:0:0:
160,128,57758,1,0,0:0:0:0:
160,128,57953,1,0,0:0:0:0:
160,128,58050,1,0,0:0:0:0:
352,128,58147,1,8,0:0:0:0:
352,128,58538,1,8,0:0:0:0:
352,128,58635,1,8,0:0:0:0:
160,128,58830,1,0,0:0:0:0:
352,128,58927,1,8,0:0:0:0:
352,128,59122,1,8,0:0:0:0:
160,128,59219,1,0,0:0:0:0:
352,128,59414,1,8,0:0:0:0:
352,128,59609,1,8,0:0:0:0:
352,128,59706,1,8,0:0:0:0:
160,128,59804,1,0,0:0:0:0:
352,128,59901,1,8,0:0:0:0:
352,128,60096,1,8,0:0:0:0:
160,128,60291,1,0,0:0:0:0:
352,128,60486,1,8,0:0:0:0:
352,128,60583,1,8,0:0:0:0:
352,128,60680,1,8,0:0:0:0:
352,128,60778,1,8,0:0:0:0:
352,128,60875,1,8,0:0:0:0:
160,128,61070,1,0,0:0:0:0:
160,128,61167,1,0,0:0:0:0:
160,128,61265,1,0,0:0:0:0:
160,128,61362,1,0,0:0:0:0:
160,128,61460,1,0,0:0:0:0:
352,128,61654,1,8,0:0:0:0:
160,128,62044,1,0,0:0:0:0:
160,128,62141,1,0,0:0:0:0:
160,128,62239,1,0,0:0:0:0:
160,128,62434,1,0,0:0:0:0:
160,128,62531,1,0,0:0:0:0:
160,128,62628,1,0,0:0:0:0:
352,128,62823,1,8,0:0:0:0:
352,128,62921,1,8,0:0:0:0:
160,128,63018,1,0,0:0:0:0:
160,128,63115,1,0,0:0:0:0:
160,128,63213,1,0,0:0:0:0:
160,128,64187,1,0,0:0:0:0:
160,128,64284,1,0,0:0:0:0:
352,128,64382,1,8,0:0:0:0:
352,128,64479,1,8,0:0:0:0:
160,128,64576,1,0,0:0:0:0:
352,256,64771,1,12,0:0:0:0:
352,128,65161,1,8,0:0:0:0:
160,128,65356,1,0,0:0:0:0:
352,128,65453,1,8,0:0:0:0:
160,128,65648,1,0,0:0:0:0:
160,128,65843,1,0,0:0:0:0:
352,128,65940,1,8,0:0:0:0:
352,128,66135,1,8,0:0:0:0:
352,128,66232,1,8,0:0:0:0:
160,128,66330,1,0,0:0:0:0:
160,128,66525,1,0,0:0:0:0:
352,128,66719,1,8,0:0:0:0:
160,128,66914,1,0,0:0:0:0:
352,128,67012,1,8,0:0:0:0:
160,128,67206,1,0,0:0:0:0:
160,128,67304,1,0,0:0:0:0:
160,128,67401,1,0,0:0:0:0:
352,128,67499,1,8,0:0:0:0:
160,128,67693,1,0,0:0:0:0:
352,128,67888,1,8,0:0:0:0:
352,128,67986,1,8,0:0:0:0:
160,128,68083,1,0,0:0:0:0:
160,128,68180,1,0,0:0:0:0:
352,128,68278,1,8,0:0:0:0:
160,128,68473,1,0,0:0:0:0:
160,128,68570,1,0,0:0:0:0:
352,128,68667,1,8,0:0:0:0:
160,128,68765,1,0,0:0:0:0:
352,128,68862,1,8,0:0:0:0:
352,128,69057,1,8,0:0:0:0:
352,128,69252,1,8,0:0:0:0:
352,128,69349,1,8,0:0:0:0:
160,128,69447,1,0,0:0:0:0:
352,128,69544,1,8,0:0:0:0:
160,128,69641,1,0,0:0:0:0:
352,128,69836,1,8,0:0:0:0:
160,128,70031,1,0,0:0:0:0:
160,128,70226,1,0,0:0:0:0:
160,128,70323,1,0,0:0:0:0:
352,128,70421,1,8,0:0:0:0:
160,128,70518,1,0,0:0:0:0:
352,128,70615,1,8,0:0:0:0:
352,128,70713,1,8,0:0:0:0:
160,128,70810,1,0,0:0:0:0:
352,256,71005,1,12,0:0:0:0:
352,128,71395,1,8,0:0:0:0:
160,128,71589,1,0,0:0:0:0:
352,128,71687,1,8,0:0:0:0:
160,128,71882,1,0,0:0:0:0:
160,128,72076,1,0,0:0:0:0:
352,128,72174,1,8,0:0:0:0:
160,128,72369,1,0,0:0:0:0:
352,128,72466,1,8,0:0:0:0:
160,128,72563,1,0,0:0:0:0:
160,128,72758,1,0,0:0:0:0:
352,128,72953,1,8,0:0:0:0:
160,128,73148,1,0,0:0:0:0:
352,128,73245,1,8,0:0:0:0:
160,128,73440,1,0,0:0:0:0:
352,128,73538,1,8,0:0:0:0:
160,128,73635,1,0,0:0:0:0:
352,128,73732,1,8,0:0:0:0:
352,128,73927,1,8,0:0:0:0:
160,128,74122,1,0,0:0:0:0:
352,128,74219,1,8,0:0:0:0:
352,128,74317,1,8,0:0:0:0:
160,128,74512,1,0,0:0:0:0:
352,128,74609,1,8,0:0:0:0:
160,128,74706,1,0,0:0:0:0:
160,128,74804,1,0,0:0:0:0:
352,128,74901,1,8,0:0:0:0:
160,128,75096,1,0,0:0:0:0:
352,128,75193,1,8,0:0:0:0:
160,128,75291,1,0,0:0:0:0:
352,128,75486,1,8,0:0:0:0:
352,128,75583,1,8,0:0:0:0:
160,128,75680,1,0,0:0:0:0:
160,128,75875,1,0,0:0:0:0:
352,128,76070,1,8,0:0:0:0:
352,128,76265,1,8,0:0:0:0:
160,128,76362,1,0,0:0:0:0:
352,128,76557,1,8,0:0:0:0:
160,128,76654,1,0,0:0:0:0:
352,128,76752,1,8,0:0:0:0:
352,128,76849,1,8,0:0:0:0:
352,128,77044,1,8,0:0:0:0:
352,128,77141,1,8,0:0:0:0:
160,128,77239,1,0,0:0:0:0:
160,128,77823,1,0,0:0:0:0:
352,128,78018,1,8,0:0:0:0:
160,128,78213,1,0,0:0:0:0:
160,128,78310,1,0,0:0:0:0:
352,128,78408,1,8,0:0:0:0:
352,128,78505,1,8,0:0:0:0:
352,128,78602,1,8,0:0:0:0:
160,256,78797,1,4,0:0:0:0:
160,128,78992,1,0,0:0:0:0:
352,128,79089,1,8,0:0:0:0:
160,128,79284,1,0,0:0:0:0:
160,128,79479,1,0,0:0:0:0:
352,128,79576,1,8,0:0:0:0:
352,128,79674,1,8,0:0:0:0:
160,128,79771,1,0,0:0:0:0:
352,128,79966,1,8,0:0:0:0:
160,256,80356,1,4,0:0:0:0:
160,128,80550,1,0,0:0:0:0:
352,128,80648,1,8,0:0:0:0:
160,128,80843,1,0,0:0:0:0:
160,128,81038,1,0,0:0:0:0:
352,128,81135,1,8,0:0:0:0:
160,128,81232,1,0,0:0:0:0:
160,128,81330,1,0,0:0:0:0:
352,128,81525,1,8,0:0:0:0:
352,128,81622,1,8,0:0:0:0:
352,128,81719,1,8,0:0:0:0:
160,256,81914,1,4,0:0:0:0:
160,128,82109,1,0,0:0:0:0:
352,128,82206,1,8,0:0:0:0:
160,128,82401,1,0,0:0:0:0:
160,128,82596,1,0,0:0:0:0:
352,128,82693,1,8,0:0:0:0:
352,128,82791,1,8,0:0:0:0:
160,128,82888,1,0,0:0:0:0:
352,128,83083,1,8,0:0:0:0:
160,256,83473,1,4,0:0:0:0:
160,128,83667,1,0,0:0:0:0:
352,128,83765,1,8,0:0:0:0:
160,128,83960,1,0,0:0:0:0:
160,128,84057,1,0,0:0:0:0:
352,128,84252,1,8,0:0:0:0:
352,128,84349,1,8,0:0:0:0:
160,128,84447,1,0,0:0:0:0:
160,128,84544,1,0,0:0:0:0:
352,128,84641,1,8,0:0:0:0:
352,128,84739,1,8,0:0:0:0:
352,128,84836,1,8,0:0:0:0:
160,256,85031,1,4,0:0:0:0:
160,128,85226,1,0,0:0:0:0:
352,128,85323,1,8,0:0:0:0:
160,128,85518,1,0,0:0:0:0:
160,128,85713,1,0,0:0:0:0:
352,128,85810,1,8,0:0:0:0:
352,128,85908,1,8,0:0:0:0:
160,128,86005,1,0,0:0:0:0:
352,128,86200,1,8,0:0:0:0:
160,256,86589,1,4,0:0:0:0:
160,128,86784,1,0,0:0:0:0:
352,128,86882,1,8,0:0:0:0:
160,128,87076,1,0,0:0:0:0:
160,128,87271,1,0,0:0:0:0:
160,128,87369,1,0,0:0:0:0:
352,128,87563,1,8,0:0:0:0:
352,128,87661,1,8,0:0:0:0:
160,128,87758,1,0,0:0:0:0:
160,128,87953,1,0,0:0:0:0:
160,256,88148,1,4,0:0:0:0:
160,128,88343,1,0,0:0:0:0:
352,128,88440,1,8,0:0:0:0:
160,128,88635,1,0,0:0:0:0:
160,128,88830,1,0,0:0:0:0:
352,128,88927,1,8,0:0:0:0:
352,128,89025,1,8,0:0:0:0:
160,128,89122,1,0,0:0:0:0:
352,128,89317,1,8,0:0:0:0:
160,256,89706,1,4,0:0:0:0:
352,128,89901,1,8,0:0:0:0:
352,128,90096,1,8,0:0:0:0:
352,128,90193,1,8,0:0:0:0:
160,128,90291,1,0,0:0:0:0:
160,128,90486,1,0,0:0:0:0:
160,128,90583,1,0,0:0:0:0:
352,128,90680,1,8,0:0:0:0:
352,128,90778,1,8,0:0:0:0:
160,128,90875,1,0,0:0:0:0:
160,128,90973,1,0,0:0:0:0:
352,128,91070,1,8,0:0:0:0:
160,256,91265,1,4,0:0:0:0:
160,256,91557,1,4,0:0:0:0:
160,256,91849,1,4,0:0:0:0:
160,128,92239,1,0,0:0:0:0:
352,128,92434,1,8,0:0:0:0:
352,128,92531,1,8,0:0:0:0:
160,128,92628,1,0,0:0:0:0:
352,256,92823,1,12,0:0:0:0:
352,256,93115,1,12,0:0:0:0:
352,256,93408,1,12,0:0:0:0:
160,128,93602,1,0,0:0:0:0:
352,128,93700,1,8,0:0:0:0:
160,128,93797,1,0,0:0:0:0:
352,128,93992,1,8,0:0:0:0:
352,128,94089,1,8,0:0:0:0:
352,128,94187,1,8,0:0:0:0:
160,256,94382,1,4,0:0:0:0:
352,256,94674,1,12,0:0:0:0:
160,256,94966,1,4,0:0:0:0:
352,128,95356,1,8,0:0:0:0:
352,128,95453,1,8,0:0:0:0:
160,128,95550,1,0,0:0:0:0:
160,128,95648,1,0,0:0:0:0:
352,128,95745,1,8,0:0:0:0:
160,256,95940,1,4,0:0:0:0:
160,256,96232,1,4,0:0:0:0:
352,256,96525,1,12,0:0:0:0:
352,128,96914,1,8,0:0:0:0:
352,128,97012,1,8,0:0:0:0:
160,128,97109,1,0,0:0:0:0:
160,128,97206,1,0,0:0:0:0:
352,128,97304,1,8,0:0:0:0:
160,256,97499,1,4,0:0:0:0:
160,128,97693,1,0,0:0:0:0:
352,128,97791,1,8,0:0:0:0:
160,128,98083,1,0,0:0:0:0:
160,128,98278,1,0,0:0:0:0:
352,128,98473,1,8,0:0:0:0:
160,128,98570,1,0,0:0:0:0:
352,128,98667,1,8,0:0:0:0:
352,128,98765,1,8,0:0:0:0:
160,128,98862,1,0,0:0:0:0:
352,128,99252,1,8,0:0:0:0:
352,128,99447,1,8,0:0:0:0:
160,128,99836,1,0,0:0:0:0:
160,128,99934,1,0,0:0:0:0:
352,128,100128,1,8,0:0:0:0:
160,128,100226,1,0,0:0:0:0:
160,128,100323,1,0,0:0:0:0:
352,128,100421,1,8,0:0:0:0:
352,128,100810,1,8,0:0:0:0:
160,128,101200,1,0,0:0:0:0:
160,128,101395,1,0,0:0:0:0:
352,128,101589,1,8,0:0:0:0:
352,128,101687,1,8,0:0:0:0:
160,128,101784,1,0,0:0:0:0:
352,128,101882,1,8,0:0:0:0:
160,128,101979,1,0,0:0:0:0:
352,128,102369,1,8,0:0:0:0:
352,128,102563,1,8,0:0:0:0:
352,128,102661,1,8,0:0:0:0:
352,128,102856,1,8,0:0:0:0:
160,128,102953,1,0,0:0:0:0:
160,128,103148,1,0,0:0:0:0:
160,128,103245,1,0,0:0:0:0:
352,128,103343,1,8,0:0:0:0:
352,128,103440,1,8,0:0:0:0:
352,128,103538,1,8,0:0:0:0:
352,128,103635,1,8,0:0:0:0:
160,128,103732,1,0,0:0:0:0:
352,128,103927,1,8,0:0:0:0:
160,128,104317,1,0,0:0:0:0:
160,128,104512,1,0,0:0:0:0:
352,128,104706,1,8,0:0:0:0:
160,128,104804,1,0,0:0:0:0:
352,128,104901,1,8,0:0:0:0:
352,128,104999,1,8,0:0:0:0:
160,128,105096,1,0,0:0:0:0:
160,128,105291,1,0,0:0:0:0:
352,128,105486,1,8,0:0:0:0:
352,128,105680,1,8,0:0:0:0:
160,128,106070,1,0,0:0:0:0:
160,128,106167,1,0,0:0:0:0:
352,128,106362,1,8,0:0:0:0:
352,128,106460,1,8,0:0:0:0:
160,128,106557,1,0,0:0:0:0:
352,128,106654,1,8,0:0:0:0:
160,128,106849,1,0,0:0:0:0:
352,128,107044,1,8,0:0:0:0:
352,128,107434,1,8,0:0:0:0:
160,128,107628,1,0,0:0:0:0:
352,128,107823,1,8,0:0:0:0:
352,128,107921,1,8,0:0:0:0:
160,128,108018,1,0,0:0:0:0:
160,128,108115,1,0,0:0:0:0:
352,128,108213,1,8,0:0:0:0:
352,128,108310,1,8,0:0:0:0:
160,128,108408,1,0,0:0:0:0:
352,128,108602,1,8,0:0:0:0:
352,128,108797,1,8,0:0:0:0:
352,128,108895,1,8,0:0:0:0:
160,128,108992,1,0,0:0:0:0:
352,128,109187,1,8,0:0:0:0:
160,128,109382,1,0,0:0:0:0:
352,128,109479,1,8,0:0:0:0:
160,128,109674,1,0,0:0:0:0:
352,128,109771,1,8,0:0:0:0:
160,256,109966,1,4,0:0:0:0:
352,128,110550,1,8,0:0:0:0:
352,128,110648,1,8,0:0:0:0:
352,128,110745,1,8,0:0:0:0:
160,128,111038,1,0,0:0:0:0:
160,128,111330,1,0,0:0:0:0:
352,128,111525,1,8,0:0:0:0:
352,128,111622,1,8,0:0:0:0:
352,128,111817,1,8,0:0:0:0:
352,128,111914,1,8,0:0:0:0:
352,128,112109,1,8,0:0:0:0:
352,128,112206,1,8,0:0:0:0:
352,128,112401,1,8,0:0:0:0:
352,128,112499,1,8,0:0:0:0:
352,128,112693,1,8,0:0:0:0:
352,128,112791,1,8,0:0:0:0:
352,128,112888,1,8,0:0:0:0:
352,128,112986,1,8,0:0:0:0:
160,128,113083,1,0,0:0:0:0:
352,128,115225,1,8,0:0:0:0:
352,128,115323,1,8,0:0:0:0:
352,128,115420,1,8,0:0:0:0:
352,128,117173,1,8,0:0:0:0:
352,128,117271,1,8,0:0:0:0:
352,128,117368,1,8,0:0:0:0:
160,128,117758,1,0,0:0:0:0:
352,128,117953,1,8,0:0:0:0:
352,128,118147,1,8,0:0:0:0:
352,128,118245,1,8,0:0:0:0:
352,128,118342,1,8,0:0:0:0:
352,128,118537,1,8,0:0:0:0:
352,128,118927,1,8,0:0:0:0:
352,128,119121,1,8,0:0:0:0:
352,128,119316,1,8,0:0:0:0:
352,128,119414,1,8,0:0:0:0:
352,128,119511,1,8,0:0:0:0:
352,128,119706,1,8,0:0:0:0:
352,128,119803,1,8,0:0:0:0:
352,128,119901,1,8,0:0:0:0:
352,128,120095,1,8,0:0:0:0:
352,128,120193,1,8,0:0:0:0:
352,128,120290,1,8,0:0:0:0:
352,128,120485,1,8,0:0:0:0:
352,128,120875,1,8,0:0:0:0:
352,128,121070,1,8,0:0:0:0:
352,128,121264,1,8,0:0:0:0:
352,128,121362,1,8,0:0:0:0:
352,128,121459,1,8,0:0:0:0:
352,128,121654,1,8,0:0:0:0:
160,128,121849,1,0,0:0:0:0:
352,128,122044,1,8,0:0:0:0:
160,256,122433,1,4,0:0:0:0:
352,128,122628,1,8,0:0:0:0:
160,128,122823,1,0,0:0:0:0:
352,128,123115,1,8,0:0:0:0:
160,128,123212,1,0,0:0:0:0:
352,128,123407,1,8,0:0:0:0:
352,128,123505,1,8,0:0:0:0:
160,128,123602,1,0,0:0:0:0:
352,128,123797,1,8,0:0:0:0:
160,128,123992,1,0,0:0:0:0:
352,128,124284,1,8,0:0:0:0:
160,128,124381,1,0,0:0:0:0:
352,128,124479,1,8,0:0:0:0:
352,128,124673,1,8,0:0:0:0:
160,128,124771,1,0,0:0:0:0:
352,128,124966,1,8,0:0:0:0:
160,128,125160,1,0,0:0:0:0:
352,128,125453,1,8,0:0:0:0:
160,128,125550,1,0,0:0:0:0:
352,128,125745,1,8,0:0:0:0:
352,128,125842,1,8,0:0:0:0:
160,128,125940,1,0,0:0:0:0:
352,128,126134,1,8,0:0:0:0:
160,128,126329,1,0,0:0:0:0:
352,128,126621,1,8,0:0:0:0:
160,128,126719,1,0,0:0:0:0:
352,128,126816,1,8,0:0:0:0:
352,128,126914,1,8,0:0:0:0:
160,256,127108,1,4,0:0:0:0:
352,128,127303,1,8,0:0:0:0:
160,128,127498,1,0,0:0:0:0:
352,128,127790,1,8,0:0:0:0:
160,128,127888,1,0,0:0:0:0:
352,128,128083,1,8,0:0:0:0:
352,128,128180,1,8,0:0:0:0:
160,128,128277,1,0,0:0:0:0:
352,128,128472,1,8,0:0:0:0:
160,128,128667,1,0,0:0:0:0:
352,128,128862,1,8,0:0:0:0:
352,128,128959,1,8,0:0:0:0:
160,128,129057,1,0,0:0:0:0:
352,128,129251,1,8,0:0:0:0:
160,128,129446,1,0,0:0:0:0:
352,128,129641,1,8,0:0:0:0:
160,128,129836,1,0,0:0:0:0:
352,128,130128,1,8,0:0:0:0:
160,128,130225,1,0,0:0:0:0:
352,128,130420,1,8,0:0:0:0:
352,128,130518,1,8,0:0:0:0:
160,128,130615,1,0,0:0:0:0:
352,128,130810,1,8,0:0:0:0:
160,128,131005,1,0,0:0:0:0:
352,128,131199,1,8,0:0:0:0:
352,128,131297,1,8,0:0:0:0:
160,128,131394,1,0,0:0:0:0:
352,128,131492,1,8,0:0:0:0:
160,128,131589,1,0,0:0:0:0:
352,256,131784,1,12,0:0:0:0:
352,256,132077,1,12,0:0:0:0:
352,256,132369,1,12,0:0:0:0:
352,256,132661,1,12,0:0:0:0:
352,128,132953,1,8,0:0:0:0:
160,128,133083,1,0,0:0:0:0:
160,128,133213,1,0,0:0:0:0:
352,128,133343,1,8,0:0:0:0:
160,128,133473,1,0,0:0:0:0:
160,128,133603,1,0,0:0:0:0:
352,128,133733,1,8,0:0:0:0:
160,256,134122,1,4,0:0:0:0:
160,256,134316,1,4,0:0:0:0:
160,128,135096,1,0,0:0:0:0:
352,128,135290,1,8,0:0:0:0:
160,256,135680,1,4,0:0:0:0:
160,256,135875,1,4,0:0:0:0:
160,128,136654,1,0,0:0:0:0:
160,128,136751,1,0,0:0:0:0:
352,128,136849,1,8,0:0:0:0:
160,256,137238,1,4,0:0:0:0:
160,256,137433,1,4,0:0:0:0:
160,128,138212,1,0,0:0:0:0:
160,128,138310,1,0,0:0:0:0:
352,128,138407,1,8,0:0:0:0:
160,256,138797,1,4,0:0:0:0:
160,256,138992,1,4,0:0:0:0:
352,128,139186,1,8,0:0:0:0:
352,128,139284,1,8,0:0:0:0:
160,128,139381,1,0,0:0:0:0:
352,128,139576,1,8,0:0:0:0:
160,128,139673,1,0,0:0:0:0:
352,128,139868,1,8,0:0:0:0:
160,128,139966,1,0,0:0:0:0:
160,128,140063,1,0,0:0:0:0:
352,128,140160,1,8,0:0:0:0:
160,256,140355,1,4,0:0:0:0:
160,128,140550,1,0,0:0:0:0:
352,128,140745,1,8,0:0:0:0:
160,128,140842,1,0,0:0:0:0:
160,128,140940,1,0,0:0:0:0:
352,128,141037,1,8,0:0:0:0:
352,128,141232,1,8,0:0:0:0:
160,128,141329,1,0,0:0:0:0:
352,128,141524,1,8,0:0:0:0:
160,256,141914,1,4,0:0:0:0:
160,128,142109,1,0,0:0:0:0:
352,128,142303,1,8,0:0:0:0:
352,128,142401,1,8,0:0:0:0:
160,128,142498,1,0,0:0:0:0:
352,128,142596,1,8,0:0:0:0:
352,128,142790,1,8,0:0:0:0:
160,128,142888,1,0,0:0:0:0:
352,128,143083,1,8,0:0:0:0:
352,128,143180,1,8,0:0:0:0:
352,128,143277,1,8,0:0:0:0:
160,256,143472,1,4,0:0:0:0:
160,128,143667,1,0,0:0:0:0:
352,128,143862,1,8,0:0:0:0:
160,128,143959,1,0,0:0:0:0:
160,128,144057,1,0,0:0:0:0:
352,128,144154,1,8,0:0:0:0:
352,128,144349,1,8,0:0:0:0:
160,128,144446,1,0,0:0:0:0:
352,128,144641,1,8,0:0:0:0:
160,256,145031,1,4,0:0:0:0:
160,128,145225,1,0,0:0:0:0:
352,128,145420,1,8,0:0:0:0:
352,128,145518,1,8,0:0:0:0:
160,128,145615,1,0,0:0:0:0:
160,128,145712,1,0,0:0:0:0:
160,128,145810,1,0,0:0:0:0:
352,128,145907,1,8,0:0:0:0:
160,128,146102,1,0,0:0:0:0:
352,128,146199,1,8,0:0:0:0:
352,128,146394,1,8,0:0:0:0:
160,256,146589,1,4,0:0:0:0:
160,128,146784,1,0,0:0:0:0:
352,128,146979,1,8,0:0:0:0:
160,128,147076,1,0,0:0:0:0:
160,128,147173,1,0,0:0:0:0:
352,128,147271,1,8,0:0:0:0:
352,128,147466,1,8,0:0:0:0:
160,128,147563,1,0,0:0:0:0:
352,128,147758,1,8,0:0:0:0:
160,256,148147,1,4,0:0:0:0:
160,128,148342,1,0,0:0:0:0:
352,128,148537,1,8,0:0:0:0:
352,128,148634,1,8,0:0:0:0:
160,128,148732,1,0,0:0:0:0:
352,128,148829,1,8,0:0:0:0:
352,128,149024,1,8,0:0:0:0:
160,128,149122,1,0,0:0:0:0:
352,128,149316,1,8,0:0:0:0:
352,128,149414,1,8,0:0:0:0:
352,128,149511,1,8,0:0:0:0:
160,256,149706,1,4,0:0:0:0:
160,128,149901,1,0,0:0:0:0:
352,128,150096,1,8,0:0:0:0:
160,128,150193,1,0,0:0:0:0:
160,128,150290,1,0,0:0:0:0:
352,128,150388,1,8,0:0:0:0:
352,128,150583,1,8,0:0:0:0:
160,128,150680,1,0,0:0:0:0:
352,128,150875,1,8,0:0:0:0:
352,128,150972,1,8,0:0:0:0:
160,128,151070,1,0,0:0:0:0:
352,256,151264,1,12,0:0:0:0:
160,128,151849,1,0,0:0:0:0:
160,128,151946,1,0,0:0:0:0:
352,128,152044,1,8,0:0:0:0:
352,128,152141,1,8,0:0:0:0:
160,128,152238,1,0,0:0:0:0:
160,128,152336,1,0,0:0:0:0:
352,128,152433,1,8,0:0:0:0:
352,256,152823,1,12,0:0:0:0:
352,128,153212,1,8,0:0:0:0:
160,128,153407,1,0,0:0:0:0:
352,128,153505,1,8,0:0:0:0:
160,128,153699,1,0,0:0:0:0:
160,128,153894,1,0,0:0:0:0:
352,128,153992,1,8,0:0:0:0:
352,128,154186,1,8,0:0:0:0:
352,128,154284,1,8,0:0:0:0:
160,128,154381,1,0,0:0:0:0:
160,128,154576,1,0,0:0:0:0:
352,128,154771,1,8,0:0:0:0:
160,128,154966,1,0,0:0:0:0:
352,128,155063,1,8,0:0:0:0:
160,128,155258,1,0,0:0:0:0:
160,128,155355,1,0,0:0:0:0:
160,128,155453,1,0,0:0:0:0:
352,128,155550,1,8,0:0:0:0:
160,128,155745,1,0,0:0:0:0:
352,128,155940,1,8,0:0:0:0:
352,128,156037,1,8,0:0:0:0:
160,128,156134,1,0,0:0:0:0:
160,128,156232,1,0,0:0:0:0:
352,128,156329,1,8,0:0:0:0:
160,128,156524,1,0,0:0:0:0:
352,128,156622,1,8,0:0:0:0:
160,128,156719,1,0,0:0:0:0:
352,128,156816,1,8,0:0:0:0:
160,128,156914,1,0,0:0:0:0:
352,128,157109,1,8,0:0:0:0:
352,128,157303,1,8,0:0:0:0:
352,128,157401,1,8,0:0:0:0:
160,128,157498,1,0,0:0:0:0:
352,128,157596,1,8,0:0:0:0:
160,128,157693,1,0,0:0:0:0:
352,128,157888,1,8,0:0:0:0:
160,128,158083,1,0,0:0:0:0:
160,128,158277,1,0,0:0:0:0:
160,128,158375,1,0,0:0:0:0:
352,128,158472,1,8,0:0:0:0:
160,128,158570,1,0,0:0:0:0:
352,128,158667,1,8,0:0:0:0:
352,128,158764,1,8,0:0:0:0:
160,128,158862,1,0,0:0:0:0:
352,256,159057,1,12,0:0:0:0:
352,128,159446,1,8,0:0:0:0:
160,128,159641,1,0,0:0:0:0:
352,128,159738,1,8,0:0:0:0:
160,128,159933,1,0,0:0:0:0:
160,128,160128,1,0,0:0:0:0:
352,128,160225,1,8,0:0:0:0:
160,128,160420,1,0,0:0:0:0:
352,128,160518,1,8,0:0:0:0:
160,128,160615,1,0,0:0:0:0:
160,128,160810,1,0,0:0:0:0:
352,128,161005,1,8,0:0:0:0:
160,128,161199,1,0,0:0:0:0:
352,128,161297,1,8,0:0:0:0:
160,128,161492,1,0,0:0:0:0:
352,128,161589,1,8,0:0:0:0:
160,128,161686,1,0,0:0:0:0:
352,128,161784,1,8,0:0:0:0:
160,128,161979,1,0,0:0:0:0:
160,128,162173,1,0,0:0:0:0:
352,128,162271,1,8,0:0:0:0:
352,128,162368,1,8,0:0:0:0:
352,128,162563,1,8,0:0:0:0:
352,128,162660,1,8,0:0:0:0:
160,128,162758,1,0,0:0:0:0:
160,128,162855,1,0,0:0:0:0:
352,128,162953,1,8,0:0:0:0:
160,128,163147,1,0,0:0:0:0:
352,128,163245,1,8,0:0:0:0:
160,128,163342,1,0,0:0:0:0:
352,128,163537,1,8,0:0:0:0:
352,128,163634,1,8,0:0:0:0:
160,128,163732,1,0,0:0:0:0:
160,128,163927,1,0,0:0:0:0:
352,128,164122,1,8,0:0:0:0:
352,128,164316,1,8,0:0:0:0:
352,128,164414,1,8,0:0:0:0:
352,128,164609,1,8,0:0:0:0:
160,128,164706,1,0,0:0:0:0:
160,128,164803,1,0,0:0:0:0:
352,128,164901,1,8,0:0:0:0:
352,128,165290,1,8,0:0:0:0:
160,128,165388,1,0,0:0:0:0:
352,128,165485,1,8,0:0:0:0:
160,128,165583,1,0,0:0:0:0:
352,128,165680,1,8,0:0:0:0:
352,128,165875,1,8,0:0:0:0:
352,128,166070,1,8,0:0:0:0:
352,128,166167,1,8,0:0:0:0:
160,128,166264,1,0,0:0:0:0:
160,128,166362,1,0,0:0:0:0:
352,128,166459,1,8,0:0:0:0:
160,128,166654,1,0,0:0:0:0:
160,128,166751,1,0,0:0:0:0:
352,128,166849,1,8,0:0:0:0:
160,128,166946,1,0,0:0:0:0:
352,128,167044,1,8,0:0:0:0:
160,128,167141,1,0,0:0:0:0:
352,128,167238,1,8,0:0:0:0:
352,128,167433,1,8,0:0:0:0:
352,128,167628,1,8,0:0:0:0:
352,128,167725,1,8,0:0:0:0:
160,128,167823,1,0,0:0:0:0:
160,128,167920,1,0,0:0:0:0:
352,128,168018,1,8,0:0:0:0:
352,128,168115,1,8,0:0:0:0:
160,128,168212,1,0,0:0:0:0:
352,256,168407,1,12,0:0:0:0:
352,128,168699,1,8,0:0:0:0:
160,128,168894,1,0,0:0:0:0:
352,128,168992,1,8,0:0:0:0:
160,128,169186,1,0,0:0:0:0:
352,128,169284,1,8,0:0:0:0:
160,128,169381,1,0,0:0:0:0:
160,128,169479,1,0,0:0:0:0:
352,128,169576,1,8,0:0:0:0:
352,128,169771,1,8,0:0:0:0:
160,128,169966,1,0,0:0:0:0:
352,128,170160,1,8,0:0:0:0:
160,128,170258,1,0,0:0:0:0:
352,128,170355,1,8,0:0:0:0:
352,128,170550,1,8,0:0:0:0:
352,128,170647,1,8,0:0:0:0:
160,128,170745,1,0,0:0:0:0:
352,128,170842,1,8,0:0:0:0:
160,128,170940,1,0,0:0:0:0:
352,128,171134,1,8,0:0:0:0:
160,128,171524,1,0,0:0:0:0:
160,128,171719,1,0,0:0:0:0:
352,128,171816,1,8,0:0:0:0:
160,128,172011,1,0,0:0:0:0:
352,128,172109,1,8,0:0:0:0:
160,128,172303,1,0,0:0:0:0:
352,128,172401,1,8,0:0:0:0:
160,128,172498,1,0,0:0:0:0:
160,128,172596,1,0,0:0:0:0:
352,128,172693,1,8,0:0:0:0:
352,128,172888,1,8,0:0:0:0:
352,128,172985,1,8,0:0:0:0:
160,128,173083,1,0,0:0:0:0:
160,128,173277,1,0,0:0:0:0:
352,128,173375,1,8,0:0:0:0:
352,128,173472,1,8,0:0:0:0:
352,128,173667,1,8,0:0:0:0:
160,128,173862,1,0,0:0:0:0:
352,128,173959,1,8,0:0:0:0:
160,128,174057,1,0,0:0:0:0:
352,128,174251,1,8,0:0:0:0:
352,128,174349,1,8,0:0:0:0:
160,128,174446,1,0,0:0:0:0:
160,128,174641,1,0,0:0:0:0:
160,128,174836,1,0,0:0:0:0:
352,128,174933,1,8,0:0:0:0:
160,128,175128,1,0,0:0:0:0:
160,128,175225,1,0,0:0:0:0:
160,128,175420,1,0,0:0:0:0:
352,128,175518,1,8,0:0:0:0:
160,128,175615,1,0,0:0:0:0:
352,128,175810,1,8,0:0:0:0:
160,128,176005,1,0,0:0:0:0:
160,128,176102,1,0,0:0:0:0:
352,128,176199,1,8,0:0:0:0:
352,128,176394,1,8,0:0:0:0:
160,128,176492,1,0,0:0:0:0:
352,128,176589,1,8,0:0:0:0:
160,128,176686,1,0,0:0:0:0:
352,128,176784,1,8,0:0:0:0:
160,128,176881,1,0,0:0:0:0:
352,128,176979,1,8,0:0:0:0:
160,128,177173,1,0,0:0:0:0:
352,128,177368,1,8,0:0:0:0:
352,128,177466,1,8,0:0:0:0:
160,128,177563,1,0,0:0:0:0:
160,128,177660,1,0,0:0:0:0:
352,256,177856,1,12,0:0:0:0:
352,256,178147,1,12,0:0:0:0:
352,256,178440,1,12,0:0:0:0:
352,256,178732,1,12,0:0:0:0:
160,128,178927,1,0,0:0:0:0:
160,256,179317,1,4,0:0:0:0:
352,128,179609,1,8,0:0:0:0:
160,128,179804,1,0,0:0:0:0:
160,128,179901,1,0,0:0:0:0:
160,128,179998,1,0,0:0:0:0:
352,128,180096,1,8,0:0:0:0:
160,128,180291,1,0,0:0:0:0:
352,128,180485,1,8,0:0:0:0:
352,128,180583,1,8,0:0:0:0:
160,256,180778,1,4,0:0:0:0:
160,128,180972,1,0,0:0:0:0:
352,128,181070,1,8,0:0:0:0:
352,128,181265,1,8,0:0:0:0:
160,128,181362,1,0,0:0:0:0:
160,128,181459,1,0,0:0:0:0:
352,128,181557,1,8,0:0:0:0:
160,128,181752,1,0,0:0:0:0:
352,128,181849,1,8,0:0:0:0:
352,128,181946,1,8,0:0:0:0:
160,128,182044,1,0,0:0:0:0:
160,256,182239,1,4,0:0:0:0:
352,128,182531,1,8,0:0:0:0:
160,128,182726,1,0,0:0:0:0:
160,128,182823,1,0,0:0:0:0:
160,128,182920,1,0,0:0:0:0:
352,128,183018,1,8,0:0:0:0:
160,128,183213,1,0,0:0:0:0:
352,128,183407,1,8,0:0:0:0:
352,128,183505,1,8,0:0:0:0:
160,256,183700,1,4,0:0:0:0:
160,128,183894,1,0,0:0:0:0:
352,128,183992,1,8,0:0:0:0:
352,128,184187,1,8,0:0:0:0:
160,128,184284,1,0,0:0:0:0:
160,128,184381,1,0,0:0:0:0:
352,128,184479,1,8,0:0:0:0:
160,128,184674,1,0,0:0:0:0:
160,128,184771,1,0,0:0:0:0:
352,128,184868,1,8,0:0:0:0:
352,128,184966,1,8,0:0:0:0:
160,256,185161,1,4,0:0:0:0:
352,128,185453,1,8,0:0:0:0:
160,128,185648,1,0,0:0:0:0:
160,128,185745,1,0,0:0:0:0:
352,128,185842,1,8,0:0:0:0:
352,128,186037,1,8,0:0:0:0:
352,128,186135,1,8,0:0:0:0:
352,128,186329,1,8,0:0:0:0:
160,128,186524,1,0,0:0:0:0:
160,128,186622,1,0,0:0:0:0:
352,128,186719,1,8,0:0:0:0:
160,256,187109,1,4,0:0:0:0:
352,128,187401,1,8,0:0:0:0:
160,128,187596,1,0,0:0:0:0:
160,128,187693,1,0,0:0:0:0:
160,128,187790,1,0,0:0:0:0:
352,128,187888,1,8,0:0:0:0:
160,128,188083,1,0,0:0:0:0:
352,128,188277,1,8,0:0:0:0:
352,128,188375,1,8,0:0:0:0:
160,256,188570,1,4,0:0:0:0:
160,128,188764,1,0,0:0:0:0:
352,128,188862,1,8,0:0:0:0:
160,128,189057,1,0,0:0:0:0:
160,128,189154,1,0,0:0:0:0:
352,128,189251,1,8,0:0:0:0:
352,128,189446,1,8,0:0:0:0:
352,128,189544,1,8,0:0:0:0:
160,128,189738,1,0,0:0:0:0:
160,128,189836,1,0,0:0:0:0:
160,128,189933,1,0,0:0:0:0:
160,128,190031,1,0,0:0:0:0:
352,128,190128,1,8,0:0:0:0:
160,256,190518,1,4,0:0:0:0:
160,128,190712,1,0,0:0:0:0:
352,128,190810,1,8,0:0:0:0:
160,128,191005,1,0,0:0:0:0:
352,128,191102,1,8,0:0:0:0:
352,128,191297,1,8,0:0:0:0:
352,128,191394,1,8,0:0:0:0:
160,128,191492,1,0,0:0:0:0:
352,128,191589,1,8,0:0:0:0:
160,128,191686,1,0,0:0:0:0:
352,256,192077,1,12,0:0:0:0:
160,128,192271,1,0,0:0:0:0:
352,128,192369,1,8,0:0:0:0:
160,128,192564,1,0,0:0:0:0:
352,128,192661,1,8,0:0:0:0:
160,128,192856,1,0,0:0:0:0:
352,128,192953,1,8,0:0:0:0:
160,128,193148,1,0,0:0:0:0:
352,128,193245,1,8,0:0:0:0:
160,128,193343,1,0,0:0:0:0:
160,128,193440,1,0,0:0:0:0:
352,128,193538,1,8,0:0:0:0:
160,128,193732,1,0,0:0:0:0:
352,128,193830,1,8,0:0:0:0:
160,128,194025,1,0,0:0:0:0:
352,128,194122,1,8,0:0:0:0:
352,128,194219,1,8,0:0:0:0:
352,128,194317,1,8,0:0:0:0:
160,128,194414,1,0,0:0:0:0:
160,128,194998,1,0,0:0:0:0:
160,128,195095,1,0,0:0:0:0:
352,128,195193,1,8,0:0:0:0:
352,128,195388,1,8,0:0:0:0:
352,128,195485,1,8,0:0:0:0:
160,128,195582,1,0,0:0:0:0:
160,128,195680,1,0,0:0:0:0:
160,128,195777,1,0,0:0:0:0:
160,128,195875,1,0,0:0:0:0:
352,128,195972,1,8,0:0:0:0:
