osu file format v14

[General]
AudioFilename: audio.ogg
AudioLeadIn: 0
PreviewTime: 7694
Countdown: 0
SampleSet: Normal
StackLeniency: 0.7
Mode: 1
LetterboxInBreaks: 0
WidescreenStoryboard: 1

[Editor]
Bookmarks: 3334,4795,6256,7717,9178,10639,12100,13561,15509,16970,19015,20574,22911,23966,25524,27083,38106,40444,42879,45217,47944,50282,52814,55152,58561,64795,78821,91288,97522,109989,113106,131808,134145,152847,179340,180801,182262,183723,185184,187132,188593,190541,192100,194437,195996
DistanceSpacing: 0.4
BeatDivisor: 8
GridSize: 32
TimelineZoom: 2.6

[Metadata]
Title:Mirage Age
TitleUnicode:Mirage Age
Artist:Marmalade butcher
ArtistUnicode:Marmalade butcher
Creator:Eyenine
Version:Futsuu
Source:pop'n music peace
Tags:mtntwarz taikoseania featured artist fa math rock instrumental video game bemani maniku マ肉
BeatmapID:3173124
BeatmapSetID:1520484

[Difficulty]
HPDrainRate:7
CircleSize:5
OverallDifficulty:4
ApproachRate:8
SliderMultiplier:1.4
SliderTickRate:1

[Events]
//Background and Video events
0,0,"nexumorphic domain of genesis.jpg",0,0
//Break Periods
//Storyboard Layer 0 (Background)
//Storyboard Layer 1 (Fail)
//Storyboard Layer 2 (Pass)
//Storyboard Layer 3 (Foreground)
//Storyboard Layer 4 (Overlay)
//Storyboard Sound Samples

[TimingPoints]
1850,389.61038961039,4,1,0,65,1,0
1947,-100,4,1,0,20,0,0
3311,389.61038961039,4,1,0,20,1,0
3311,-100,4,1,0,20,0,0
4577,-100,4,1,0,65,0,0
4772,389.61038961039,4,1,0,65,1,0
4772,-100,4,1,0,65,0,0
6233,389.61038961039,4,1,0,65,1,0
6233,-100,4,1,0,65,0,0
7694,389.61038961039,4,1,0,80,1,0
7694,-100,4,1,0,80,0,0
9155,389.61038961039,4,1,0,80,1,0
10616,389.61038961039,4,1,0,80,1,0
12077,389.61038961039,4,1,0,80,1,0
13538,389.61038961039,5,1,0,80,1,0
15486,389.61038961039,4,1,0,80,1,0
16947,389.61038961039,5,1,0,80,1,0
18895,389.61038961039,4,1,0,80,1,0
20453,389.61038961039,6,1,0,80,1,0
22790,389.61038961039,3,1,0,80,1,8
22790,-100,3,1,0,80,0,0
22791,389.61038961039,3,1,0,80,1,0
22791,-100,3,1,0,80,0,0
22985,-100,3,1,0,80,0,0
23959,389.61038961039,4,1,0,90,1,8
23959,-100,4,1,0,90,0,0
23960,389.61038961039,4,1,0,90,1,0
23960,-100,4,1,0,90,0,0
37985,389.61038961039,6,1,0,80,1,8
37985,-100,6,1,0,80,0,0
37986,389.61038961039,6,1,0,80,1,0
40323,389.61038961039,6,1,0,80,1,8
40324,389.61038961039,7,1,0,80,1,0
42856,389.61038961039,6,1,0,80,1,0
45193,389.61038961039,6,1,0,80,1,8
45194,389.61038961039,7,1,0,80,1,0
47921,389.61038961039,6,1,0,90,1,0
47921,-100,6,1,0,90,0,0
50258,389.61038961039,7,1,0,90,1,8
50259,389.61038961039,7,1,0,90,1,0
52791,389.61038961039,6,1,0,90,1,0
55128,389.61038961039,7,1,0,90,1,8
55129,389.61038961039,5,1,0,90,1,0
56979,389.61038961039,4,1,0,90,1,0
58488,-100,4,1,0,90,0,0
58537,389.61038961039,4,1,0,80,1,8
58538,389.61038961039,4,1,0,80,1,0
58538,-100,4,1,0,80,0,0
64771,-100,4,1,0,100,0,1
77239,-100,4,1,0,100,0,0
77336,-100,4,1,0,90,0,0
113083,389.61038961039,3,1,0,90,1,0
113180,-100,3,1,0,65,0,0
122401,-100,3,1,0,75,0,0
131784,389.61038961039,6,1,0,90,1,8
131784,-100,6,1,0,90,0,0
131785,389.61038961039,6,1,0,90,1,0
131785,-100,6,1,0,90,0,0
134122,389.61038961039,4,1,0,80,1,0
139576,-100,4,1,0,80,0,0
140323,-100,4,1,0,90,0,0
152823,-100,4,1,0,100,0,1
177758,-100,4,1,0,100,0,0
177790,-100,4,1,0,80,0,0
179316,389.61038961039,4,1,0,80,1,8
179317,389.61038961039,4,1,0,80,1,0
180778,389.61038961039,4,1,0,80,1,0
182239,389.61038961039,4,1,0,80,1,0
183700,389.61038961039,4,1,0,80,1,0
185161,389.61038961039,5,1,0,80,1,0
187109,389.61038961039,4,1,0,80,1,0
188570,389.61038961039,5,1,0,80,1,0
190518,389.61038961039,4,1,0,80,1,0
192076,389.61038961039,6,1,0,80,1,8
192077,389.61038961039,6,1,0,80,1,0
194414,389.61038961039,4,1,0,80,1,0

[HitObjects]
160,256,1850,5,4,0:0:0:0:
352,128,4772,1,8,0:0:0:0:
160,128,7304,1,0,0:0:0:0:
160,256,7694,1,4,0:0:0:0:
352,128,8473,1,8,0:0:0:0:
352,128,8862,1,8,0:0:0:0:
160,256,9155,1,4,0:0:0:0:
160,128,9447,1,8,0:0:0:0:
160,128,9739,1,0,0:0:0:0:
352,128,9934,1,8,0:0:0:0:
352,128,10323,1,8,0:0:0:0:
160,256,10616,1,4,0:0:0:0:
352,128,11395,1,8,0:0:0:0:
352,128,11784,1,8,0:0:0:0:
160,256,12077,1,4,0:0:0:0:
352,128,12369,1,8,0:0:0:0:
160,128,12661,1,0,0:0:0:0:
352,128,12856,1,8,0:0:0:0:
352,128,13245,1,8,0:0:0:0:
160,256,13538,1,4,0:0:0:0:
160,128,14317,1,0,0:0:0:0:
160,128,14512,1,0,0:0:0:0:
352,128,14706,1,8,0:0:0:0:
352,128,14999,1,8,0:0:0:0:
352,128,15291,1,8,0:0:0:0:
160,256,15486,1,4,0:0:0:0:
352,128,16265,1,8,0:0:0:0:
352,128,16654,1,8,0:0:0:0:
160,256,16947,1,4,0:0:0:0:
352,128,17239,1,8,0:0:0:0:
160,128,17531,1,0,0:0:0:0:
160,128,17726,1,0,0:0:0:0:
352,128,18115,1,8,0:0:0:0:
352,128,18408,1,8,0:0:0:0:
352,128,18700,1,8,0:0:0:0:
160,256,18895,1,4,0:0:0:0:
352,128,19479,1,8,0:0:0:0:
352,128,19674,1,8,0:0:0:0:
160,128,20063,1,0,0:0:0:0:
352,256,20453,1,12,0:0:0:0:
352,256,20745,1,12,0:0:0:0:
352,256,21037,1,12,0:0:0:0:
352,256,21329,1,12,0:0:0:0:
160,128,21621,1,0,0:0:0:0:
160,128,22011,1,0,0:0:0:0:
352,128,22206,1,8,0:0:0:0:
160,128,22401,1,0,0:0:0:0:
352,128,22595,1,8,0:0:0:0:
160,128,23570,1,0,0:0:0:0:
160,256,23960,1,4,0:0:0:0:
352,128,24252,1,8,0:0:0:0:
160,128,24544,1,0,0:0:0:0:
352,128,24739,1,8,0:0:0:0:
352,128,25128,1,8,0:0:0:0:
160,256,25518,1,4,0:0:0:0:
352,128,25810,1,8,0:0:0:0:
352,128,26102,1,8,0:0:0:0:
160,128,26297,1,0,0:0:0:0:
352,128,26687,1,8,0:0:0:0:
160,256,27076,1,4,0:0:0:0:
352,128,27369,1,8,0:0:0:0:
160,128,27661,1,0,0:0:0:0:
160,128,27856,1,0,0:0:0:0:
352,128,28245,1,8,0:0:0:0:
160,128,28635,1,0,0:0:0:0:
352,128,28927,1,8,0:0:0:0:
352,128,29219,1,8,0:0:0:0:
160,128,29414,1,0,0:0:0:0:
160,256,30194,1,4,0:0:0:0:
352,128,30486,1,8,0:0:0:0:
160,128,30778,1,0,0:0:0:0:
352,128,30973,1,8,0:0:0:0:
352,128,31362,1,8,0:0:0:0:
160,256,31752,1,4,0:0:0:0:
352,128,32044,1,8,0:0:0:0:
352,128,32336,1,8,0:0:0:0:
160,128,32531,1,0,0:0:0:0:
352,128,32921,1,8,0:0:0:0:
160,256,33310,1,4,0:0:0:0:
352,128,33603,1,8,0:0:0:0:
160,128,33895,1,0,0:0:0:0:
160,128,34090,1,0,0:0:0:0:
352,128,34479,1,8,0:0:0:0:
160,128,34869,1,0,0:0:0:0:
352,128,35161,1,8,0:0:0:0:
352,128,35453,1,8,0:0:0:0:
160,128,35648,1,0,0:0:0:0:
352,128,36427,1,8,0:0:0:0:
352,128,36719,1,8,0:0:0:0:
352,128,37011,1,8,0:0:0:0:
352,128,37206,1,8,0:0:0:0:
160,128,37985,1,0,0:0:0:0:
352,128,38278,1,8,0:0:0:0:
160,128,38570,1,0,0:0:0:0:
352,128,38862,1,8,0:0:0:0:
160,128,39154,1,0,0:0:0:0:
352,128,39447,1,8,0:0:0:0:
160,128,39739,1,0,0:0:0:0:
160,128,40324,1,0,0:0:0:0:
352,128,40616,1,8,0:0:0:0:
160,128,40908,1,0,0:0:0:0:
352,128,41200,1,8,0:0:0:0:
160,128,41492,1,0,0:0:0:0:
352,128,41785,1,8,0:0:0:0:
160,128,42077,1,0,0:0:0:0:
352,128,42369,1,8,0:0:0:0:
160,128,42856,1,0,0:0:0:0:
352,128,43148,1,8,0:0:0:0:
160,128,43440,1,0,0:0:0:0:
352,128,43732,1,8,0:0:0:0:
160,128,44024,1,0,0:0:0:0:
352,128,44317,1,8,0:0:0:0:
160,128,44609,1,0,0:0:0:0:
160,128,45194,1,0,0:0:0:0:
352,128,45486,1,8,0:0:0:0:
160,128,45778,1,0,0:0:0:0:
352,128,46070,1,8,0:0:0:0:
160,128,46362,1,0,0:0:0:0:
352,128,46655,1,8,0:0:0:0:
352,128,46849,1,8,0:0:0:0:
352,128,47044,1,8,0:0:0:0:
352,256,47921,1,12,0:0:0:0:
352,128,48213,1,8,0:0:0:0:
160,128,48408,1,0,0:0:0:0:
352,128,48700,1,8,0:0:0:0:
352,128,49089,1,8,0:0:0:0:
160,128,49382,1,0,0:0:0:0:
160,128,49674,1,0,0:0:0:0:
352,128,49869,1,8,0:0:0:0:
160,256,50259,1,4,0:0:0:0:
352,128,50551,1,8,0:0:0:0:
160,128,50746,1,0,0:0:0:0:
352,128,51038,1,8,0:0:0:0:
352,128,51427,1,8,0:0:0:0:
160,128,51720,1,0,0:0:0:0:
352,128,52012,1,8,0:0:0:0:
352,128,52207,1,8,0:0:0:0:
160,256,52791,1,4,0:0:0:0:
352,128,53083,1,8,0:0:0:0:
160,128,53278,1,0,0:0:0:0:
352,128,53570,1,8,0:0:0:0:
352,128,53959,1,8,0:0:0:0:
160,128,54252,1,0,0:0:0:0:
160,128,54544,1,0,0:0:0:0:
352,128,54739,1,8,0:0:0:0:
160,256,55128,1,4,0:0:0:0:
352,128,55421,1,8,0:0:0:0:
160,128,55713,1,0,0:0:0:0:
352,128,56005,1,8,0:0:0:0:
160,128,56297,1,0,0:0:0:0:
160,128,56590,1,0,0:0:0:0:
352,128,56979,1,8,0:0:0:0:
352,128,57563,1,8,0:0:0:0:
160,128,57758,1,0,0:0:0:0:
352,128,57953,1,8,0:0:0:0:
352,128,58147,1,8,0:0:0:0:
352,128,58538,1,8,0:0:0:0:
160,128,59317,1,0,0:0:0:0:
352,128,59706,1,8,0:0:0:0:
352,128,59901,1,8,0:0:0:0:
352,128,60096,1,8,0:0:0:0:
352,128,60486,1,8,0:0:0:0:
352,128,60680,1,8,0:0:0:0:
160,128,60875,1,0,0:0:0:0:
160,128,61265,1,0,0:0:0:0:
352,128,61460,1,8,0:0:0:0:
352,128,61654,1,8,0:0:0:0:
160,128,62044,1,0,0:0:0:0:
160,128,62434,1,0,0:0:0:0:
352,128,62823,1,8,0:0:0:0:
352,128,63018,1,8,0:0:0:0:
160,128,63213,1,0,0:0:0:0:
352,128,64187,1,8,0:0:0:0:
352,128,64382,1,8,0:0:0:0:
352,256,64771,1,12,0:0:0:0:
352,128,65161,1,8,0:0:0:0:
160,128,65453,1,0,0:0:0:0:
160,128,65745,1,0,0:0:0:0:
352,128,65940,1,8,0:0:0:0:
160,128,66330,1,0,0:0:0:0:
352,128,66719,1,8,0:0:0:0:
160,128,66914,1,0,0:0:0:0:
160,128,67304,1,0,0:0:0:0:
352,128,67499,1,8,0:0:0:0:
352,128,67693,1,8,0:0:0:0:
160,128,67888,1,0,0:0:0:0:
352,128,68278,1,8,0:0:0:0:
160,128,68667,1,0,0:0:0:0:
160,128,68862,1,0,0:0:0:0:
352,128,69057,1,8,0:0:0:0:
160,128,69252,1,0,0:0:0:0:
352,128,69641,1,8,0:0:0:0:
352,128,69836,1,8,0:0:0:0:
160,128,70226,1,0,0:0:0:0:
352,256,71005,1,12,0:0:0:0:
352,128,71395,1,8,0:0:0:0:
160,128,71687,1,0,0:0:0:0:
160,128,71979,1,0,0:0:0:0:
352,128,72174,1,8,0:0:0:0:
160,128,72563,1,0,0:0:0:0:
352,128,72953,1,8,0:0:0:0:
352,128,73148,1,8,0:0:0:0:
160,128,73538,1,0,0:0:0:0:
352,128,73732,1,8,0:0:0:0:
160,128,74122,1,0,0:0:0:0:
352,128,74317,1,8,0:0:0:0:
160,128,74512,1,0,0:0:0:0:
352,128,74901,1,8,0:0:0:0:
160,128,75291,1,0,0:0:0:0:
352,128,75486,1,8,0:0:0:0:
160,128,75875,1,0,0:0:0:0:
352,128,76070,1,8,0:0:0:0:
352,128,76265,1,8,0:0:0:0:
160,128,76460,1,0,0:0:0:0:
352,128,76849,1,8,0:0:0:0:
160,128,77239,1,0,0:0:0:0:
352,128,78018,1,8,0:0:0:0:
352,128,78408,1,8,0:0:0:0:
160,256,78797,1,4,0:0:0:0:
352,128,79089,1,8,0:0:0:0:
160,128,79381,1,0,0:0:0:0:
352,128,79576,1,8,0:0:0:0:
352,128,79965,1,8,0:0:0:0:
160,256,80355,1,4,0:0:0:0:
352,128,80647,1,8,0:0:0:0:
352,128,80939,1,8,0:0:0:0:
160,128,81134,1,0,0:0:0:0:
352,128,81524,1,8,0:0:0:0:
160,256,81913,1,4,0:0:0:0:
352,128,82206,1,8,0:0:0:0:
160,128,82498,1,0,0:0:0:0:
160,128,82693,1,0,0:0:0:0:
352,128,83082,1,8,0:0:0:0:
160,128,83472,1,0,0:0:0:0:
352,128,83764,1,8,0:0:0:0:
352,128,84056,1,8,0:0:0:0:
160,128,84251,1,0,0:0:0:0:
160,256,85031,1,4,0:0:0:0:
352,128,85323,1,8,0:0:0:0:
160,128,85615,1,0,0:0:0:0:
352,128,85810,1,8,0:0:0:0:
352,128,86199,1,8,0:0:0:0:
160,256,86589,1,4,0:0:0:0:
352,128,86881,1,8,0:0:0:0:
352,128,87173,1,8,0:0:0:0:
160,128,87368,1,0,0:0:0:0:
352,128,87758,1,8,0:0:0:0:
160,256,88147,1,4,0:0:0:0:
352,128,88440,1,8,0:0:0:0:
160,128,88732,1,0,0:0:0:0:
160,128,88927,1,0,0:0:0:0:
352,128,89316,1,8,0:0:0:0:
160,128,89706,1,0,0:0:0:0:
352,128,89998,1,8,0:0:0:0:
352,128,90290,1,8,0:0:0:0:
160,128,90485,1,0,0:0:0:0:
160,256,91265,1,4,0:0:0:0:
160,256,91557,1,4,0:0:0:0:
160,256,91849,1,4,0:0:0:0:
160,128,92434,1,0,0:0:0:0:
352,256,92823,1,12,0:0:0:0:
352,256,93115,1,12,0:0:0:0:
352,256,93408,1,12,0:0:0:0:
352,128,93992,1,8,0:0:0:0:
160,256,94382,1,4,0:0:0:0:
352,256,94674,1,12,0:0:0:0:
160,256,94966,1,4,0:0:0:0:
352,128,95356,1,8,0:0:0:0:
160,128,95550,1,0,0:0:0:0:
160,256,95940,1,4,0:0:0:0:
160,256,96232,1,4,0:0:0:0:
352,256,96525,1,12,0:0:0:0:
352,128,96914,1,8,0:0:0:0:
352,128,97109,1,8,0:0:0:0:
160,128,97499,1,4,0:0:0:0:
160,128,98278,1,0,0:0:0:0:
352,128,98667,1,8,0:0:0:0:
352,128,98862,1,8,0:0:0:0:
160,128,99252,1,0,0:0:0:0:
352,128,99836,1,8,0:0:0:0:
352,128,100128,1,8,0:0:0:0:
352,128,100421,1,8,0:0:0:0:
160,128,100810,1,0,0:0:0:0:
160,128,101395,1,0,0:0:0:0:
352,128,101784,1,8,0:0:0:0:
352,128,101979,1,8,0:0:0:0:
352,128,102369,1,8,0:0:0:0:
160,128,102953,1,0,0:0:0:0:
352,128,103343,1,8,0:0:0:0:
352,128,103538,1,8,0:0:0:0:
160,128,103732,1,0,0:0:0:0:
160,128,104512,1,0,0:0:0:0:
352,128,104901,1,8,0:0:0:0:
352,128,105096,1,8,0:0:0:0:
160,128,105486,1,0,0:0:0:0:
160,128,105680,1,0,0:0:0:0:
352,128,106070,1,8,0:0:0:0:
352,128,106362,1,8,0:0:0:0:
352,128,106654,1,8,0:0:0:0:
160,128,107044,1,0,0:0:0:0:
160,128,107434,1,0,0:0:0:0:
160,128,107628,1,0,0:0:0:0:
352,128,108018,1,8,0:0:0:0:
352,128,108213,1,8,0:0:0:0:
160,128,108602,1,0,0:0:0:0:
160,128,108797,1,0,0:0:0:0:
352,128,109187,1,8,0:0:0:0:
352,128,109479,1,8,0:0:0:0:
352,128,109771,1,8,0:0:0:0:
160,256,109966,1,4,0:0:0:0:
352,128,110550,1,8,0:0:0:0:
352,128,110745,1,8,0:0:0:0:
160,128,111038,1,0,0:0:0:0:
352,128,111525,1,8,0:0:0:0:
352,128,111817,1,8,0:0:0:0:
352,128,112109,1,8,0:0:0:0:
352,128,112401,1,8,0:0:0:0:
352,128,112693,1,8,0:0:0:0:
160,256,113083,1,4,0:0:0:0:
352,128,115225,1,8,0:0:0:0:
352,128,115420,1,8,0:0:0:0:
352,128,117173,1,8,0:0:0:0:
352,128,117368,1,8,0:0:0:0:
160,128,117758,1,0,0:0:0:0:
352,128,118537,1,8,0:0:0:0:
352,128,118927,1,8,0:0:0:0:
352,128,119121,1,8,0:0:0:0:
352,128,119511,1,8,0:0:0:0:
352,128,120095,1,8,0:0:0:0:
352,128,120290,1,8,0:0:0:0:
352,128,120485,1,8,0:0:0:0:
352,128,120875,1,8,0:0:0:0:
352,128,121070,1,8,0:0:0:0:
352,128,121459,1,8,0:0:0:0:
352,128,121654,1,8,0:0:0:0:
352,128,122044,1,8,0:0:0:0:
160,256,122433,1,4,0:0:0:0:
160,128,123212,1,0,0:0:0:0:
160,128,123602,1,0,0:0:0:0:
352,128,123797,1,8,0:0:0:0:
160,128,123992,1,0,0:0:0:0:
160,128,124381,1,0,0:0:0:0:
160,128,124771,1,0,0:0:0:0:
352,128,124966,1,8,0:0:0:0:
160,128,125160,1,0,0:0:0:0:
160,128,125550,1,0,0:0:0:0:
160,128,125940,1,0,0:0:0:0:
352,128,126134,1,8,0:0:0:0:
160,128,126329,1,0,0:0:0:0:
352,128,126719,1,8,0:0:0:0:
160,256,127108,1,4,0:0:0:0:
160,128,127888,1,0,0:0:0:0:
160,128,128277,1,0,0:0:0:0:
352,128,128472,1,8,0:0:0:0:
160,128,128667,1,0,0:0:0:0:
352,128,129057,1,8,0:0:0:0:
160,128,129446,1,0,0:0:0:0:
352,128,129641,1,8,0:0:0:0:
160,128,129836,1,0,0:0:0:0:
160,128,130225,1,0,0:0:0:0:
160,128,130615,1,0,0:0:0:0:
352,128,130810,1,8,0:0:0:0:
160,128,131005,1,0,0:0:0:0:
352,128,131394,1,8,0:0:0:0:
352,256,131785,1,12,0:0:0:0:
352,256,132077,1,12,0:0:0:0:
352,256,132369,1,12,0:0:0:0:
352,256,132661,1,12,0:0:0:0:
160,128,132953,1,0,0:0:0:0:
160,128,133343,1,0,0:0:0:0:
352,128,133733,1,8,0:0:0:0:
160,256,134122,1,4,0:0:0:0:
160,256,134316,1,4,0:0:0:0:
160,128,135096,1,0,0:0:0:0:
352,128,135290,1,8,0:0:0:0:
160,256,135680,1,4,0:0:0:0:
160,256,135875,1,4,0:0:0:0:
160,128,136654,1,0,0:0:0:0:
352,128,136849,1,8,0:0:0:0:
160,256,137238,1,4,0:0:0:0:
160,256,137433,1,4,0:0:0:0:
160,128,138212,1,0,0:0:0:0:
352,128,138407,1,8,0:0:0:0:
160,256,138797,1,4,0:0:0:0:
160,256,138992,1,4,0:0:0:0:
352,128,139576,1,8,0:0:0:0:
352,128,139868,1,8,0:0:0:0:
352,128,140160,1,8,0:0:0:0:
160,256,140355,1,4,0:0:0:0:
352,128,140745,1,8,0:0:0:0:
352,128,141037,1,8,0:0:0:0:
160,128,141329,1,0,0:0:0:0:
160,128,141524,1,0,0:0:0:0:
160,256,141914,1,4,0:0:0:0:
352,128,142303,1,8,0:0:0:0:
352,128,142596,1,8,0:0:0:0:
160,128,142888,1,0,0:0:0:0:
352,128,143083,1,8,0:0:0:0:
160,256,143472,1,4,0:0:0:0:
352,128,143862,1,8,0:0:0:0:
352,128,144154,1,8,0:0:0:0:
160,128,144446,1,0,0:0:0:0:
160,128,144641,1,0,0:0:0:0:
160,256,145031,1,4,0:0:0:0:
352,128,145420,1,8,0:0:0:0:
160,128,145712,1,0,0:0:0:0:
160,256,146589,1,4,0:0:0:0:
352,128,146979,1,8,0:0:0:0:
352,128,147271,1,8,0:0:0:0:
160,128,147563,1,0,0:0:0:0:
160,128,147758,1,0,0:0:0:0:
160,256,148147,1,4,0:0:0:0:
352,128,148537,1,8,0:0:0:0:
352,128,148829,1,8,0:0:0:0:
160,128,149122,1,0,0:0:0:0:
352,128,149316,1,8,0:0:0:0:
160,256,149706,1,4,0:0:0:0:
352,128,150095,1,8,0:0:0:0:
352,128,150387,1,8,0:0:0:0:
160,128,150680,1,0,0:0:0:0:
160,128,150875,1,0,0:0:0:0:
352,256,151264,1,12,0:0:0:0:
352,128,152044,1,8,0:0:0:0:
160,128,152238,1,0,0:0:0:0:
352,128,152433,1,8,0:0:0:0:
352,256,152823,1,12,0:0:0:0:
352,128,153212,1,8,0:0:0:0:
160,128,153504,1,0,0:0:0:0:
160,128,153796,1,0,0:0:0:0:
352,128,153991,1,8,0:0:0:0:
160,128,154381,1,0,0:0:0:0:
352,128,154770,1,8,0:0:0:0:
160,128,154965,1,0,0:0:0:0:
160,128,155355,1,0,0:0:0:0:
352,128,155550,1,8,0:0:0:0:
352,128,155744,1,8,0:0:0:0:
160,128,155939,1,0,0:0:0:0:
352,128,156329,1,8,0:0:0:0:
160,128,156718,1,0,0:0:0:0:
160,128,156913,1,0,0:0:0:0:
352,128,157108,1,8,0:0:0:0:
160,128,157303,1,0,0:0:0:0:
352,128,157692,1,8,0:0:0:0:
352,128,157887,1,8,0:0:0:0:
160,128,158277,1,0,0:0:0:0:
352,256,159056,1,12,0:0:0:0:
352,128,159446,1,8,0:0:0:0:
160,128,159738,1,0,0:0:0:0:
160,128,160030,1,0,0:0:0:0:
352,128,160225,1,8,0:0:0:0:
160,128,160614,1,0,0:0:0:0:
352,128,161004,1,8,0:0:0:0:
352,128,161199,1,8,0:0:0:0:
160,128,161589,1,0,0:0:0:0:
352,128,161783,1,8,0:0:0:0:
160,128,162173,1,0,0:0:0:0:
352,128,162368,1,8,0:0:0:0:
160,128,162563,1,0,0:0:0:0:
352,128,162952,1,8,0:0:0:0:
160,128,163342,1,0,0:0:0:0:
352,128,163537,1,8,0:0:0:0:
160,128,163926,1,0,0:0:0:0:
352,128,164121,1,8,0:0:0:0:
352,128,164316,1,8,0:0:0:0:
160,128,164511,1,0,0:0:0:0:
352,128,165290,1,8,0:0:0:0:
160,128,165680,1,0,0:0:0:0:
160,128,165875,1,0,0:0:0:0:
352,128,166070,1,8,0:0:0:0:
160,128,166264,1,0,0:0:0:0:
352,128,166459,1,8,0:0:0:0:
352,128,166849,1,8,0:0:0:0:
160,128,167238,1,0,0:0:0:0:
160,128,167433,1,0,0:0:0:0:
352,128,167628,1,8,0:0:0:0:
160,128,167823,1,0,0:0:0:0:
352,128,168018,1,8,0:0:0:0:
352,128,168407,1,8,0:0:0:0:
352,128,168992,1,8,0:0:0:0:
160,128,169186,1,0,0:0:0:0:
160,128,169576,1,0,0:0:0:0:
352,128,169771,1,8,0:0:0:0:
160,128,169966,1,0,0:0:0:0:
352,128,170355,1,8,0:0:0:0:
352,128,170550,1,8,0:0:0:0:
160,128,170745,1,0,0:0:0:0:
352,128,171134,1,8,0:0:0:0:
160,128,171524,1,0,0:0:0:0:
352,128,172109,1,8,0:0:0:0:
352,128,172401,1,8,0:0:0:0:
352,128,172693,1,8,0:0:0:0:
160,128,173083,1,0,0:0:0:0:
352,128,173472,1,8,0:0:0:0:
160,128,173862,1,0,0:0:0:0:
160,128,174057,1,0,0:0:0:0:
352,128,174251,1,8,0:0:0:0:
352,128,174446,1,8,0:0:0:0:
160,128,174641,1,0,0:0:0:0:
160,128,175225,1,0,0:0:0:0:
160,128,175518,1,0,0:0:0:0:
160,128,175810,1,0,0:0:0:0:
352,128,176199,1,8,0:0:0:0:
160,128,176394,1,0,0:0:0:0:
352,128,176589,1,8,0:0:0:0:
160,128,176784,1,0,0:0:0:0:
352,128,176979,1,8,0:0:0:0:
352,256,177855,1,12,0:0:0:0:
352,256,178147,1,12,0:0:0:0:
352,256,178440,1,12,0:0:0:0:
352,256,178732,1,12,0:0:0:0:
160,256,179317,1,4,0:0:0:0:
352,128,180096,1,8,0:0:0:0:
352,128,180485,1,8,0:0:0:0:
160,256,180778,1,4,0:0:0:0:
160,128,181070,1,8,0:0:0:0:
160,128,181362,1,0,0:0:0:0:
352,128,181557,1,8,0:0:0:0:
352,128,181946,1,8,0:0:0:0:
160,256,182239,1,4,0:0:0:0:
352,128,183018,1,8,0:0:0:0:
352,128,183407,1,8,0:0:0:0:
160,256,183700,1,4,0:0:0:0:
352,128,183992,1,8,0:0:0:0:
160,128,184284,1,0,0:0:0:0:
352,128,184479,1,8,0:0:0:0:
352,128,184868,1,8,0:0:0:0:
160,256,185161,1,4,0:0:0:0:
160,128,185940,1,0,0:0:0:0:
160,128,186135,1,0,0:0:0:0:
352,128,186329,1,8,0:0:0:0:
352,128,186622,1,8,0:0:0:0:
352,128,186914,1,8,0:0:0:0:
160,256,187109,1,4,0:0:0:0:
352,128,187888,1,8,0:0:0:0:
352,128,188277,1,8,0:0:0:0:
160,256,188570,1,4,0:0:0:0:
352,128,188862,1,8,0:0:0:0:
160,128,189154,1,0,0:0:0:0:
160,128,189349,1,0,0:0:0:0:
352,128,189738,1,8,0:0:0:0:
352,128,190031,1,8,0:0:0:0:
352,128,190323,1,8,0:0:0:0:
160,256,190518,1,4,0:0:0:0:
352,128,191102,1,8,0:0:0:0:
352,128,191297,1,8,0:0:0:0:
160,128,191686,1,0,0:0:0:0:
352,256,192077,1,12,0:0:0:0:
352,256,192661,1,12,0:0:0:0:
352,256,193245,1,12,0:0:0:0:
352,256,193538,1,12,0:0:0:0:
352,256,193830,1,12,0:0:0:0:
352,256,194122,1,12,0:0:0:0:
160,128,194414,1,0,0:0:0:0:
160,128,194998,1,0,0:0:0:0:
160,128,195193,1,0,0:0:0:0:
352,128,195582,1,8,0:0:0:0:
160,128,195972,1,0,0:0:0:0:
