osu file format v14

[General]
AudioFilename: audio.mp3
AudioLeadIn: 0
PreviewTime: 11693
Countdown: 0
SampleSet: Normal
StackLeniency: 0.7
Mode: 1
LetterboxInBreaks: 0
WidescreenStoryboard: 0

[Editor]
DistanceSpacing: 0.75
BeatDivisor: 4
GridSize: 32
TimelineZoom: 2.799999

[Metadata]
Title:Immortality Math Club
TitleUnicode:Immortality Math Club
Artist:Marmalade butcher
ArtistUnicode:Marmalade butcher
Creator:Eyenine
Version:Many Worlds
Source:
Tags:featured artist fa math rock instrumental uteruchesis 不可説records fukasetsu records maniku マ肉
BeatmapID:3606863
BeatmapSetID:1762209

[Difficulty]
HPDrainRate:6
CircleSize:5
OverallDifficulty:7
ApproachRate:8
SliderMultiplier:1.4
SliderTickRate:1

[Events]
//Background and Video events
0,0,"9710002_10.jpeg",0,-10
//Break Periods
2,36797,44736
2,103236,110005
//Storyboard Layer 0 (Background)
//Storyboard Layer 1 (Fail)
//Storyboard Layer 2 (Pass)
//Storyboard Layer 3 (Foreground)
//Storyboard Layer 4 (Overlay)
//Storyboard Sound Samples

[TimingPoints]
-3499,292.682926829268,4,1,0,80,1,0
-3499,-133.333333333333,4,1,0,80,0,0
891,-133.333333333333,4,1,0,80,0,0
1183,-86.95652,4,1,0,90,0,0
1253,-87.50507,4,1,0,90,0,0
1326,-88.05709,4,1,0,90,0,0
1399,-88.61259,4,1,0,90,0,0
1472,-89.171585,4,1,0,90,0,0
1545,-89.73411,4,1,0,90,0,0
1619,-90.30796,4,1,0,90,0,0
1692,-90.87766,4,1,0,90,0,0
1765,-91.45095,4,1,0,90,0,0
1838,-92.027855,4,1,0,90,0,0
1911,-92.608406,4,1,0,90,0,0
1984,-93.19261,4,1,0,90,0,0
2058,-93.78858,4,1,0,90,0,0
2131,-94.380226,4,1,0,90,0,0
2204,-94.9756,4,1,0,90,0,0
2277,-95.57476,4,1,0,90,0,0
2350,-96.17767,4,1,0,90,0,0
2423,-96.7844,4,1,0,90,0,0
2497,-97.40334,4,1,0,90,0,0
2570,-98.0178,4,1,0,90,0,0
2643,-98.63612,4,1,0,90,0,0
2716,-99.25836,4,1,0,90,0,0
2789,-99.884514,4,1,0,90,0,0
2862,-100.51462,4,1,0,90,0,0
2936,-101.15742,4,1,0,90,0,0
3009,-101.795555,4,1,0,90,0,0
3082,-102.43772,4,1,0,90,0,0
3155,-103.08393,4,1,0,90,0,0
3228,-103.73422,4,1,0,90,0,0
3301,-104.38862,4,1,0,90,0,0
3375,-105.05618,4,1,0,90,0,0
3448,-105.71891,4,1,0,90,0,0
3521,-106.385826,4,1,0,90,0,0
3594,-107.05695,4,1,0,90,0,0
3667,-107.73231,4,1,0,90,0,0
3740,-108.41192,4,1,0,90,0,0
3814,-109.105225,4,1,0,90,0,0
3887,-109.793495,4,1,0,90,0,0
3960,-110.48611,4,1,0,90,0,0
4033,-111.1831,4,1,0,90,0,0
4106,-111.884476,4,1,0,90,0,0
4179,-112.59029,4,1,0,90,0,0
4253,-113.31031,4,1,0,90,0,0
4326,-114.02511,4,1,0,90,0,0
4399,-114.744415,4,1,0,90,0,0
4472,-115.46827,4,1,0,90,0,0
4545,-116.19669,4,1,0,90,0,0
4619,-116.939766,4,1,0,90,0,0
4692,-117.677475,4,1,0,90,0,0
5061,-133.333333333333,4,1,0,90,0,0
5847,-86.95652,4,1,0,90,0,0
5917,-87.50507,4,1,0,90,0,0
5990,-88.05709,4,1,0,90,0,0
6063,-88.61259,4,1,0,90,0,0
6136,-89.171585,4,1,0,90,0,0
6209,-89.73411,4,1,0,90,0,0
6283,-90.30796,4,1,0,90,0,0
6356,-90.87766,4,1,0,90,0,0
6429,-91.45095,4,1,0,90,0,0
6502,-92.027855,4,1,0,90,0,0
6575,-92.608406,4,1,0,90,0,0
6648,-93.19261,4,1,0,90,0,0
6722,-93.78858,4,1,0,90,0,0
6795,-94.380226,4,1,0,90,0,0
6868,-94.9756,4,1,0,90,0,0
6941,-95.57476,4,1,0,90,0,0
7014,-96.17767,4,1,0,90,0,0
7087,-96.7844,4,1,0,90,0,0
7161,-97.40334,4,1,0,90,0,0
7234,-98.0178,4,1,0,90,0,0
7307,-98.63612,4,1,0,90,0,0
7380,-99.25836,4,1,0,90,0,0
7453,-99.884514,4,1,0,90,0,0
7526,-100.51462,4,1,0,90,0,0
7600,-101.15742,4,1,0,90,0,0
7673,-101.795555,4,1,0,90,0,0
7746,-102.43772,4,1,0,90,0,0
7819,-103.08393,4,1,0,90,0,0
7892,-103.73422,4,1,0,90,0,0
7965,-104.38862,4,1,0,90,0,0
8039,-105.05618,4,1,0,90,0,0
8112,-105.71891,4,1,0,90,0,0
8185,-106.385826,4,1,0,90,0,0
8258,-107.05695,4,1,0,90,0,0
8331,-107.73231,4,1,0,90,0,0
8404,-108.41192,4,1,0,90,0,0
8478,-109.105225,4,1,0,90,0,0
8551,-109.793495,4,1,0,90,0,0
8624,-110.48611,4,1,0,90,0,0
8697,-111.1831,4,1,0,90,0,0
8770,-111.884476,4,1,0,90,0,0
8843,-112.59029,4,1,0,90,0,0
8917,-113.31031,4,1,0,90,0,0
8990,-114.02511,4,1,0,90,0,0
9063,-114.744415,4,1,0,90,0,0
9136,-115.46827,4,1,0,90,0,0
9209,-116.19669,4,1,0,90,0,0
9283,-116.939766,4,1,0,90,0,0
9375,-83.33333,4,1,0,90,0,0
9521,-82.50513,4,1,0,90,0,0
9814,-80.86778,4,1,0,90,0,0
10106,-79.26836,4,1,0,90,0,0
10399,-77.69525,4,1,0,90,0,0
10545,-76.92308,4,1,0,90,0,0
11061,-133.333333333333,4,1,0,75,0,0
11719,292.682926829268,7,1,0,90,1,1
11719,-83.33333,7,1,0,90,0,1
11828,-95.2380952380952,7,1,0,90,0,1
11862,-85.361786,7,1,0,90,0,1
11935,-86.413506,7,1,0,90,0,1
12008,-87.491455,7,1,0,90,0,1
12121,-83.3333333333333,7,1,0,90,0,1
12267,-95.2380952380952,7,1,0,90,0,1
12301,-92.10289,7,1,0,90,0,1
12374,-93.328476,7,1,0,90,0,1
12447,-94.587105,7,1,0,90,0,1
12594,-97.2275,7,1,0,90,0,1
12740,-100,7,1,0,90,0,1
12886,-86.95652,7,1,0,90,0,1
12959,-88.392784,7,1,0,90,0,1
13033,-89.89798,7,1,0,90,0,1
13106,-91.43392,7,1,0,90,0,1
13179,-93.023254,7,1,0,90,0,1
13252,-94.66882,7,1,0,90,0,1
13325,-96.37365,7,1,0,90,0,1
13398,-98.141014,7,1,0,90,0,1
13472,-100,7,1,0,90,0,1
13767,292.682926829268,7,1,0,90,1,9
13768,292.682926829268,8,1,0,90,1,1
13768,-83.33333,8,1,0,90,0,1
13877,-95.2380952380952,7,1,0,90,0,1
13911,-85.10329,8,1,0,90,0,1
13984,-86.01677,8,1,0,90,0,1
14057,-86.95006,8,1,0,90,0,1
14170,-83.3333333333333,7,1,0,90,0,1
14316,-95.2380952380952,7,1,0,90,0,1
14350,-90.90909,8,1,0,90,0,1
14423,-91.95222,8,1,0,90,0,1
14496,-93.01956,8,1,0,90,0,1
14643,-95.24584,8,1,0,90,0,1
14789,-97.56504,8,1,0,90,0,1
14935,-99.96499,8,1,0,90,0,1
14984,-99.39666,8,1,0,90,0,1
15033,-98.83475,8,1,0,90,0,1
15082,-98.27916,8,1,0,90,0,1
15155,-97.46293,8,1,0,90,0,1
15228,-96.66014,8,1,0,90,0,1
15374,-95.09361,8,1,0,90,0,1
15521,-93.56682,8,1,0,90,0,1
15569,-93.07884,8,1,0,90,0,1
15618,-92.585915,8,1,0,90,0,1
15667,-92.09819,8,1,0,90,0,1
15740,-91.38103,8,1,0,90,0,1
15813,-90.67494,8,1,0,90,0,1
15960,-89.28571,8,1,0,90,0,1
16109,292.682926829268,7,1,0,90,1,1
16109,-83.33333,7,1,0,90,0,1
16218,-95.2380952380952,7,1,0,90,0,1
16252,-85.361786,7,1,0,90,0,1
16325,-86.413506,7,1,0,90,0,1
16398,-87.491455,7,1,0,90,0,1
16511,-83.3333333333333,7,1,0,90,0,1
16657,-95.2380952380952,7,1,0,90,0,1
16691,-92.10289,7,1,0,90,0,1
16764,-93.328476,7,1,0,90,0,1
16837,-94.587105,7,1,0,90,0,1
16984,-97.2275,7,1,0,90,0,1
17130,-100,7,1,0,90,0,1
17276,-86.95652,7,1,0,90,0,1
17349,-88.392784,7,1,0,90,0,1
17423,-89.89798,7,1,0,90,0,1
17496,-91.43392,7,1,0,90,0,1
17569,-93.023254,7,1,0,90,0,1
17642,-94.66882,7,1,0,90,0,1
17715,-96.37365,7,1,0,90,0,1
17788,-98.141014,7,1,0,90,0,1
17862,-100,7,1,0,90,0,1
18157,292.682926829268,7,1,0,90,1,9
18158,292.682926829268,4,1,0,90,1,1
18158,-83.33333,8,1,0,90,0,1
18267,-95.2380952380952,7,1,0,90,0,1
18301,-85.10329,8,1,0,90,0,1
18374,-86.01677,8,1,0,90,0,1
18447,-86.95006,8,1,0,90,0,1
18560,-83.3333333333333,7,1,0,90,0,1
18706,-95.2380952380952,7,1,0,90,0,1
18740,-90.90909,8,1,0,90,0,1
18813,-91.95222,8,1,0,90,0,1
18886,-93.01956,8,1,0,90,0,1
19033,-95.24584,8,1,0,90,0,1
19179,-97.56504,8,1,0,90,0,1
19328,-99.96499,8,1,0,90,0,0
19911,-100,4,1,0,90,0,0
19984,-98.16568,4,1,0,90,0,0
20057,-96.39744,4,1,0,90,0,0
20130,-94.691765,4,1,0,90,0,0
20203,-93.04542,4,1,0,90,0,0
20276,-91.45532,4,1,0,90,0,0
20350,-89.89799,4,1,0,90,0,0
20423,-88.412796,4,1,0,90,0,0
20499,292.682926829268,4,1,0,90,1,8
20500,292.682926829268,4,1,0,90,1,0
20500,-86.95652,4,1,0,90,0,0
20573,-105.263157894737,4,1,0,80,0,0
24890,292.682926829268,4,1,0,80,1,0
24890,-86.9565217391306,4,1,0,80,0,0
24963,-105.263157894737,4,1,0,80,0,0
29572,292.682926829268,4,1,0,80,1,8
29573,292.682926829268,6,1,0,90,1,1
29573,-86.94618,4,1,0,90,0,1
29716,-88.49236,6,1,0,90,0,1
29789,-89.28081,6,1,0,90,0,1
29862,-90.083435,6,1,0,90,0,1
30009,-91.74427,6,1,0,90,0,1
30301,-95.231895,6,1,0,90,0,1
30448,-97.08996,6,1,0,90,0,1
30594,-99.00857,6,1,0,90,0,1
30740,-101.004524,6,1,0,90,0,1
30813,-102.033,6,1,0,90,0,1
30887,-103.09714,6,1,0,90,0,1
30960,-104.16889,6,1,0,90,0,1
31033,-105.26316,6,1,0,90,0,1
31310,-86.94618,4,1,0,90,0,1
31453,-88.49236,6,1,0,90,0,1
31526,-89.28081,6,1,0,90,0,1
31599,-90.083435,6,1,0,90,0,1
31746,-91.74427,6,1,0,90,0,1
32038,-95.231895,6,1,0,90,0,1
32185,-97.08996,6,1,0,90,0,1
32331,-99.00857,6,1,0,90,0,1
32477,-101.004524,6,1,0,90,0,1
32550,-102.033,6,1,0,90,0,1
32624,-103.09714,6,1,0,90,0,1
32697,-104.16889,6,1,0,90,0,1
32770,-105.26316,6,1,0,90,0,1
33066,-86.94618,4,1,0,90,0,1
33209,-88.49236,6,1,0,90,0,1
33282,-89.28081,6,1,0,90,0,1
33355,-90.083435,6,1,0,90,0,1
33502,-91.74427,6,1,0,90,0,1
33794,-95.231895,6,1,0,90,0,1
33941,-97.08996,6,1,0,90,0,1
34087,-99.00857,6,1,0,90,0,1
34233,-101.004524,6,1,0,90,0,1
34306,-102.033,6,1,0,90,0,1
34380,-103.09714,6,1,0,90,0,1
34453,-104.16889,6,1,0,90,0,1
34526,-105.26316,6,1,0,90,0,1
34822,-86.94618,4,1,0,90,0,1
34965,-88.49236,6,1,0,90,0,1
35038,-89.28081,6,1,0,90,0,1
35111,-90.083435,6,1,0,90,0,1
35258,-91.74427,6,1,0,90,0,1
35550,-95.231895,6,1,0,90,0,1
35697,-97.08996,6,1,0,90,0,1
35843,-99.00857,6,1,0,90,0,1
36012,-90.9090909090909,6,1,0,70,0,0
36062,-91.743119266055,6,1,0,70,0,0
36136,-92.5925925925926,6,1,0,70,0,0
36209,-93.4579439252336,6,1,0,70,0,0
36282,-94.3396226415094,6,1,0,70,0,0
36597,292.682926829268,4,1,0,50,1,0
36597,-86.9565217391304,4,1,0,50,0,0
36743,-133.333333333333,4,1,0,50,0,0
45889,-133.333333333333,4,1,0,60,0,0
55310,-117.647058823529,4,1,0,65,0,0
63520,-117.64706,4,1,0,65,0,0
63667,-115.097305,4,1,0,65,0,0
63813,-112.672,4,1,0,65,0,0
63886,-111.49726,4,1,0,65,0,0
63959,-110.34677,4,1,0,65,0,0
64033,-109.20451,4,1,0,65,0,0
64106,-108.100624,4,1,0,65,0,0
64252,-105.958466,4,1,0,65,0,0
64398,-103.89956,4,1,0,65,0,0
64472,-102.88626,4,1,0,65,0,0
64545,-101.90584,4,1,0,65,0,0
64618,-100.943924,4,1,0,65,0,0
64691,-100,4,1,0,65,0,0
64694,292.682926829268,4,1,0,65,1,8
64694,-100,4,1,0,65,0,0
65279,292.682926829268,4,1,0,70,1,8
65280,292.682926829268,4,1,0,70,1,0
65280,-86.95652,4,1,0,70,0,0
65423,-88.08838,4,1,0,70,0,0
65569,-89.234985,4,1,0,70,0,0
65716,-90.40451,4,1,0,70,0,0
65862,-91.58125,4,1,0,70,0,0
66008,-92.77331,4,1,0,70,0,0
66155,-93.98921,4,1,0,70,0,0
66301,-95.21262,4,1,0,70,0,0
66447,-96.45194,4,1,0,70,0,0
66520,-97.07764,4,1,0,70,0,0
66594,-97.71606,4,1,0,70,0,0
66740,-98.98798,4,1,0,70,0,0
66886,-100.276436,4,1,0,70,0,0
66959,-100.92696,4,1,0,70,0,0
67033,-101.590675,4,1,0,70,0,0
67179,-102.91303,4,1,0,70,0,0
67325,-104.25259,4,1,0,70,0,0
67398,-104.9289,4,1,0,70,0,0
67472,-105.61894,4,1,0,70,0,0
67545,-106.30411,4,1,0,70,0,0
67618,-106.99371,4,1,0,70,0,0
67764,-108.38639,4,1,0,70,0,0
67911,-109.80693,4,1,0,70,0,0
68057,-111.23622,4,1,0,70,0,0
68203,-112.68412,4,1,0,70,0,0
68350,-114.160965,4,1,0,70,0,0
68496,-115.64695,4,1,0,70,0,0
68642,-117.152245,4,1,0,70,0,0
68789,-118.68767,4,1,0,70,0,0
68862,-119.45762,4,1,0,70,0,0
68935,-120.23256,4,1,0,70,0,0
69081,-121.79756,4,1,0,70,0,0
69228,-123.39385,4,1,0,70,0,0
69301,-124.19433,4,1,0,70,0,0
69374,-125,4,1,0,70,0,0
69962,-86.95652,4,1,0,70,0,0
70105,-88.08838,4,1,0,70,0,0
70251,-89.234985,4,1,0,70,0,0
70398,-90.40451,4,1,0,70,0,0
70544,-91.58125,4,1,0,70,0,0
70690,-92.77331,4,1,0,70,0,0
70837,-93.98921,4,1,0,70,0,0
70983,-95.21262,4,1,0,70,0,0
71129,-96.45194,4,1,0,70,0,0
71202,-97.07764,4,1,0,70,0,0
71276,-97.71606,4,1,0,70,0,0
71422,-98.98798,4,1,0,70,0,0
71568,-100.276436,4,1,0,70,0,0
71641,-100.92696,4,1,0,70,0,0
71715,-101.590675,4,1,0,70,0,0
71861,-102.91303,4,1,0,70,0,0
72007,-104.25259,4,1,0,70,0,0
72080,-104.9289,4,1,0,70,0,0
72154,-105.61894,4,1,0,70,0,0
72227,-106.30411,4,1,0,70,0,0
72301,-106.964005,4,1,0,70,0,0
72447,-105.88542,4,1,0,71,0,0
72594,-104.81044,4,1,0,72,0,0
72740,-103.753555,4,1,0,73,0,0
72813,-103.229126,4,1,0,74,0,0
72886,-102.70734,4,1,0,75,0,0
73033,-101.66461,4,1,0,76,0,0
73106,-101.15074,4,1,0,77,0,0
73179,-100.639465,4,1,0,78,0,0
73252,-100.13077,4,1,0,78,0,0
73325,-99.62466,4,1,0,78,0,0
73472,-98.61323,4,1,0,78,0,0
73545,-98.11476,4,1,0,78,0,0
73618,-97.618835,4,1,0,78,0,0
73764,-96.63449,4,1,0,78,0,0
73837,-96.14603,4,1,0,78,0,0
73911,-95.65341,4,1,0,78,0,0
73984,-95.16992,4,1,0,78,0,0
74057,-94.688866,4,1,0,78,0,0
74130,-94.210266,4,1,0,78,0,0
74203,-93.73406,4,1,0,78,0,0
74276,-93.26027,4,1,0,78,0,0
74350,-92.78243,4,1,0,78,0,0
74423,-92.313446,4,1,0,78,0,0
74496,-91.84685,4,1,0,78,0,0
74569,-91.3826,4,1,0,78,0,0
74645,292.682926829268,6,1,0,78,1,8
74646,292.682926829268,6,1,0,78,1,0
74646,-90.91438,6,1,0,78,0,0
74774,-133.333333333333,4,1,0,70,0,0
81652,-105.263157894737,4,1,0,70,0,0
88658,-83.3333333333333,6,1,0,90,0,0
88731,-95.2380952380952,6,1,0,90,0,0
90414,-83.3333333333333,6,1,0,90,0,0
90487,-95.2380952380952,6,1,0,90,0,0
92170,-83.3333333333333,6,1,0,90,0,0
92206,292.682926829268,5,1,0,90,1,8
92207,292.682926829268,5,1,0,90,1,0
92207,-83.3333333333333,5,1,0,90,0,0
92243,-95.2380952380952,6,1,0,90,0,0
93633,-83.3333333333333,6,1,0,90,0,0
93706,-95.2380952380952,6,1,0,90,0,0
95133,292.682926829268,4,1,0,90,1,8
95134,292.682926829268,4,1,0,90,1,8
95134,-133.333333333333,4,1,0,90,0,8
95682,-83.3333333333333,6,1,0,90,0,0
95719,292.682926829268,6,1,0,90,1,0
95719,-83.3333333333333,6,1,0,90,0,0
95755,-95.2380952380952,6,1,0,90,0,0
97438,-83.3333333333333,6,1,0,90,0,0
97511,-95.2380952380952,6,1,0,90,0,0
99194,-83.3333333333333,6,1,0,90,0,0
99231,292.682926829268,5,1,0,90,1,0
99231,-83.3333333333333,5,1,0,90,0,0
99267,-95.2380952380952,6,1,0,90,0,0
100694,292.682926829268,5,1,0,90,1,8
100695,292.682926829268,4,1,0,90,1,0
100695,-83.3048,5,1,0,90,0,0
100765,-85.47008,4,1,0,90,0,0
100838,-87.7193,4,1,0,90,0,0
100911,-90.09009,4,1,0,90,0,0
100984,-92.5926,4,1,0,90,0,0
101057,-95.2381,4,1,0,90,0,0
101115,-83.3048,5,1,0,90,0,0
101185,-85.47008,4,1,0,90,0,0
101258,-87.7193,4,1,0,90,0,0
101331,-90.09009,4,1,0,90,0,0
101404,-92.5926,4,1,0,90,0,0
101477,-95.2381,4,1,0,90,0,0
101570,-83.3048,5,1,0,90,0,0
101640,-85.47008,4,1,0,90,0,0
101713,-87.7193,4,1,0,90,0,0
101786,-90.09009,4,1,0,90,0,0
101859,-92.5926,4,1,0,90,0,0
102414,-111.111111111111,4,1,0,90,0,0
102448,-95.2381,4,1,0,75,0,0
102521,-97.08782,4,1,0,75,0,0
102594,-98.973465,4,1,0,75,0,0
102667,-100.89574,4,1,0,75,0,0
102740,-102.85535,4,1,0,75,0,0
102813,-104.853004,4,1,0,75,0,0
102887,-106.917656,4,1,0,75,0,0
103036,292.682926829268,4,1,0,75,1,0
103036,-111.111115,4,1,0,75,0,0
103182,-133.333333333333,4,1,0,50,0,0
111743,-133.333333333333,4,1,0,60,0,0
112401,-117.647058823529,4,1,0,70,0,0
121749,-100,4,1,0,70,0,0
131130,-100,4,1,0,60,0,0
131276,-102.55871,4,1,0,60,0,0
131569,-108.11011,4,1,0,60,0,0
131715,-111.10689,4,1,0,60,0,0
132008,-117.651794,4,1,0,60,0,0
132154,-121.20961,4,1,0,60,0,0
132301,-125.01603,4,1,0,60,0,0
132593,-133.33333,4,1,0,60,0,0
132886,-117.64706,4,1,0,80,0,0
132959,-114.75961,4,1,0,80,0,0
133032,-112.0105,4,1,0,80,0,0
133106,-109.35497,4,1,0,80,0,0
133179,-106.85589,4,1,0,80,0,0
133252,-104.468475,4,1,0,80,0,0
133325,-102.18541,4,1,0,80,0,0
133398,-100,4,1,0,80,0,0
133475,292.682926829268,4,1,0,100,1,1
133475,-83.3333333333333,4,1,0,100,0,1
152206,292.682926829268,6,1,0,80,1,8
152207,292.682926829268,6,1,0,80,1,0
152207,-83.3333333333333,6,1,0,80,0,8
152350,-86.9565217391304,6,1,0,80,0,8
152496,-90.9090909090909,6,1,0,80,0,8
152789,-100,6,1,0,80,0,8
153667,-133.33333,6,1,0,80,0,8
153963,292.682926829268,3,1,0,90,1,0
153963,-105.263157894737,3,1,0,90,0,0
168011,-95.2380952380952,3,1,0,90,0,1
173862,-95.2381,3,1,0,90,0,1
173935,-94.39742,3,1,0,90,0,1
174008,-93.57146,3,1,0,90,0,1
174081,-92.75982,3,1,0,90,0,1
174155,-91.95132,3,1,0,90,0,1
174228,-91.16742,3,1,0,90,0,1
174301,-90.39679,3,1,0,90,0,1
174374,-89.63907,3,1,0,90,0,1
174447,-88.89394,3,1,0,90,0,1
174520,-88.16111,3,1,0,90,0,1
174594,-87.430466,3,1,0,90,0,1
174667,-86.72147,3,1,0,90,0,1
174740,-86.02388,3,1,0,90,0,1
174813,-85.33741,3,1,0,90,0,1
174886,-84.66183,3,1,0,90,0,1
174959,-83.99684,3,1,0,90,0,1
175033,-83.33333,3,1,0,90,0,1
178545,-83.33333,3,1,0,90,0,1
178618,-83.18928,3,1,0,90,0,1
178691,-83.04572,3,1,0,90,0,1
178764,-82.90266,3,1,0,90,0,1
178838,-82.75813,3,1,0,90,0,1
178911,-82.61606,3,1,0,90,0,1
178984,-82.47447,3,1,0,90,0,1
179057,-82.33337,3,1,0,90,0,1
179130,-82.19274,3,1,0,90,0,1
179203,-82.0526,3,1,0,90,0,1
179277,-81.911026,3,1,0,90,0,1
179350,-81.771835,3,1,0,90,0,1
179423,-81.633125,3,1,0,90,0,1
179496,-81.49488,3,1,0,90,0,1
179569,-81.35711,3,1,0,90,0,1
179642,-81.2198,3,1,0,90,0,1
179716,-81.08108,3,1,0,90,0,1
179789,-80.9447,3,1,0,90,0,1
179862,-80.80878,3,1,0,90,0,1
179935,-80.67332,3,1,0,90,0,1
180008,-80.5383,3,1,0,90,0,1
180081,-80.40373,3,1,0,90,0,1
180155,-80.267784,3,1,0,90,0,1
180228,-80.134125,3,1,0,90,0,1
180301,-80.000916,3,1,0,90,0,1
180374,-79.86814,3,1,0,90,0,1
180447,-79.7358,3,1,0,90,0,1
180520,-79.603905,3,1,0,90,0,1
180594,-79.47064,3,1,0,90,0,1
180667,-79.33962,3,1,0,90,0,1
180740,-79.20904,3,1,0,90,0,1
180813,-79.07888,3,1,0,90,0,1
180886,-78.94914,3,1,0,90,0,1
180959,-78.81983,3,1,0,90,0,1
181033,-78.689186,3,1,0,90,0,1
181106,-78.56072,3,1,0,90,0,1
181179,-78.43268,3,1,0,90,0,1
181252,-78.30507,3,1,0,90,0,1
181325,-78.17786,3,1,0,90,0,1
181399,-78.049324,3,1,0,90,0,1
181472,-77.92294,3,1,0,90,0,1
181545,-77.79697,3,1,0,90,0,1
181618,-77.6714,3,1,0,90,0,1
181691,-77.54624,3,1,0,90,0,1
181764,-77.42149,3,1,0,90,0,1
181838,-77.29543,3,1,0,90,0,1
181911,-77.17148,3,1,0,90,0,1
181984,-77.04792,3,1,0,90,0,1
182060,292.682926829268,3,1,0,75,1,8
182061,292.682926829268,4,1,0,75,1,0
182061,-76.92476,4,1,0,75,0,0
182204,-81.21216,4,1,0,75,0,0
182350,-86.0057,4,1,0,75,0,0
182497,-91.43988,4,1,0,75,0,0
182643,-97.562325,4,1,0,75,0,0
182789,-104.56348,4,1,0,75,0,0
182936,-112.7068,4,1,0,75,0,0
183228,-133.33333,4,1,0,75,0,0
184109,-133.333333333333,4,1,0,75,0,0
184402,292.682926829268,4,1,0,70,1,0
193767,-83.3333333333333,4,1,0,80,0,1
203133,-83.3333333333333,4,1,0,80,0,0
203280,-133.333333333333,4,1,0,70,0,0
210152,-133.33333,4,1,0,50,0,0
210298,-130.61794,4,1,0,52,0,0
210444,-128.01094,4,1,0,54,0,0
210591,-125.48914,4,1,0,56,0,0
210737,-123.08097,4,1,0,58,0,0
210883,-120.76348,4,1,0,60,0,0
211030,-118.51664,4,1,0,62,0,0
211176,-116.36635,4,1,0,64,0,0
211316,-114.29268,4,1,0,66,0,0
211466,-112.278175,4,1,0,70,0,0
211612,-110.34645,4,1,0,74,0,0
211758,-108.48007,4,1,0,79,0,0
211905,-106.66363,4,1,0,83,0,0
212051,-104.91877,4,1,0,87,0,0
212197,-103.23007,4,1,0,91,0,0
212344,-101.58386,4,1,0,96,0,0
212490,-100,4,1,0,100,0,0

[HitObjects]
160,256,891,5,4,0:0:0:0:
352,128,1183,1,8,0:0:0:0:
352,128,1257,1,8,0:0:0:0:
352,128,1330,1,8,0:0:0:0:
160,128,1403,1,0,0:0:0:0:
352,128,1476,1,8,0:0:0:0:
352,128,1549,1,8,0:0:0:0:
160,128,1622,1,0,0:0:0:0:
160,128,1696,1,0,0:0:0:0:
352,128,1769,1,8,0:0:0:0:
352,128,1842,1,8,0:0:0:0:
352,128,1915,1,8,0:0:0:0:
160,128,1988,1,0,0:0:0:0:
352,128,2061,1,8,0:0:0:0:
352,128,2135,1,8,0:0:0:0:
160,128,2208,1,0,0:0:0:0:
160,128,2281,1,0,0:0:0:0:
352,128,2354,1,8,0:0:0:0:
352,128,2427,1,8,0:0:0:0:
352,128,2500,1,8,0:0:0:0:
160,128,2574,1,0,0:0:0:0:
352,128,2647,1,8,0:0:0:0:
352,128,2720,1,8,0:0:0:0:
160,128,2793,1,0,0:0:0:0:
160,128,2866,1,0,0:0:0:0:
352,128,2940,1,8,0:0:0:0:
352,128,3013,1,8,0:0:0:0:
352,128,3086,1,8,0:0:0:0:
160,128,3159,1,0,0:0:0:0:
352,128,3232,1,8,0:0:0:0:
352,128,3305,1,8,0:0:0:0:
160,128,3379,1,0,0:0:0:0:
160,128,3452,1,0,0:0:0:0:
352,128,3525,1,8,0:0:0:0:
352,128,3598,1,8,0:0:0:0:
352,128,3671,1,8,0:0:0:0:
160,128,3744,1,0,0:0:0:0:
352,128,3818,1,8,0:0:0:0:
352,128,3891,1,8,0:0:0:0:
160,128,3964,1,0,0:0:0:0:
160,128,4037,1,0,0:0:0:0:
352,128,4110,1,8,0:0:0:0:
352,128,4183,1,8,0:0:0:0:
352,128,4257,1,8,0:0:0:0:
160,128,4330,1,0,0:0:0:0:
352,128,4403,1,8,0:0:0:0:
352,128,4476,1,8,0:0:0:0:
160,128,4549,1,0,0:0:0:0:
160,128,4622,1,0,0:0:0:0:
352,128,4696,1,8,0:0:0:0:
352,128,5281,1,8,0:0:0:0:
352,128,5574,1,8,0:0:0:0:
352,128,5866,1,8,0:0:0:0:
352,128,5940,1,8,0:0:0:0:
352,128,6013,1,8,0:0:0:0:
160,128,6086,1,0,0:0:0:0:
352,128,6159,1,8,0:0:0:0:
352,128,6232,1,8,0:0:0:0:
160,128,6305,1,0,0:0:0:0:
160,128,6379,1,0,0:0:0:0:
352,128,6452,1,8,0:0:0:0:
352,128,6525,1,8,0:0:0:0:
352,128,6598,1,8,0:0:0:0:
160,128,6671,1,0,0:0:0:0:
352,128,6744,1,8,0:0:0:0:
352,128,6818,1,8,0:0:0:0:
160,128,6891,1,0,0:0:0:0:
160,128,6964,1,0,0:0:0:0:
352,128,7037,1,8,0:0:0:0:
352,128,7110,1,8,0:0:0:0:
352,128,7183,1,8,0:0:0:0:
160,128,7257,1,0,0:0:0:0:
352,128,7330,1,8,0:0:0:0:
352,128,7403,1,8,0:0:0:0:
160,128,7476,1,0,0:0:0:0:
160,128,7549,1,0,0:0:0:0:
352,128,7622,1,8,0:0:0:0:
352,128,7696,1,8,0:0:0:0:
352,128,7769,1,8,0:0:0:0:
160,128,7842,1,0,0:0:0:0:
352,128,7915,1,8,0:0:0:0:
352,128,7988,1,8,0:0:0:0:
160,128,8061,1,0,0:0:0:0:
160,128,8135,1,0,0:0:0:0:
352,128,8208,1,8,0:0:0:0:
352,128,8281,1,8,0:0:0:0:
352,128,8354,1,8,0:0:0:0:
160,128,8427,1,0,0:0:0:0:
352,128,8500,1,8,0:0:0:0:
352,128,8574,1,8,0:0:0:0:
160,128,8647,1,0,0:0:0:0:
160,128,8720,1,0,0:0:0:0:
352,128,8793,1,8,0:0:0:0:
352,128,8866,1,8,0:0:0:0:
352,128,8940,1,8,0:0:0:0:
160,128,9013,1,0,0:0:0:0:
352,128,9086,1,8,0:0:0:0:
352,128,9159,1,8,0:0:0:0:
160,128,9232,1,0,0:0:0:0:
160,128,9305,1,0,0:0:0:0:
352,256,9379,1,12,0:0:0:0:
160,256,9525,1,4,0:0:0:0:
352,256,9818,1,12,0:0:0:0:
160,256,10110,1,4,0:0:0:0:
352,256,10403,1,12,0:0:0:0:
160,256,10549,1,4,0:0:0:0:
352,128,11135,1,8,0:0:0:0:
352,128,11427,1,8,0:0:0:0:
160,256,11719,1,4,0:0:0:0:
160,128,11865,1,0,0:0:0:0:
160,128,11938,1,0,0:0:0:0:
352,128,12011,1,8,0:0:0:0:
352,256,12158,1,12,0:0:0:0:
160,128,12304,1,0,0:0:0:0:
352,128,12377,1,8,0:0:0:0:
160,128,12450,1,0,0:0:0:0:
352,128,12597,1,8,0:0:0:0:
160,128,12743,1,0,0:0:0:0:
352,128,12889,1,8,0:0:0:0:
352,128,12962,1,8,0:0:0:0:
160,128,13036,1,0,0:0:0:0:
160,128,13109,1,0,0:0:0:0:
352,128,13182,1,8,0:0:0:0:
352,128,13255,1,8,0:0:0:0:
352,128,13328,1,8,0:0:0:0:
352,128,13401,1,8,0:0:0:0:
160,128,13475,1,0,0:0:0:0:
160,256,13768,1,4,0:0:0:0:
160,128,13914,1,0,0:0:0:0:
160,128,13987,1,0,0:0:0:0:
352,128,14060,1,8,0:0:0:0:
352,256,14207,1,12,0:0:0:0:
160,128,14353,1,0,0:0:0:0:
352,128,14426,1,8,0:0:0:0:
160,128,14499,1,0,0:0:0:0:
352,128,14646,1,8,0:0:0:0:
352,128,14792,1,8,0:0:0:0:
160,128,14938,1,0,0:0:0:0:
352,128,15011,1,8,0:0:0:0:
352,128,15085,1,8,0:0:0:0:
160,128,15158,1,0,0:0:0:0:
352,128,15231,1,8,0:0:0:0:
160,128,15377,1,0,0:0:0:0:
352,128,15524,1,8,0:0:0:0:
352,128,15597,1,8,0:0:0:0:
352,128,15670,1,8,0:0:0:0:
160,128,15743,1,0,0:0:0:0:
352,128,15816,1,8,0:0:0:0:
352,128,15963,1,8,0:0:0:0:
160,256,16109,1,4,0:0:0:0:
160,128,16255,1,0,0:0:0:0:
160,128,16328,1,0,0:0:0:0:
352,128,16401,1,8,0:0:0:0:
352,256,16548,1,12,0:0:0:0:
160,128,16694,1,0,0:0:0:0:
352,128,16767,1,8,0:0:0:0:
160,128,16840,1,0,0:0:0:0:
352,128,16987,1,8,0:0:0:0:
160,128,17133,1,0,0:0:0:0:
352,128,17279,1,8,0:0:0:0:
352,128,17352,1,8,0:0:0:0:
160,128,17426,1,0,0:0:0:0:
160,128,17499,1,0,0:0:0:0:
352,128,17572,1,8,0:0:0:0:
352,128,17645,1,8,0:0:0:0:
352,128,17718,1,8,0:0:0:0:
352,128,17791,1,8,0:0:0:0:
160,128,17865,1,0,0:0:0:0:
160,256,18158,1,4,0:0:0:0:
160,128,18304,1,0,0:0:0:0:
160,128,18377,1,0,0:0:0:0:
352,128,18450,1,8,0:0:0:0:
352,256,18597,1,12,0:0:0:0:
160,128,18743,1,0,0:0:0:0:
352,128,18816,1,8,0:0:0:0:
160,128,18889,1,0,0:0:0:0:
352,128,19036,1,8,0:0:0:0:
352,128,19182,1,8,0:0:0:0:
160,128,19328,1,0,0:0:0:0:
352,128,19914,1,8,0:0:0:0:
352,128,19987,1,8,0:0:0:0:
352,128,20060,1,8,0:0:0:0:
352,128,20133,1,8,0:0:0:0:
352,128,20206,1,8,0:0:0:0:
352,128,20279,1,8,0:0:0:0:
352,128,20353,1,8,0:0:0:0:
352,128,20426,1,8,0:0:0:0:
160,256,20500,1,4,0:0:0:0:
160,128,20646,1,0,0:0:0:0:
160,128,20719,1,0,0:0:0:0:
352,128,20792,1,8,0:0:0:0:
352,128,20939,1,8,0:0:0:0:
160,128,21085,1,0,0:0:0:0:
352,128,21158,1,8,0:0:0:0:
160,128,21231,1,0,0:0:0:0:
352,128,21378,1,8,0:0:0:0:
160,128,21524,1,0,0:0:0:0:
160,128,21670,1,0,0:0:0:0:
352,128,21817,1,8,0:0:0:0:
160,128,21890,1,0,0:0:0:0:
352,128,21963,1,8,0:0:0:0:
160,128,22109,1,0,0:0:0:0:
160,128,22182,1,0,0:0:0:0:
352,128,22256,1,8,0:0:0:0:
352,128,22329,1,8,0:0:0:0:
160,128,22402,1,0,0:0:0:0:
352,128,22548,1,8,0:0:0:0:
352,128,22695,1,8,0:0:0:0:
160,128,22841,1,0,0:0:0:0:
160,128,22987,1,0,0:0:0:0:
160,128,23060,1,0,0:0:0:0:
352,128,23134,1,8,0:0:0:0:
352,128,23280,1,8,0:0:0:0:
160,128,23426,1,0,0:0:0:0:
352,128,23499,1,8,0:0:0:0:
160,128,23573,1,0,0:0:0:0:
352,128,23719,1,8,0:0:0:0:
160,128,23865,1,0,0:0:0:0:
160,128,24012,1,0,0:0:0:0:
352,128,24158,1,8,0:0:0:0:
160,128,24231,1,0,0:0:0:0:
352,128,24304,1,8,0:0:0:0:
160,128,24451,1,0,0:0:0:0:
352,128,24597,1,8,0:0:0:0:
352,128,24670,1,8,0:0:0:0:
352,128,24743,1,8,0:0:0:0:
160,256,24890,1,4,0:0:0:0:
160,128,25036,1,0,0:0:0:0:
160,128,25109,1,0,0:0:0:0:
352,128,25182,1,8,0:0:0:0:
352,128,25329,1,8,0:0:0:0:
160,128,25475,1,0,0:0:0:0:
352,128,25548,1,8,0:0:0:0:
160,128,25621,1,0,0:0:0:0:
352,128,25768,1,8,0:0:0:0:
160,128,25914,1,0,0:0:0:0:
160,128,26060,1,0,0:0:0:0:
352,128,26207,1,8,0:0:0:0:
160,128,26280,1,0,0:0:0:0:
352,128,26353,1,8,0:0:0:0:
160,128,26499,1,0,0:0:0:0:
160,128,26572,1,0,0:0:0:0:
352,128,26646,1,8,0:0:0:0:
352,128,26719,1,8,0:0:0:0:
160,128,26792,1,0,0:0:0:0:
352,128,26938,1,8,0:0:0:0:
352,128,27085,1,8,0:0:0:0:
160,128,27231,1,0,0:0:0:0:
160,128,27377,1,0,0:0:0:0:
160,128,27450,1,0,0:0:0:0:
352,128,27524,1,8,0:0:0:0:
352,128,27670,1,8,0:0:0:0:
160,128,27816,1,0,0:0:0:0:
352,128,27889,1,8,0:0:0:0:
160,128,27963,1,0,0:0:0:0:
352,128,28109,1,8,0:0:0:0:
160,128,28255,1,0,0:0:0:0:
352,128,28402,1,8,0:0:0:0:
160,128,28548,1,0,0:0:0:0:
160,128,28621,1,0,0:0:0:0:
352,128,28694,1,8,0:0:0:0:
352,128,28841,1,8,0:0:0:0:
352,128,28914,1,8,0:0:0:0:
160,128,28987,1,0,0:0:0:0:
352,128,29060,1,8,0:0:0:0:
160,128,29133,1,0,0:0:0:0:
160,128,29207,1,0,0:0:0:0:
352,128,29280,1,8,0:0:0:0:
160,128,29353,1,0,0:0:0:0:
160,128,29426,1,0,0:0:0:0:
352,256,29573,1,12,0:0:0:0:
160,128,29719,1,0,0:0:0:0:
160,128,29792,1,0,0:0:0:0:
352,128,29865,1,8,0:0:0:0:
352,256,30012,1,12,0:0:0:0:
160,128,30304,1,0,0:0:0:0:
352,128,30451,1,8,0:0:0:0:
160,128,30597,1,0,0:0:0:0:
352,128,30743,1,8,0:0:0:0:
352,128,30816,1,8,0:0:0:0:
352,128,30890,1,8,0:0:0:0:
352,128,30963,1,8,0:0:0:0:
352,128,31036,1,8,0:0:0:0:
352,256,31329,1,12,0:0:0:0:
160,128,31475,1,0,0:0:0:0:
160,128,31548,1,0,0:0:0:0:
352,128,31621,1,8,0:0:0:0:
352,256,31768,1,12,0:0:0:0:
160,128,32060,1,0,0:0:0:0:
352,128,32207,1,8,0:0:0:0:
160,128,32353,1,0,0:0:0:0:
352,128,32499,1,8,0:0:0:0:
352,128,32572,1,8,0:0:0:0:
352,128,32646,1,8,0:0:0:0:
352,128,32719,1,8,0:0:0:0:
352,128,32792,1,8,0:0:0:0:
352,256,33085,1,12,0:0:0:0:
160,128,33231,1,0,0:0:0:0:
160,128,33304,1,0,0:0:0:0:
352,128,33377,1,8,0:0:0:0:
352,256,33524,1,12,0:0:0:0:
160,128,33816,1,0,0:0:0:0:
352,128,33963,1,8,0:0:0:0:
160,128,34109,1,0,0:0:0:0:
352,128,34255,1,8,0:0:0:0:
352,128,34329,1,8,0:0:0:0:
352,128,34402,1,8,0:0:0:0:
352,128,34475,1,8,0:0:0:0:
352,128,34548,1,8,0:0:0:0:
352,256,34841,1,12,0:0:0:0:
160,128,34987,1,0,0:0:0:0:
160,128,35060,1,0,0:0:0:0:
352,128,35133,1,8,0:0:0:0:
352,256,35280,1,12,0:0:0:0:
160,128,35572,1,0,0:0:0:0:
352,128,35719,1,8,0:0:0:0:
160,128,35865,1,0,0:0:0:0:
160,128,36012,1,0,0:0:0:0:
160,128,36085,1,0,0:0:0:0:
160,128,36158,1,0,0:0:0:0:
160,128,36231,1,0,0:0:0:0:
160,128,36304,1,0,0:0:0:0:
160,256,36597,1,4,0:0:0:0:
160,128,45962,5,0,0:0:0:0:
160,128,46109,1,0,0:0:0:0:
352,128,46255,1,8,0:0:0:0:
352,128,46401,1,8,0:0:0:0:
160,128,46694,1,0,0:0:0:0:
352,128,46840,1,8,0:0:0:0:
160,128,46987,1,0,0:0:0:0:
352,128,47133,1,8,0:0:0:0:
352,128,47279,1,8,0:0:0:0:
160,128,47426,1,0,0:0:0:0:
352,128,47718,1,8,0:0:0:0:
160,128,47865,1,0,0:0:0:0:
352,128,48011,1,8,0:0:0:0:
160,128,48304,1,0,0:0:0:0:
160,128,48450,1,0,0:0:0:0:
352,128,48596,1,8,0:0:0:0:
352,128,48743,1,8,0:0:0:0:
160,128,49036,1,0,0:0:0:0:
352,128,49182,1,8,0:0:0:0:
160,128,49328,1,0,0:0:0:0:
160,128,49475,1,0,0:0:0:0:
352,128,49621,1,8,0:0:0:0:
352,128,49767,1,8,0:0:0:0:
160,128,49914,1,0,0:0:0:0:
160,128,50060,1,0,0:0:0:0:
352,128,50206,1,8,0:0:0:0:
352,128,50353,1,8,0:0:0:0:
160,128,50645,1,0,0:0:0:0:
160,128,50792,1,0,0:0:0:0:
352,128,50938,1,8,0:0:0:0:
352,128,51084,1,8,0:0:0:0:
160,128,51377,1,0,0:0:0:0:
352,128,51523,1,8,0:0:0:0:
160,128,51670,1,0,0:0:0:0:
352,128,51816,1,8,0:0:0:0:
352,128,51962,1,8,0:0:0:0:
160,128,52109,1,0,0:0:0:0:
352,128,52401,1,8,0:0:0:0:
160,128,52548,1,0,0:0:0:0:
352,128,52694,1,8,0:0:0:0:
160,128,52987,1,0,0:0:0:0:
160,128,53133,1,0,0:0:0:0:
352,128,53279,1,8,0:0:0:0:
352,128,53426,1,8,0:0:0:0:
160,128,53718,1,0,0:0:0:0:
352,128,53865,1,8,0:0:0:0:
160,128,54011,1,0,0:0:0:0:
160,128,54157,1,0,0:0:0:0:
352,128,54304,1,8,0:0:0:0:
352,128,54450,1,8,0:0:0:0:
160,128,54596,1,0,0:0:0:0:
160,128,54743,1,0,0:0:0:0:
352,128,54889,1,8,0:0:0:0:
352,128,55036,1,8,0:0:0:0:
160,128,55328,1,0,0:0:0:0:
160,128,55475,1,0,0:0:0:0:
160,128,55621,1,0,0:0:0:0:
352,128,55767,1,8,0:0:0:0:
352,128,55914,1,8,0:0:0:0:
160,128,56060,1,0,0:0:0:0:
352,128,56206,1,8,0:0:0:0:
160,128,56353,1,0,0:0:0:0:
160,128,56426,1,0,0:0:0:0:
160,128,56499,1,0,0:0:0:0:
352,128,56645,1,8,0:0:0:0:
352,128,56792,1,8,0:0:0:0:
160,128,56938,1,0,0:0:0:0:
352,128,57084,1,8,0:0:0:0:
160,128,57231,1,0,0:0:0:0:
352,128,57377,1,8,0:0:0:0:
352,128,57523,1,8,0:0:0:0:
160,128,57596,1,0,0:0:0:0:
160,128,57670,1,0,0:0:0:0:
160,128,57816,1,0,0:0:0:0:
160,128,57962,1,0,0:0:0:0:
352,128,58109,1,8,0:0:0:0:
160,128,58182,1,0,0:0:0:0:
352,128,58255,1,8,0:0:0:0:
160,128,58401,1,0,0:0:0:0:
160,128,58548,1,0,0:0:0:0:
352,128,58694,1,8,0:0:0:0:
352,128,58767,1,8,0:0:0:0:
160,128,58840,1,0,0:0:0:0:
352,128,58987,1,8,0:0:0:0:
352,128,59133,1,8,0:0:0:0:
160,128,59279,1,0,0:0:0:0:
160,128,59353,1,0,0:0:0:0:
352,128,59426,1,8,0:0:0:0:
352,128,59572,1,8,0:0:0:0:
352,128,59718,1,8,0:0:0:0:
352,128,59865,1,8,0:0:0:0:
352,128,59938,1,8,0:0:0:0:
160,128,60011,1,0,0:0:0:0:
160,128,60157,1,0,0:0:0:0:
160,128,60304,1,0,0:0:0:0:
352,128,60450,1,8,0:0:0:0:
352,128,60596,1,8,0:0:0:0:
160,128,60743,1,0,0:0:0:0:
352,128,60889,1,8,0:0:0:0:
160,128,61036,1,0,0:0:0:0:
160,128,61109,1,0,0:0:0:0:
160,128,61182,1,0,0:0:0:0:
352,128,61328,1,8,0:0:0:0:
352,128,61475,1,8,0:0:0:0:
160,128,61621,1,0,0:0:0:0:
352,128,61767,1,8,0:0:0:0:
160,128,61914,1,0,0:0:0:0:
352,128,62060,1,8,0:0:0:0:
352,128,62206,1,8,0:0:0:0:
160,128,62279,1,0,0:0:0:0:
160,128,62353,1,0,0:0:0:0:
160,128,62499,1,0,0:0:0:0:
160,128,62645,1,0,0:0:0:0:
352,128,62792,1,8,0:0:0:0:
160,128,62865,1,0,0:0:0:0:
352,128,62938,1,8,0:0:0:0:
160,128,63084,1,0,0:0:0:0:
160,128,63231,1,0,0:0:0:0:
352,128,63377,1,8,0:0:0:0:
352,128,63450,1,8,0:0:0:0:
160,128,63523,1,0,0:0:0:0:
352,128,63670,1,8,0:0:0:0:
352,128,63816,1,8,0:0:0:0:
160,128,63889,1,0,0:0:0:0:
352,128,63962,1,8,0:0:0:0:
352,128,64036,1,8,0:0:0:0:
160,128,64109,1,0,0:0:0:0:
352,128,64255,1,8,0:0:0:0:
352,128,64401,1,8,0:0:0:0:
352,128,64475,1,8,0:0:0:0:
160,128,64548,1,0,0:0:0:0:
160,128,64621,1,0,0:0:0:0:
160,128,64694,1,0,0:0:0:0:
352,256,65280,1,12,0:0:0:0:
160,128,65426,1,0,0:0:0:0:
160,128,65572,1,0,0:0:0:0:
160,128,65719,1,0,0:0:0:0:
160,128,65865,1,0,0:0:0:0:
160,128,66011,1,0,0:0:0:0:
160,128,66158,1,0,0:0:0:0:
160,128,66304,1,0,0:0:0:0:
352,128,66450,1,8,0:0:0:0:
352,128,66523,1,8,0:0:0:0:
160,128,66597,1,0,0:0:0:0:
160,128,66743,1,0,0:0:0:0:
352,128,66889,1,8,0:0:0:0:
352,128,66962,1,8,0:0:0:0:
352,128,67036,1,8,0:0:0:0:
160,128,67182,1,0,0:0:0:0:
352,128,67328,1,8,0:0:0:0:
352,128,67401,1,8,0:0:0:0:
160,128,67475,1,0,0:0:0:0:
160,128,67548,1,0,0:0:0:0:
352,128,67621,1,8,0:0:0:0:
160,128,67767,1,0,0:0:0:0:
160,128,67914,1,0,0:0:0:0:
160,128,68060,1,0,0:0:0:0:
160,128,68206,1,0,0:0:0:0:
160,128,68353,1,0,0:0:0:0:
160,128,68499,1,0,0:0:0:0:
160,128,68645,1,0,0:0:0:0:
352,128,68792,1,8,0:0:0:0:
352,128,68865,1,8,0:0:0:0:
160,128,68938,1,0,0:0:0:0:
160,128,69084,1,0,0:0:0:0:
352,128,69231,1,8,0:0:0:0:
352,128,69304,1,8,0:0:0:0:
352,256,69962,1,12,0:0:0:0:
160,128,70109,1,0,0:0:0:0:
160,128,70255,1,0,0:0:0:0:
160,128,70401,1,0,0:0:0:0:
160,128,70548,1,0,0:0:0:0:
160,128,70694,1,0,0:0:0:0:
160,128,70840,1,0,0:0:0:0:
160,128,70987,1,0,0:0:0:0:
352,128,71133,1,8,0:0:0:0:
352,128,71206,1,8,0:0:0:0:
160,128,71280,1,0,0:0:0:0:
160,128,71426,1,0,0:0:0:0:
352,128,71572,1,8,0:0:0:0:
352,128,71645,1,8,0:0:0:0:
352,128,71719,1,8,0:0:0:0:
160,128,71865,1,0,0:0:0:0:
352,128,72011,1,8,0:0:0:0:
352,128,72084,1,8,0:0:0:0:
160,128,72158,1,0,0:0:0:0:
352,128,72231,1,8,0:0:0:0:
160,128,72304,1,0,0:0:0:0:
160,128,72450,1,0,0:0:0:0:
352,128,72597,1,8,0:0:0:0:
160,128,72743,1,0,0:0:0:0:
160,128,72816,1,0,0:0:0:0:
352,128,72889,1,8,0:0:0:0:
160,128,73036,1,0,0:0:0:0:
160,128,73109,1,0,0:0:0:0:
352,128,73182,1,8,0:0:0:0:
160,128,73255,1,0,0:0:0:0:
352,128,73328,1,8,0:0:0:0:
160,128,73475,1,0,0:0:0:0:
160,128,73548,1,0,0:0:0:0:
352,128,73621,1,8,0:0:0:0:
160,128,73767,1,0,0:0:0:0:
160,128,73840,1,0,0:0:0:0:
352,128,73914,1,8,0:0:0:0:
160,128,73987,1,0,0:0:0:0:
352,128,74060,1,8,0:0:0:0:
160,128,74133,1,0,0:0:0:0:
160,128,74206,1,0,0:0:0:0:
160,128,74279,1,0,0:0:0:0:
352,128,74353,1,8,0:0:0:0:
352,128,74426,1,8,0:0:0:0:
352,128,74499,1,8,0:0:0:0:
352,128,74572,1,8,0:0:0:0:
160,128,74646,1,0,0:0:0:0:
160,128,75231,1,0,0:0:0:0:
160,128,76109,1,0,0:0:0:0:
160,128,76402,1,0,0:0:0:0:
160,128,76987,1,0,0:0:0:0:
160,128,77865,1,0,0:0:0:0:
160,128,78158,1,0,0:0:0:0:
160,128,78743,1,0,0:0:0:0:
160,128,79621,1,0,0:0:0:0:
160,128,79914,1,0,0:0:0:0:
160,128,80499,1,0,0:0:0:0:
160,128,81377,1,0,0:0:0:0:
160,256,81670,1,4,0:0:0:0:
352,128,81963,1,8,0:0:0:0:
160,128,82255,1,0,0:0:0:0:
352,128,82402,1,8,0:0:0:0:
160,128,82548,1,0,0:0:0:0:
160,128,82694,1,0,0:0:0:0:
352,128,82841,1,8,0:0:0:0:
160,128,83133,1,0,0:0:0:0:
160,128,83426,1,0,0:0:0:0:
352,128,83719,1,8,0:0:0:0:
160,128,84011,1,0,0:0:0:0:
352,128,84158,1,8,0:0:0:0:
160,128,84304,1,0,0:0:0:0:
160,128,84450,1,0,0:0:0:0:
352,128,84597,1,8,0:0:0:0:
160,128,84743,1,0,0:0:0:0:
352,128,84889,1,8,0:0:0:0:
352,128,84963,1,8,0:0:0:0:
352,128,85036,1,8,0:0:0:0:
352,128,85109,1,8,0:0:0:0:
160,128,85182,1,0,0:0:0:0:
352,128,85475,1,8,0:0:0:0:
160,128,85767,1,0,0:0:0:0:
352,128,85914,1,8,0:0:0:0:
160,128,86060,1,0,0:0:0:0:
160,128,86206,1,0,0:0:0:0:
352,128,86353,1,8,0:0:0:0:
160,128,86645,1,0,0:0:0:0:
160,128,86938,1,0,0:0:0:0:
352,128,87231,1,8,0:0:0:0:
160,128,87524,1,0,0:0:0:0:
352,128,87670,1,8,0:0:0:0:
160,128,87816,1,0,0:0:0:0:
160,128,87963,1,0,0:0:0:0:
352,128,88109,1,8,0:0:0:0:
160,128,88255,1,0,0:0:0:0:
352,128,88328,1,8,0:0:0:0:
160,128,88402,1,0,0:0:0:0:
160,256,88694,1,4,0:0:0:0:
352,128,88841,1,8,0:0:0:0:
160,128,88914,1,0,0:0:0:0:
352,128,88987,1,8,0:0:0:0:
160,128,89133,1,0,0:0:0:0:
352,128,89280,1,8,0:0:0:0:
352,128,89353,1,8,0:0:0:0:
160,128,89426,1,0,0:0:0:0:
352,128,89572,1,8,0:0:0:0:
160,128,89719,1,0,0:0:0:0:
352,128,89865,1,8,0:0:0:0:
352,128,90011,1,8,0:0:0:0:
160,128,90158,1,0,0:0:0:0:
160,128,90231,1,0,0:0:0:0:
352,128,90304,1,8,0:0:0:0:
160,256,90450,1,4,0:0:0:0:
352,128,90597,1,8,0:0:0:0:
160,128,90670,1,0,0:0:0:0:
352,128,90743,1,8,0:0:0:0:
160,128,90889,1,0,0:0:0:0:
352,128,91036,1,8,0:0:0:0:
352,128,91109,1,8,0:0:0:0:
160,128,91182,1,0,0:0:0:0:
160,128,91255,1,0,0:0:0:0:
352,128,91328,1,8,0:0:0:0:
160,128,91475,1,0,0:0:0:0:
352,128,91621,1,8,0:0:0:0:
160,128,91767,1,0,0:0:0:0:
352,128,91914,1,8,0:0:0:0:
160,128,91987,1,0,0:0:0:0:
160,128,92060,1,0,0:0:0:0:
160,256,92207,1,4,0:0:0:0:
352,128,92353,1,8,0:0:0:0:
160,128,92426,1,0,0:0:0:0:
352,128,92499,1,8,0:0:0:0:
160,128,92646,1,0,0:0:0:0:
160,128,92792,1,0,0:0:0:0:
160,128,92865,1,0,0:0:0:0:
352,128,92938,1,8,0:0:0:0:
160,128,93085,1,0,0:0:0:0:
352,128,93231,1,8,0:0:0:0:
160,128,93377,1,0,0:0:0:0:
160,256,93670,1,4,0:0:0:0:
352,128,93816,1,8,0:0:0:0:
160,128,93889,1,0,0:0:0:0:
352,128,93963,1,8,0:0:0:0:
160,128,94109,1,0,0:0:0:0:
352,128,94255,1,8,0:0:0:0:
352,128,94328,1,8,0:0:0:0:
160,128,94402,1,0,0:0:0:0:
160,128,94475,1,0,0:0:0:0:
352,128,94548,1,8,0:0:0:0:
352,128,94694,1,8,0:0:0:0:
160,128,94841,1,0,0:0:0:0:
352,128,95134,1,8,0:0:0:0:
352,128,95426,1,8,0:0:0:0:
160,256,95719,1,4,0:0:0:0:
352,128,95865,1,8,0:0:0:0:
160,128,95938,1,0,0:0:0:0:
352,128,96011,1,8,0:0:0:0:
160,128,96158,1,0,0:0:0:0:
352,128,96304,1,8,0:0:0:0:
352,128,96377,1,8,0:0:0:0:
160,128,96450,1,0,0:0:0:0:
352,128,96597,1,8,0:0:0:0:
160,128,96743,1,0,0:0:0:0:
352,128,96889,1,8,0:0:0:0:
352,128,97036,1,8,0:0:0:0:
160,128,97182,1,0,0:0:0:0:
160,128,97255,1,0,0:0:0:0:
352,128,97328,1,8,0:0:0:0:
160,256,97475,1,4,0:0:0:0:
352,128,97621,1,8,0:0:0:0:
160,128,97694,1,0,0:0:0:0:
352,128,97767,1,8,0:0:0:0:
160,128,97914,1,0,0:0:0:0:
352,128,98060,1,8,0:0:0:0:
352,128,98133,1,8,0:0:0:0:
160,128,98206,1,0,0:0:0:0:
160,128,98279,1,0,0:0:0:0:
352,128,98353,1,8,0:0:0:0:
160,128,98499,1,0,0:0:0:0:
352,128,98645,1,8,0:0:0:0:
160,128,98792,1,0,0:0:0:0:
352,128,98938,1,8,0:0:0:0:
160,128,99011,1,0,0:0:0:0:
160,128,99084,1,0,0:0:0:0:
160,256,99231,1,4,0:0:0:0:
352,128,99377,1,8,0:0:0:0:
160,128,99450,1,0,0:0:0:0:
352,128,99523,1,8,0:0:0:0:
160,128,99670,1,0,0:0:0:0:
160,128,99816,1,0,0:0:0:0:
160,128,99889,1,0,0:0:0:0:
352,128,99962,1,8,0:0:0:0:
160,128,100109,1,0,0:0:0:0:
352,128,100255,1,8,0:0:0:0:
160,128,100401,1,0,0:0:0:0:
352,256,100695,1,12,0:0:0:0:
160,128,100841,1,0,0:0:0:0:
160,128,100914,1,0,0:0:0:0:
160,128,100987,1,0,0:0:0:0:
160,128,101060,1,0,0:0:0:0:
352,128,101134,1,8,0:0:0:0:
352,128,101207,1,8,0:0:0:0:
160,128,101280,1,0,0:0:0:0:
160,128,101353,1,0,0:0:0:0:
160,128,101426,1,0,0:0:0:0:
160,128,101499,1,0,0:0:0:0:
352,128,101573,1,8,0:0:0:0:
352,128,101646,1,8,0:0:0:0:
160,128,101719,1,0,0:0:0:0:
160,128,101792,1,0,0:0:0:0:
352,128,101865,1,8,0:0:0:0:
352,128,102451,1,8,0:0:0:0:
352,128,102524,1,8,0:0:0:0:
352,128,102597,1,8,0:0:0:0:
352,128,102670,1,8,0:0:0:0:
160,128,102743,1,0,0:0:0:0:
160,128,102816,1,0,0:0:0:0:
160,128,102890,1,0,0:0:0:0:
160,256,103036,1,4,0:0:0:0:
352,128,111231,5,8,0:0:0:0:
352,128,111523,1,8,0:0:0:0:
352,128,111816,1,8,0:0:0:0:
352,128,111962,1,8,0:0:0:0:
352,128,112109,1,8,0:0:0:0:
160,128,112401,1,0,0:0:0:0:
160,128,112548,1,0,0:0:0:0:
352,128,112694,1,8,0:0:0:0:
160,128,112987,1,0,0:0:0:0:
352,128,113133,1,8,0:0:0:0:
160,128,113279,1,0,0:0:0:0:
160,128,113426,1,0,0:0:0:0:
352,128,113572,1,8,0:0:0:0:
352,128,113718,1,8,0:0:0:0:
352,128,113865,1,8,0:0:0:0:
352,128,114157,1,8,0:0:0:0:
352,128,114304,1,8,0:0:0:0:
160,128,114450,1,0,0:0:0:0:
352,128,114596,1,8,0:0:0:0:
160,128,114743,1,0,0:0:0:0:
160,128,114889,1,0,0:0:0:0:
352,128,115035,1,8,0:0:0:0:
160,128,115328,1,0,0:0:0:0:
352,128,115475,1,8,0:0:0:0:
160,128,115621,1,0,0:0:0:0:
160,128,115767,1,0,0:0:0:0:
352,128,115914,1,8,0:0:0:0:
160,128,116060,1,0,0:0:0:0:
160,128,116206,1,0,0:0:0:0:
352,128,116499,1,8,0:0:0:0:
160,128,116645,1,0,0:0:0:0:
352,128,116792,1,8,0:0:0:0:
160,128,117084,1,0,0:0:0:0:
160,128,117231,1,0,0:0:0:0:
352,128,117377,1,8,0:0:0:0:
160,128,117670,1,0,0:0:0:0:
352,128,117816,1,8,0:0:0:0:
160,128,117962,1,0,0:0:0:0:
160,128,118109,1,0,0:0:0:0:
352,128,118255,1,8,0:0:0:0:
352,128,118401,1,8,0:0:0:0:
352,128,118548,1,8,0:0:0:0:
352,128,118840,1,8,0:0:0:0:
352,128,118987,1,8,0:0:0:0:
160,128,119133,1,0,0:0:0:0:
352,128,119279,1,8,0:0:0:0:
160,128,119426,1,0,0:0:0:0:
160,128,119572,1,0,0:0:0:0:
352,128,119718,1,8,0:0:0:0:
160,128,120011,1,0,0:0:0:0:
352,128,120157,1,8,0:0:0:0:
160,128,120304,1,0,0:0:0:0:
160,128,120450,1,0,0:0:0:0:
352,128,120596,1,8,0:0:0:0:
352,128,120743,1,8,0:0:0:0:
160,128,120889,1,0,0:0:0:0:
160,128,121035,1,0,0:0:0:0:
352,128,121182,1,8,0:0:0:0:
160,128,121328,1,0,0:0:0:0:
352,128,121475,1,8,0:0:0:0:
352,128,121548,1,8,0:0:0:0:
352,128,121621,1,8,0:0:0:0:
352,128,121694,1,8,0:0:0:0:
160,128,121767,1,0,0:0:0:0:
160,128,121914,1,0,0:0:0:0:
352,128,122060,1,8,0:0:0:0:
160,128,122353,1,0,0:0:0:0:
160,128,122499,1,0,0:0:0:0:
352,128,122645,1,8,0:0:0:0:
160,128,122792,1,0,0:0:0:0:
160,128,122865,1,0,0:0:0:0:
352,128,122938,1,8,0:0:0:0:
352,128,123084,1,8,0:0:0:0:
352,128,123231,1,8,0:0:0:0:
160,128,123377,1,0,0:0:0:0:
352,128,123450,1,8,0:0:0:0:
160,128,123523,1,0,0:0:0:0:
160,128,123670,1,0,0:0:0:0:
352,128,123816,1,8,0:0:0:0:
352,128,123962,1,8,0:0:0:0:
352,128,124035,1,8,0:0:0:0:
160,128,124109,1,0,0:0:0:0:
160,128,124255,1,0,0:0:0:0:
352,128,124401,1,8,0:0:0:0:
160,128,124548,1,0,0:0:0:0:
352,128,124621,1,8,0:0:0:0:
160,128,124694,1,0,0:0:0:0:
160,128,124840,1,0,0:0:0:0:
352,128,124987,1,8,0:0:0:0:
160,128,125133,1,0,0:0:0:0:
160,128,125206,1,0,0:0:0:0:
160,128,125279,1,0,0:0:0:0:
160,128,125426,1,0,0:0:0:0:
352,128,125572,1,8,0:0:0:0:
160,128,125718,1,0,0:0:0:0:
352,128,125865,1,8,0:0:0:0:
160,128,126011,1,0,0:0:0:0:
352,128,126157,1,8,0:0:0:0:
352,128,126231,1,8,0:0:0:0:
160,128,126304,1,0,0:0:0:0:
352,128,126377,1,8,0:0:0:0:
160,128,126450,1,0,0:0:0:0:
160,128,126596,1,0,0:0:0:0:
352,128,126743,1,8,0:0:0:0:
160,128,126889,1,0,0:0:0:0:
352,128,126962,1,8,0:0:0:0:
160,128,127035,1,0,0:0:0:0:
160,128,127182,1,0,0:0:0:0:
352,128,127328,1,8,0:0:0:0:
160,128,127475,1,0,0:0:0:0:
160,128,127548,1,0,0:0:0:0:
352,128,127621,1,8,0:0:0:0:
352,128,127767,1,8,0:0:0:0:
352,128,127914,1,8,0:0:0:0:
160,128,128060,1,0,0:0:0:0:
352,128,128133,1,8,0:0:0:0:
160,128,128206,1,0,0:0:0:0:
160,128,128353,1,0,0:0:0:0:
352,128,128499,1,8,0:0:0:0:
352,128,128645,1,8,0:0:0:0:
352,128,128718,1,8,0:0:0:0:
160,128,128792,1,0,0:0:0:0:
160,128,128938,1,0,0:0:0:0:
352,128,129084,1,8,0:0:0:0:
160,128,129231,1,0,0:0:0:0:
352,128,129304,1,8,0:0:0:0:
160,128,129377,1,0,0:0:0:0:
160,128,129523,1,0,0:0:0:0:
352,128,129670,1,8,0:0:0:0:
160,128,129816,1,0,0:0:0:0:
160,128,129889,1,0,0:0:0:0:
352,128,129962,1,8,0:0:0:0:
160,128,130109,1,0,0:0:0:0:
352,128,130255,1,8,0:0:0:0:
160,128,130401,1,0,0:0:0:0:
160,128,130475,1,0,0:0:0:0:
352,128,130548,1,8,0:0:0:0:
160,128,130694,1,0,0:0:0:0:
352,128,130840,1,8,0:0:0:0:
352,128,130914,1,8,0:0:0:0:
352,128,130987,1,8,0:0:0:0:
352,128,131060,1,8,0:0:0:0:
160,128,131133,1,0,0:0:0:0:
160,128,131279,1,0,0:0:0:0:
160,128,131572,1,0,0:0:0:0:
160,128,131718,1,0,0:0:0:0:
352,128,132011,1,8,0:0:0:0:
160,128,132157,1,0,0:0:0:0:
352,128,132304,1,8,0:0:0:0:
160,256,132596,1,4,0:0:0:0:
352,128,132889,1,8,0:0:0:0:
160,128,132962,1,0,0:0:0:0:
160,128,133035,1,0,0:0:0:0:
160,128,133109,1,0,0:0:0:0:
352,128,133182,1,8,0:0:0:0:
160,128,133255,1,0,0:0:0:0:
160,128,133328,1,0,0:0:0:0:
160,128,133401,1,0,0:0:0:0:
352,128,133475,1,8,0:0:0:0:
352,128,133548,1,8,0:0:0:0:
352,128,133621,1,8,0:0:0:0:
352,128,133694,1,8,0:0:0:0:
160,128,133767,1,0,0:0:0:0:
160,128,133840,1,0,0:0:0:0:
352,128,133914,1,8,0:0:0:0:
352,128,133987,1,8,0:0:0:0:
352,128,134060,1,8,0:0:0:0:
352,128,134133,1,8,0:0:0:0:
160,128,134206,1,0,0:0:0:0:
160,128,134279,1,0,0:0:0:0:
352,128,134353,1,8,0:0:0:0:
352,128,134426,1,8,0:0:0:0:
160,128,134499,1,0,0:0:0:0:
160,128,134572,1,0,0:0:0:0:
352,128,134645,1,8,0:0:0:0:
352,128,134718,1,8,0:0:0:0:
352,128,134792,1,8,0:0:0:0:
352,128,134865,1,8,0:0:0:0:
160,128,134938,1,0,0:0:0:0:
160,128,135011,1,0,0:0:0:0:
352,128,135084,1,8,0:0:0:0:
352,128,135157,1,8,0:0:0:0:
352,128,135231,1,8,0:0:0:0:
352,128,135304,1,8,0:0:0:0:
160,128,135377,1,0,0:0:0:0:
160,128,135450,1,0,0:0:0:0:
352,128,135523,1,8,0:0:0:0:
160,128,135596,1,0,0:0:0:0:
352,128,135670,1,8,0:0:0:0:
160,128,135743,1,0,0:0:0:0:
352,128,135816,1,8,0:0:0:0:
352,128,135889,1,8,0:0:0:0:
352,128,135962,1,8,0:0:0:0:
160,128,136035,1,0,0:0:0:0:
352,128,136109,1,8,0:0:0:0:
160,128,136182,1,0,0:0:0:0:
352,128,136255,1,8,0:0:0:0:
352,128,136328,1,8,0:0:0:0:
160,128,136401,1,0,0:0:0:0:
352,128,136475,1,8,0:0:0:0:
160,128,136548,1,0,0:0:0:0:
160,128,136621,1,0,0:0:0:0:
352,128,136694,1,8,0:0:0:0:
160,128,136767,1,0,0:0:0:0:
352,128,136840,1,8,0:0:0:0:
160,128,136914,1,0,0:0:0:0:
352,128,136987,1,8,0:0:0:0:
352,128,137060,1,8,0:0:0:0:
160,128,137133,1,0,0:0:0:0:
160,128,137206,1,0,0:0:0:0:
352,128,137279,1,8,0:0:0:0:
160,128,137353,1,0,0:0:0:0:
352,128,137426,1,8,0:0:0:0:
160,128,137499,1,0,0:0:0:0:
352,128,137572,1,8,0:0:0:0:
160,128,137645,1,0,0:0:0:0:
160,128,137718,1,0,0:0:0:0:
352,128,137792,1,8,0:0:0:0:
352,128,137865,1,8,0:0:0:0:
160,128,137938,1,0,0:0:0:0:
352,128,138011,1,8,0:0:0:0:
160,128,138084,1,0,0:0:0:0:
352,128,138157,1,8,0:0:0:0:
352,128,138231,1,8,0:0:0:0:
352,128,138304,1,8,0:0:0:0:
352,128,138377,1,8,0:0:0:0:
160,128,138450,1,0,0:0:0:0:
160,128,138523,1,0,0:0:0:0:
352,128,138596,1,8,0:0:0:0:
352,128,138670,1,8,0:0:0:0:
160,128,138743,1,0,0:0:0:0:
160,128,138816,1,0,0:0:0:0:
160,128,138889,1,0,0:0:0:0:
160,128,138962,1,0,0:0:0:0:
352,128,139035,1,8,0:0:0:0:
160,128,139109,1,0,0:0:0:0:
352,128,139182,1,8,0:0:0:0:
352,128,139255,1,8,0:0:0:0:
160,128,139328,1,0,0:0:0:0:
160,128,139401,1,0,0:0:0:0:
352,128,139475,1,8,0:0:0:0:
160,128,139548,1,0,0:0:0:0:
352,128,139621,1,8,0:0:0:0:
352,128,139694,1,8,0:0:0:0:
352,128,139767,1,8,0:0:0:0:
352,128,139840,1,8,0:0:0:0:
160,128,139914,1,0,0:0:0:0:
160,128,139987,1,0,0:0:0:0:
160,128,140060,1,0,0:0:0:0:
160,128,140133,1,0,0:0:0:0:
352,128,140206,1,8,0:0:0:0:
160,128,140279,1,0,0:0:0:0:
352,128,140353,1,8,0:0:0:0:
352,128,140426,1,8,0:0:0:0:
160,128,140499,1,0,0:0:0:0:
352,128,140572,1,8,0:0:0:0:
352,128,140645,1,8,0:0:0:0:
352,128,140718,1,8,0:0:0:0:
160,128,140792,1,0,0:0:0:0:
352,128,140865,1,8,0:0:0:0:
160,128,140938,1,0,0:0:0:0:
352,128,141011,1,8,0:0:0:0:
160,128,141084,1,0,0:0:0:0:
352,128,141157,1,8,0:0:0:0:
352,128,141231,1,8,0:0:0:0:
160,128,141304,1,0,0:0:0:0:
352,128,141377,1,8,0:0:0:0:
352,128,141450,1,8,0:0:0:0:
352,128,141523,1,8,0:0:0:0:
352,128,141596,1,8,0:0:0:0:
160,128,141670,1,0,0:0:0:0:
160,128,141743,1,0,0:0:0:0:
160,128,141816,1,0,0:0:0:0:
160,128,141889,1,0,0:0:0:0:
352,128,141962,1,8,0:0:0:0:
352,128,142035,1,8,0:0:0:0:
160,128,142109,1,0,0:0:0:0:
160,128,142182,1,0,0:0:0:0:
352,128,142255,1,8,0:0:0:0:
352,128,142328,1,8,0:0:0:0:
352,128,142401,1,8,0:0:0:0:
160,128,142475,1,0,0:0:0:0:
352,128,142548,1,8,0:0:0:0:
352,128,142621,1,8,0:0:0:0:
160,128,142694,1,0,0:0:0:0:
160,128,142767,1,0,0:0:0:0:
352,128,142840,1,8,0:0:0:0:
160,128,142914,1,0,0:0:0:0:
352,128,142987,1,8,0:0:0:0:
160,128,143060,1,0,0:0:0:0:
352,128,143133,1,8,0:0:0:0:
352,128,143206,1,8,0:0:0:0:
160,128,143279,1,0,0:0:0:0:
352,128,143353,1,8,0:0:0:0:
352,128,143426,1,8,0:0:0:0:
352,128,143499,1,8,0:0:0:0:
160,128,143572,1,0,0:0:0:0:
160,128,143645,1,0,0:0:0:0:
352,128,143718,1,8,0:0:0:0:
160,128,143792,1,0,0:0:0:0:
160,128,143865,1,0,0:0:0:0:
160,128,143938,1,0,0:0:0:0:
352,128,144011,1,8,0:0:0:0:
160,128,144084,1,0,0:0:0:0:
352,128,144157,1,8,0:0:0:0:
352,128,144231,1,8,0:0:0:0:
160,128,144304,1,0,0:0:0:0:
160,128,144377,1,0,0:0:0:0:
352,128,144450,1,8,0:0:0:0:
160,128,144523,1,0,0:0:0:0:
352,128,144596,1,8,0:0:0:0:
352,128,144670,1,8,0:0:0:0:
352,128,144743,1,8,0:0:0:0:
160,128,144816,1,0,0:0:0:0:
352,128,144889,1,8,0:0:0:0:
352,128,144962,1,8,0:0:0:0:
160,128,145035,1,0,0:0:0:0:
160,128,145109,1,0,0:0:0:0:
352,128,145182,1,8,0:0:0:0:
352,128,145255,1,8,0:0:0:0:
160,128,145328,1,0,0:0:0:0:
352,128,145401,1,8,0:0:0:0:
352,128,145475,1,8,0:0:0:0:
160,128,145548,1,0,0:0:0:0:
352,128,145621,1,8,0:0:0:0:
160,128,145694,1,0,0:0:0:0:
160,128,145767,1,0,0:0:0:0:
352,128,145840,1,8,0:0:0:0:
160,128,145914,1,0,0:0:0:0:
160,128,145987,1,0,0:0:0:0:
352,128,146060,1,8,0:0:0:0:
160,128,146133,1,0,0:0:0:0:
352,128,146206,1,8,0:0:0:0:
160,128,146279,1,0,0:0:0:0:
352,128,146353,1,8,0:0:0:0:
352,128,146426,1,8,0:0:0:0:
352,128,146499,1,8,0:0:0:0:
160,128,146572,1,0,0:0:0:0:
352,128,146645,1,8,0:0:0:0:
352,128,146718,1,8,0:0:0:0:
352,128,146792,1,8,0:0:0:0:
160,128,146865,1,0,0:0:0:0:
352,128,146938,1,8,0:0:0:0:
352,128,147011,1,8,0:0:0:0:
160,128,147084,1,0,0:0:0:0:
160,128,147157,1,0,0:0:0:0:
352,128,147231,1,8,0:0:0:0:
160,128,147304,1,0,0:0:0:0:
352,128,147377,1,8,0:0:0:0:
160,128,147450,1,0,0:0:0:0:
352,128,147523,1,8,0:0:0:0:
352,128,147596,1,8,0:0:0:0:
160,128,147670,1,0,0:0:0:0:
352,128,147743,1,8,0:0:0:0:
160,128,147816,1,0,0:0:0:0:
160,128,147889,1,0,0:0:0:0:
352,128,147962,1,8,0:0:0:0:
352,128,148035,1,8,0:0:0:0:
160,128,148109,1,0,0:0:0:0:
352,128,148182,1,8,0:0:0:0:
160,128,148255,1,0,0:0:0:0:
160,128,148328,1,0,0:0:0:0:
352,128,148401,1,8,0:0:0:0:
160,128,148475,1,0,0:0:0:0:
352,128,148548,1,8,0:0:0:0:
352,128,148621,1,8,0:0:0:0:
352,128,148694,1,8,0:0:0:0:
160,128,148767,1,0,0:0:0:0:
160,128,148840,1,0,0:0:0:0:
160,128,148914,1,0,0:0:0:0:
352,128,148987,1,8,0:0:0:0:
160,128,149060,1,0,0:0:0:0:
352,128,149133,1,8,0:0:0:0:
352,128,149206,1,8,0:0:0:0:
160,128,149279,1,0,0:0:0:0:
160,128,149353,1,0,0:0:0:0:
160,128,149426,1,0,0:0:0:0:
160,128,149499,1,0,0:0:0:0:
352,128,149572,1,8,0:0:0:0:
352,128,149645,1,8,0:0:0:0:
160,128,149718,1,0,0:0:0:0:
160,128,149792,1,0,0:0:0:0:
352,128,149865,1,8,0:0:0:0:
352,128,149938,1,8,0:0:0:0:
160,128,150011,1,0,0:0:0:0:
352,128,150084,1,8,0:0:0:0:
160,128,150157,1,0,0:0:0:0:
160,128,150231,1,0,0:0:0:0:
352,128,150304,1,8,0:0:0:0:
352,128,150377,1,8,0:0:0:0:
160,128,150450,1,0,0:0:0:0:
160,128,150523,1,0,0:0:0:0:
352,128,150596,1,8,0:0:0:0:
160,128,150670,1,0,0:0:0:0:
352,128,150743,1,8,0:0:0:0:
352,128,150816,1,8,0:0:0:0:
160,128,150889,1,0,0:0:0:0:
160,128,150962,1,0,0:0:0:0:
352,128,151035,1,8,0:0:0:0:
352,128,151109,1,8,0:0:0:0:
160,128,151182,1,0,0:0:0:0:
160,128,151255,1,0,0:0:0:0:
352,128,151328,1,8,0:0:0:0:
160,128,151401,1,0,0:0:0:0:
160,128,151474,1,0,0:0:0:0:
160,128,151548,1,0,0:0:0:0:
352,128,151621,1,8,0:0:0:0:
352,128,151694,1,8,0:0:0:0:
160,128,151767,1,0,0:0:0:0:
160,128,151840,1,0,0:0:0:0:
352,128,151914,1,8,0:0:0:0:
160,128,151987,1,0,0:0:0:0:
160,128,152060,1,0,0:0:0:0:
160,128,152133,1,0,0:0:0:0:
352,128,152207,1,8,0:0:0:0:
352,128,152353,1,8,0:0:0:0:
352,128,152499,1,8,0:0:0:0:
160,128,152792,1,0,0:0:0:0:
352,128,153670,1,8,0:0:0:0:
160,256,153963,1,4,0:0:0:0:
352,128,154255,1,8,0:0:0:0:
160,128,154402,1,0,0:0:0:0:
352,128,154548,1,8,0:0:0:0:
160,128,154841,1,0,0:0:0:0:
160,128,155133,1,0,0:0:0:0:
160,128,155280,1,0,0:0:0:0:
352,128,155426,1,8,0:0:0:0:
352,128,155719,1,8,0:0:0:0:
352,128,156011,1,8,0:0:0:0:
160,128,156158,1,0,0:0:0:0:
352,128,156304,1,8,0:0:0:0:
160,128,156597,1,0,0:0:0:0:
160,128,156889,1,0,0:0:0:0:
160,128,157036,1,0,0:0:0:0:
352,128,157182,1,8,0:0:0:0:
160,128,157328,1,0,0:0:0:0:
352,128,157475,1,8,0:0:0:0:
352,128,157767,1,8,0:0:0:0:
160,128,157914,1,0,0:0:0:0:
352,128,158060,1,8,0:0:0:0:
352,128,158206,1,8,0:0:0:0:
160,128,158353,1,0,0:0:0:0:
160,128,158499,1,0,0:0:0:0:
352,128,158645,1,8,0:0:0:0:
160,128,158792,1,0,0:0:0:0:
352,128,158938,1,8,0:0:0:0:
352,128,159084,1,8,0:0:0:0:
160,128,159231,1,0,0:0:0:0:
352,128,159523,1,8,0:0:0:0:
160,128,159670,1,0,0:0:0:0:
352,128,159816,1,8,0:0:0:0:
160,128,160109,1,0,0:0:0:0:
160,128,160402,1,0,0:0:0:0:
160,128,160548,1,0,0:0:0:0:
352,128,160694,1,8,0:0:0:0:
160,256,160987,1,4,0:0:0:0:
352,128,161280,1,8,0:0:0:0:
160,128,161426,1,0,0:0:0:0:
352,128,161572,1,8,0:0:0:0:
160,128,161865,1,0,0:0:0:0:
160,128,162158,1,0,0:0:0:0:
160,128,162304,1,0,0:0:0:0:
352,128,162450,1,8,0:0:0:0:
352,128,162743,1,8,0:0:0:0:
352,128,163036,1,8,0:0:0:0:
160,128,163182,1,0,0:0:0:0:
352,128,163328,1,8,0:0:0:0:
160,128,163621,1,0,0:0:0:0:
160,128,163914,1,0,0:0:0:0:
160,128,164060,1,0,0:0:0:0:
352,128,164206,1,8,0:0:0:0:
160,128,164353,1,0,0:0:0:0:
352,128,164499,1,8,0:0:0:0:
352,128,164645,1,8,0:0:0:0:
160,128,164792,1,0,0:0:0:0:
160,128,164938,1,0,0:0:0:0:
352,128,165084,1,8,0:0:0:0:
352,128,165231,1,8,0:0:0:0:
160,128,165377,1,0,0:0:0:0:
160,128,165523,1,0,0:0:0:0:
352,128,165670,1,8,0:0:0:0:
160,128,165816,1,0,0:0:0:0:
352,128,165963,1,8,0:0:0:0:
352,128,166109,1,8,0:0:0:0:
160,128,166255,1,0,0:0:0:0:
160,128,166402,1,0,0:0:0:0:
352,128,166548,1,8,0:0:0:0:
352,128,166694,1,8,0:0:0:0:
160,128,166841,1,0,0:0:0:0:
160,128,166987,1,0,0:0:0:0:
352,128,167133,1,8,0:0:0:0:
160,128,167280,1,0,0:0:0:0:
352,128,167426,1,8,0:0:0:0:
352,128,167572,1,8,0:0:0:0:
160,128,167719,1,0,0:0:0:0:
160,128,167865,1,0,0:0:0:0:
352,256,168011,1,12,0:0:0:0:
352,256,168304,1,12,0:0:0:0:
160,128,168597,1,0,0:0:0:0:
160,128,168670,1,0,0:0:0:0:
160,128,168743,1,0,0:0:0:0:
160,128,168816,1,0,0:0:0:0:
352,128,168889,1,8,0:0:0:0:
160,128,169036,1,0,0:0:0:0:
352,128,169182,1,8,0:0:0:0:
352,128,169328,1,8,0:0:0:0:
160,128,169475,1,0,0:0:0:0:
160,128,169548,1,0,0:0:0:0:
160,128,169621,1,0,0:0:0:0:
160,128,169694,1,0,0:0:0:0:
352,128,169767,1,8,0:0:0:0:
160,128,169914,1,0,0:0:0:0:
160,128,170060,1,0,0:0:0:0:
352,128,170206,1,8,0:0:0:0:
160,128,170353,1,0,0:0:0:0:
160,128,170426,1,0,0:0:0:0:
160,128,170499,1,0,0:0:0:0:
160,128,170572,1,0,0:0:0:0:
352,128,170645,1,8,0:0:0:0:
160,128,170792,1,0,0:0:0:0:
352,128,170938,1,8,0:0:0:0:
352,128,171084,1,8,0:0:0:0:
160,128,171231,1,0,0:0:0:0:
160,128,171304,1,0,0:0:0:0:
160,128,171377,1,0,0:0:0:0:
160,128,171450,1,0,0:0:0:0:
352,256,171523,1,12,0:0:0:0:
352,256,171816,1,12,0:0:0:0:
160,128,172109,1,0,0:0:0:0:
160,128,172182,1,0,0:0:0:0:
160,128,172255,1,0,0:0:0:0:
160,128,172328,1,0,0:0:0:0:
352,128,172402,1,8,0:0:0:0:
160,128,172548,1,0,0:0:0:0:
352,128,172694,1,8,0:0:0:0:
352,128,172841,1,8,0:0:0:0:
160,128,172987,1,0,0:0:0:0:
160,128,173060,1,0,0:0:0:0:
160,128,173133,1,0,0:0:0:0:
160,128,173206,1,0,0:0:0:0:
352,128,173280,1,8,0:0:0:0:
352,128,173426,1,8,0:0:0:0:
352,128,173572,1,8,0:0:0:0:
352,128,173719,1,8,0:0:0:0:
160,128,173865,1,0,0:0:0:0:
160,128,173938,1,0,0:0:0:0:
160,128,174011,1,0,0:0:0:0:
160,128,174084,1,0,0:0:0:0:
352,128,174158,1,8,0:0:0:0:
352,128,174231,1,8,0:0:0:0:
160,128,174304,1,0,0:0:0:0:
160,128,174377,1,0,0:0:0:0:
352,128,174450,1,8,0:0:0:0:
352,128,174523,1,8,0:0:0:0:
160,128,174597,1,0,0:0:0:0:
160,128,174670,1,0,0:0:0:0:
352,128,174743,1,8,0:0:0:0:
352,128,174816,1,8,0:0:0:0:
160,128,174889,1,0,0:0:0:0:
160,128,174962,1,0,0:0:0:0:
352,128,175036,1,8,0:0:0:0:
352,128,175109,1,8,0:0:0:0:
352,128,175182,1,8,0:0:0:0:
352,128,175255,1,8,0:0:0:0:
352,128,175328,1,8,0:0:0:0:
352,128,175402,1,8,0:0:0:0:
352,128,175475,1,8,0:0:0:0:
352,128,175548,1,8,0:0:0:0:
352,128,175621,1,8,0:0:0:0:
352,128,175694,1,8,0:0:0:0:
352,128,175767,1,8,0:0:0:0:
352,128,175841,1,8,0:0:0:0:
160,128,175914,1,0,0:0:0:0:
160,128,175987,1,0,0:0:0:0:
160,128,176060,1,0,0:0:0:0:
160,128,176133,1,0,0:0:0:0:
160,128,176206,1,0,0:0:0:0:
160,128,176280,1,0,0:0:0:0:
160,128,176353,1,0,0:0:0:0:
160,128,176426,1,0,0:0:0:0:
352,128,176499,1,8,0:0:0:0:
352,128,176572,1,8,0:0:0:0:
352,128,176645,1,8,0:0:0:0:
352,128,176719,1,8,0:0:0:0:
160,128,176792,1,0,0:0:0:0:
160,128,176865,1,0,0:0:0:0:
160,128,176938,1,0,0:0:0:0:
160,128,177011,1,0,0:0:0:0:
160,128,177084,1,0,0:0:0:0:
160,128,177158,1,0,0:0:0:0:
160,128,177231,1,0,0:0:0:0:
160,128,177304,1,0,0:0:0:0:
160,128,177377,1,0,0:0:0:0:
160,128,177450,1,0,0:0:0:0:
160,128,177523,1,0,0:0:0:0:
160,128,177597,1,0,0:0:0:0:
352,128,177670,1,8,0:0:0:0:
352,128,177743,1,8,0:0:0:0:
352,128,177816,1,8,0:0:0:0:
352,128,177889,1,8,0:0:0:0:
352,128,177962,1,8,0:0:0:0:
352,128,178036,1,8,0:0:0:0:
352,128,178109,1,8,0:0:0:0:
352,128,178182,1,8,0:0:0:0:
160,128,178255,1,0,0:0:0:0:
160,128,178328,1,0,0:0:0:0:
160,128,178402,1,0,0:0:0:0:
160,128,178475,1,0,0:0:0:0:
352,128,178548,1,8,0:0:0:0:
352,128,178621,1,8,0:0:0:0:
352,128,178694,1,8,0:0:0:0:
352,128,178767,1,8,0:0:0:0:
352,128,178841,1,8,0:0:0:0:
352,128,178914,1,8,0:0:0:0:
352,128,178987,1,8,0:0:0:0:
352,128,179060,1,8,0:0:0:0:
352,128,179133,1,8,0:0:0:0:
352,128,179206,1,8,0:0:0:0:
352,128,179280,1,8,0:0:0:0:
352,128,179353,1,8,0:0:0:0:
160,128,179426,1,0,0:0:0:0:
160,128,179499,1,0,0:0:0:0:
160,128,179572,1,0,0:0:0:0:
160,128,179645,1,0,0:0:0:0:
160,128,179719,1,0,0:0:0:0:
160,128,179792,1,0,0:0:0:0:
160,128,179865,1,0,0:0:0:0:
160,128,179938,1,0,0:0:0:0:
160,128,180011,1,0,0:0:0:0:
160,128,180084,1,0,0:0:0:0:
160,128,180158,1,0,0:0:0:0:
160,128,180231,1,0,0:0:0:0:
352,128,180304,1,8,0:0:0:0:
352,128,180377,1,8,0:0:0:0:
352,128,180450,1,8,0:0:0:0:
352,128,180523,1,8,0:0:0:0:
352,128,180597,1,8,0:0:0:0:
352,128,180670,1,8,0:0:0:0:
352,128,180743,1,8,0:0:0:0:
352,128,180816,1,8,0:0:0:0:
352,128,180889,1,8,0:0:0:0:
352,128,180962,1,8,0:0:0:0:
352,128,181036,1,8,0:0:0:0:
352,128,181109,1,8,0:0:0:0:
160,128,181182,1,0,0:0:0:0:
160,128,181255,1,0,0:0:0:0:
160,128,181328,1,0,0:0:0:0:
160,128,181402,1,0,0:0:0:0:
160,128,181475,1,0,0:0:0:0:
160,128,181548,1,0,0:0:0:0:
160,128,181621,1,0,0:0:0:0:
160,128,181694,1,0,0:0:0:0:
160,128,181767,1,0,0:0:0:0:
160,128,181841,1,0,0:0:0:0:
160,128,181914,1,0,0:0:0:0:
160,128,181987,1,0,0:0:0:0:
352,128,182061,1,8,0:0:0:0:
352,128,182207,1,8,0:0:0:0:
352,128,182353,1,8,0:0:0:0:
352,128,182500,1,8,0:0:0:0:
352,128,182646,1,8,0:0:0:0:
352,128,182792,1,8,0:0:0:0:
352,128,182939,1,8,0:0:0:0:
160,128,183231,1,0,0:0:0:0:
352,128,184109,1,8,0:0:0:0:
160,256,184402,1,4,0:0:0:0:
160,128,184548,1,0,0:0:0:0:
160,128,184694,1,0,0:0:0:0:
352,128,184841,1,8,0:0:0:0:
352,128,184914,1,8,0:0:0:0:
352,128,184987,1,8,0:0:0:0:
160,128,185133,1,0,0:0:0:0:
352,128,185280,1,8,0:0:0:0:
160,128,185426,1,0,0:0:0:0:
160,128,185572,1,0,0:0:0:0:
352,128,185719,1,8,0:0:0:0:
160,128,185865,1,0,0:0:0:0:
352,128,186011,1,8,0:0:0:0:
160,128,186084,1,0,0:0:0:0:
352,128,186158,1,8,0:0:0:0:
160,128,186304,1,0,0:0:0:0:
352,128,186450,1,8,0:0:0:0:
352,128,186597,1,8,0:0:0:0:
160,128,186743,1,0,0:0:0:0:
160,128,186889,1,0,0:0:0:0:
160,128,187036,1,0,0:0:0:0:
352,128,187182,1,8,0:0:0:0:
352,128,187255,1,8,0:0:0:0:
352,128,187328,1,8,0:0:0:0:
160,128,187475,1,0,0:0:0:0:
352,128,187621,1,8,0:0:0:0:
160,128,187767,1,0,0:0:0:0:
160,128,187914,1,0,0:0:0:0:
352,128,188060,1,8,0:0:0:0:
160,128,188206,1,0,0:0:0:0:
352,128,188353,1,8,0:0:0:0:
352,128,188426,1,8,0:0:0:0:
160,128,188499,1,0,0:0:0:0:
352,128,188645,1,8,0:0:0:0:
352,128,188792,1,8,0:0:0:0:
160,128,188865,1,0,0:0:0:0:
352,128,188938,1,8,0:0:0:0:
160,128,189084,1,0,0:0:0:0:
160,128,189231,1,0,0:0:0:0:
160,128,189377,1,0,0:0:0:0:
352,128,189523,1,8,0:0:0:0:
352,128,189597,1,8,0:0:0:0:
352,128,189670,1,8,0:0:0:0:
160,128,189816,1,0,0:0:0:0:
352,128,189962,1,8,0:0:0:0:
160,128,190109,1,0,0:0:0:0:
160,128,190255,1,0,0:0:0:0:
352,128,190402,1,8,0:0:0:0:
160,128,190548,1,0,0:0:0:0:
352,128,190694,1,8,0:0:0:0:
160,128,190767,1,0,0:0:0:0:
352,128,190841,1,8,0:0:0:0:
160,128,190987,1,0,0:0:0:0:
352,128,191133,1,8,0:0:0:0:
352,128,191280,1,8,0:0:0:0:
160,128,191426,1,0,0:0:0:0:
160,128,191572,1,0,0:0:0:0:
160,128,191719,1,0,0:0:0:0:
352,128,191865,1,8,0:0:0:0:
352,128,191938,1,8,0:0:0:0:
352,128,192011,1,8,0:0:0:0:
160,128,192158,1,0,0:0:0:0:
352,128,192304,1,8,0:0:0:0:
160,128,192450,1,0,0:0:0:0:
352,128,192597,1,8,0:0:0:0:
352,128,192670,1,8,0:0:0:0:
352,128,192743,1,8,0:0:0:0:
352,128,192816,1,8,0:0:0:0:
160,128,192889,1,0,0:0:0:0:
352,128,193036,1,8,0:0:0:0:
160,128,193182,1,0,0:0:0:0:
160,128,193255,1,0,0:0:0:0:
352,128,193328,1,8,0:0:0:0:
352,128,193402,1,8,0:0:0:0:
352,128,193475,1,8,0:0:0:0:
160,128,193767,1,0,0:0:0:0:
160,128,193841,1,0,0:0:0:0:
160,128,193914,1,0,0:0:0:0:
160,128,193987,1,0,0:0:0:0:
352,128,194060,1,8,0:0:0:0:
352,128,194133,1,8,0:0:0:0:
352,128,194206,1,8,0:0:0:0:
352,128,194280,1,8,0:0:0:0:
160,128,194353,1,0,0:0:0:0:
160,128,194426,1,0,0:0:0:0:
160,128,194499,1,0,0:0:0:0:
160,128,194572,1,0,0:0:0:0:
352,128,194645,1,8,0:0:0:0:
352,128,194719,1,8,0:0:0:0:
352,128,194792,1,8,0:0:0:0:
352,128,194865,1,8,0:0:0:0:
160,128,194938,1,0,0:0:0:0:
160,128,195011,1,0,0:0:0:0:
160,128,195084,1,0,0:0:0:0:
160,128,195158,1,0,0:0:0:0:
352,128,195231,1,8,0:0:0:0:
352,128,195304,1,8,0:0:0:0:
352,128,195377,1,8,0:0:0:0:
352,128,195450,1,8,0:0:0:0:
160,128,195523,1,0,0:0:0:0:
160,128,195597,1,0,0:0:0:0:
160,128,195670,1,0,0:0:0:0:
160,128,195743,1,0,0:0:0:0:
352,128,195816,1,8,0:0:0:0:
352,128,195889,1,8,0:0:0:0:
352,128,195962,1,8,0:0:0:0:
352,128,196036,1,8,0:0:0:0:
160,128,196109,1,0,0:0:0:0:
160,128,196182,1,0,0:0:0:0:
160,128,196255,1,0,0:0:0:0:
160,128,196328,1,0,0:0:0:0:
352,128,196402,1,8,0:0:0:0:
352,128,196475,1,8,0:0:0:0:
160,128,196548,1,0,0:0:0:0:
352,128,196621,1,8,0:0:0:0:
160,128,196694,1,0,0:0:0:0:
160,128,196767,1,0,0:0:0:0:
160,128,196841,1,0,0:0:0:0:
160,128,196914,1,0,0:0:0:0:
352,128,196987,1,8,0:0:0:0:
352,128,197060,1,8,0:0:0:0:
352,128,197133,1,8,0:0:0:0:
352,128,197206,1,8,0:0:0:0:
160,128,197280,1,0,0:0:0:0:
160,128,197353,1,0,0:0:0:0:
160,128,197426,1,0,0:0:0:0:
160,128,197499,1,0,0:0:0:0:
352,128,197572,1,8,0:0:0:0:
352,128,197645,1,8,0:0:0:0:
160,128,197719,1,0,0:0:0:0:
352,128,197792,1,8,0:0:0:0:
160,128,197865,1,0,0:0:0:0:
160,128,197938,1,0,0:0:0:0:
160,128,198011,1,0,0:0:0:0:
160,128,198084,1,0,0:0:0:0:
352,128,198158,1,8,0:0:0:0:
352,128,198231,1,8,0:0:0:0:
352,128,198304,1,8,0:0:0:0:
352,128,198377,1,8,0:0:0:0:
160,128,198450,1,0,0:0:0:0:
160,128,198523,1,0,0:0:0:0:
160,128,198597,1,0,0:0:0:0:
160,128,198670,1,0,0:0:0:0:
352,128,198743,1,8,0:0:0:0:
352,128,198816,1,8,0:0:0:0:
160,128,198889,1,0,0:0:0:0:
352,128,198962,1,8,0:0:0:0:
160,128,199036,1,0,0:0:0:0:
160,128,199109,1,0,0:0:0:0:
352,128,199182,1,8,0:0:0:0:
160,128,199255,1,0,0:0:0:0:
352,128,199328,1,8,0:0:0:0:
352,128,199402,1,8,0:0:0:0:
352,128,199475,1,8,0:0:0:0:
352,128,199548,1,8,0:0:0:0:
160,128,199621,1,0,0:0:0:0:
160,128,199694,1,0,0:0:0:0:
160,128,199767,1,0,0:0:0:0:
160,128,199841,1,0,0:0:0:0:
352,128,199914,1,8,0:0:0:0:
352,128,199987,1,8,0:0:0:0:
160,128,200060,1,0,0:0:0:0:
352,128,200133,1,8,0:0:0:0:
160,128,200206,1,0,0:0:0:0:
160,128,200280,1,0,0:0:0:0:
352,128,200353,1,8,0:0:0:0:
160,128,200426,1,0,0:0:0:0:
352,128,200499,1,8,0:0:0:0:
352,128,200572,1,8,0:0:0:0:
352,128,200645,1,8,0:0:0:0:
352,128,200719,1,8,0:0:0:0:
160,128,200792,1,0,0:0:0:0:
160,128,200865,1,0,0:0:0:0:
160,128,200938,1,0,0:0:0:0:
160,128,201011,1,0,0:0:0:0:
352,128,201084,1,8,0:0:0:0:
352,128,201158,1,8,0:0:0:0:
160,128,201231,1,0,0:0:0:0:
352,128,201304,1,8,0:0:0:0:
160,128,201377,1,0,0:0:0:0:
160,128,201450,1,0,0:0:0:0:
352,128,201523,1,8,0:0:0:0:
160,128,201597,1,0,0:0:0:0:
352,128,201670,1,8,0:0:0:0:
352,128,201743,1,8,0:0:0:0:
160,128,201816,1,0,0:0:0:0:
160,128,201889,1,0,0:0:0:0:
352,128,201962,1,8,0:0:0:0:
352,128,202036,1,8,0:0:0:0:
352,128,202109,1,8,0:0:0:0:
352,128,202182,1,8,0:0:0:0:
160,128,202255,1,0,0:0:0:0:
160,128,202328,1,0,0:0:0:0:
352,128,202401,1,8,0:0:0:0:
352,128,202475,1,8,0:0:0:0:
160,128,202548,1,0,0:0:0:0:
160,128,202621,1,0,0:0:0:0:
352,128,202694,1,8,0:0:0:0:
352,128,202767,1,8,0:0:0:0:
352,128,202841,1,8,0:0:0:0:
160,256,203133,1,4,0:0:0:0:
160,128,205475,1,0,0:0:0:0:
160,128,205914,1,0,0:0:0:0:
352,128,206645,1,8,0:0:0:0:
352,128,207084,1,8,0:0:0:0:
352,128,207523,1,8,0:0:0:0:
352,128,207816,1,8,0:0:0:0:
160,128,210158,1,0,0:0:0:0:
160,128,210304,1,0,0:0:0:0:
160,128,210450,1,0,0:0:0:0:
160,128,210597,1,0,0:0:0:0:
160,128,210743,1,0,0:0:0:0:
160,128,210889,1,0,0:0:0:0:
160,128,211036,1,0,0:0:0:0:
160,128,211182,1,0,0:0:0:0:
160,128,211328,1,0,0:0:0:0:
160,128,211475,1,0,0:0:0:0:
160,128,211621,1,0,0:0:0:0:
160,128,211767,1,0,0:0:0:0:
160,128,211914,1,0,0:0:0:0:
160,128,212060,1,0,0:0:0:0:
352,128,212206,1,8,0:0:0:0:
352,128,212353,1,8,0:0:0:0:
