osu file format v14

[General]
AudioFilename: audio.mp3
AudioLeadIn: 0
PreviewTime: 11693
Countdown: 0
SampleSet: Normal
StackLeniency: 0.7
Mode: 1
LetterboxInBreaks: 0
WidescreenStoryboard: 1

[Editor]
Bookmarks: 20474,45936,55302,65327,74620,88668,103083,121741,133449,153937,167912,184376,193741
DistanceSpacing: 0.75
BeatDivisor: 4
GridSize: 32
TimelineZoom: 2.799999

[Metadata]
Title:Immortality Math Club
TitleUnicode:Immortality Math Club
Artist:Marmalade butcher
ArtistUnicode:Marmalade butcher
Creator:Eyenine
Version:Futsuu
Source:
Tags:featured artist fa math rock instrumental uteruchesis 不可説records fukasetsu records maniku マ肉
BeatmapID:3985031
BeatmapSetID:1762209

[Difficulty]
HPDrainRate:7
CircleSize:5
OverallDifficulty:4
ApproachRate:8
SliderMultiplier:1.4
SliderTickRate:1

[Events]
//Background and Video events
0,0,"9710002_10.jpeg",0,-10
//Break Periods
2,36797,45212
2,103236,110481
//Storyboard Layer 0 (Background)
//Storyboard Layer 1 (Fail)
//Storyboard Layer 2 (Pass)
//Storyboard Layer 3 (Foreground)
//Storyboard Layer 4 (Overlay)
//Storyboard Sound Samples

[TimingPoints]
-3499,292.682926829268,4,1,0,80,1,0
891,-100,4,1,0,80,0,0
1183,-100,4,1,0,90,0,0
11061,-100,4,1,0,75,0,0
11719,292.682926829268,7,1,0,90,1,1
11719,-100,7,1,0,90,0,1
13767,292.682926829268,7,1,0,90,1,9
13768,292.682926829268,8,1,0,90,1,1
13768,-100,8,1,0,90,0,1
16109,292.682926829268,7,1,0,90,1,1
16109,-100,7,1,0,90,0,1
18157,292.682926829268,7,1,0,90,1,9
18158,292.682926829268,4,1,0,90,1,1
18158,-100,8,1,0,90,0,1
19328,-100,8,1,0,80,0,0
19911,-100,4,1,0,90,0,0
20499,292.682926829268,4,1,0,80,1,8
20500,292.682926829268,4,1,0,80,1,0
20500,-100,4,1,0,80,0,0
20573,-100,4,1,0,80,0,0
24890,292.682926829268,4,1,0,80,1,0
24890,-100,4,1,0,80,0,0
24963,-100,4,1,0,80,0,0
29572,292.682926829268,4,1,0,90,1,8
29573,292.682926829268,6,1,0,90,1,1
29573,-100,4,1,0,90,0,1
36012,-100,6,1,0,70,0,0
36597,292.682926829268,4,1,0,50,1,0
36597,-100,4,1,0,50,0,0
45889,-100,4,1,0,60,0,0
55255,-100,4,1,0,65,0,0
64694,292.682926829268,4,1,0,65,1,8
65279,292.682926829268,4,1,0,70,1,8
65280,292.682926829268,4,1,0,70,1,0
65280,-100,4,1,0,70,0,0
72301,-100,4,1,0,70,0,0
72447,-100,4,1,0,71,0,0
72594,-100,4,1,0,73,0,0
72886,-100,4,1,0,75,0,0
73033,-100,4,1,0,77,0,0
73106,-100,4,1,0,77,0,0
73179,-100,4,1,0,78,0,0
74645,292.682926829268,6,1,0,70,1,8
74646,292.682926829268,6,1,0,70,1,0
74646,-100,6,1,0,70,0,0
88691,-100,6,1,0,90,0,0
92206,292.682926829268,5,1,0,90,1,8
92207,292.682926829268,5,1,0,90,1,0
92207,-100,5,1,0,90,0,0
95133,292.682926829268,4,1,0,90,1,8
95134,292.682926829268,4,1,0,90,1,8
95134,-100,4,1,0,90,0,8
95719,292.682926829268,6,1,0,90,1,0
95719,-100,6,1,0,90,0,0
99231,292.682926829268,5,1,0,90,1,0
99231,-100,5,1,0,90,0,0
100694,292.682926829268,5,1,0,90,1,8
100695,292.682926829268,4,1,0,90,1,0
100695,-100,5,1,0,90,0,0
102377,-100,5,1,0,75,0,0
103036,292.682926829268,4,1,0,75,1,0
103036,-100,4,1,0,75,0,0
103182,-100,4,1,0,50,0,0
111743,-100,4,1,0,60,0,0
112401,-100,4,1,0,70,0,0
131060,-100,4,1,0,60,0,0
132816,-100,4,1,0,80,0,0
133475,292.682926829268,4,1,0,100,1,1
133475,-100,4,1,0,100,0,1
152206,292.682926829268,6,1,0,80,1,8
152207,292.682926829268,6,1,0,80,1,0
152207,-100,6,1,0,80,0,8
153963,292.682926829268,3,1,0,90,1,0
153963,-100,3,1,0,90,0,0
168011,-100,3,1,0,90,0,1
182060,292.682926829268,3,1,0,90,1,8
182061,292.682926829268,4,1,0,75,1,0
182061,-100,4,1,0,75,0,0
182936,-100,4,1,0,90,0,0
183228,-100,4,1,0,50,0,0
184109,-100,4,1,0,70,0,0
184402,292.682926829268,4,1,0,80,1,0
193767,-100,4,1,0,80,0,1
203133,-100,4,1,0,80,0,0
203280,-100,4,1,0,70,0,0
210155,-100,4,1,0,50,0,0
210447,-100,4,1,0,54,0,0
210740,-100,4,1,0,58,0,0
211033,-100,4,1,0,62,0,0
211322,-100,4,1,0,66,0,0
211618,-100,4,1,0,75,0,0
211911,-100,4,1,0,83,0,0
212057,-100,4,1,0,87,0,0
212203,-100,4,1,0,91,0,0
212350,-100,4,1,0,96,0,0
212496,-100,4,1,0,100,0,0

[HitObjects]
352,128,1183,5,8,0:0:0:0:
352,128,1476,1,8,0:0:0:0:
352,128,1769,1,8,0:0:0:0:
352,128,2061,1,8,0:0:0:0:
352,128,2354,1,8,0:0:0:0:
352,128,2647,1,8,0:0:0:0:
352,128,2940,1,8,0:0:0:0:
352,128,3232,1,8,0:0:0:0:
352,128,3525,1,8,0:0:0:0:
352,128,3818,1,8,0:0:0:0:
352,128,4110,1,8,0:0:0:0:
352,128,4403,1,8,0:0:0:0:
352,128,4696,1,8,0:0:0:0:
352,128,5866,1,8,0:0:0:0:
352,128,6159,1,8,0:0:0:0:
352,128,6452,1,8,0:0:0:0:
352,128,6744,1,8,0:0:0:0:
352,128,7037,1,8,0:0:0:0:
352,128,7330,1,8,0:0:0:0:
352,128,7622,1,8,0:0:0:0:
352,128,7915,1,8,0:0:0:0:
352,128,8208,1,8,0:0:0:0:
352,128,8500,1,8,0:0:0:0:
352,128,8793,1,8,0:0:0:0:
352,128,9086,1,8,0:0:0:0:
352,256,9379,1,12,0:0:0:0:
160,256,9525,1,4,0:0:0:0:
352,256,9818,1,12,0:0:0:0:
160,256,10110,1,4,0:0:0:0:
352,256,10403,1,12,0:0:0:0:
160,256,10549,1,4,0:0:0:0:
160,256,11720,1,4,0:0:0:0:
352,256,12158,1,12,0:0:0:0:
160,128,12450,1,0,0:0:0:0:
352,128,12597,1,8,0:0:0:0:
160,128,12889,1,0,0:0:0:0:
352,128,13182,1,8,0:0:0:0:
352,128,13328,1,8,0:0:0:0:
160,128,13475,1,0,0:0:0:0:
160,256,13768,1,4,0:0:0:0:
352,256,14207,1,12,0:0:0:0:
160,128,14499,1,0,0:0:0:0:
352,128,14646,1,8,0:0:0:0:
160,128,14938,1,0,0:0:0:0:
352,128,15085,1,8,0:0:0:0:
160,128,15231,1,0,0:0:0:0:
352,128,15524,1,8,0:0:0:0:
160,128,15670,1,0,0:0:0:0:
352,128,15816,1,8,0:0:0:0:
160,256,16109,1,4,0:0:0:0:
352,256,16548,1,12,0:0:0:0:
160,128,16840,1,0,0:0:0:0:
352,128,16987,1,8,0:0:0:0:
160,128,17279,1,0,0:0:0:0:
352,128,17572,1,8,0:0:0:0:
352,128,17718,1,8,0:0:0:0:
160,128,17865,1,0,0:0:0:0:
160,256,18158,1,4,0:0:0:0:
352,256,18597,1,12,0:0:0:0:
160,128,18889,1,0,0:0:0:0:
352,128,19036,1,8,0:0:0:0:
160,128,19328,1,4,0:0:0:0:
352,128,19914,1,8,0:0:0:0:
352,128,20206,1,8,0:0:0:0:
160,256,20500,5,4,0:0:0:0:
352,128,20939,1,8,0:0:0:0:
160,128,21231,1,0,0:0:0:0:
160,128,21378,1,0,0:0:0:0:
352,128,21817,1,8,0:0:0:0:
160,128,22109,1,0,0:0:0:0:
352,128,22256,1,8,0:0:0:0:
352,128,22548,1,8,0:0:0:0:
160,128,22841,1,0,0:0:0:0:
352,128,23280,1,8,0:0:0:0:
160,128,23573,1,0,0:0:0:0:
160,128,23719,1,0,0:0:0:0:
352,128,24158,1,8,0:0:0:0:
160,128,24451,1,0,0:0:0:0:
352,128,24597,1,8,0:0:0:0:
160,256,24890,1,4,0:0:0:0:
352,128,25329,1,8,0:0:0:0:
160,128,25621,1,0,0:0:0:0:
160,128,25768,1,0,0:0:0:0:
352,128,26207,1,8,0:0:0:0:
160,128,26499,1,0,0:0:0:0:
352,128,26646,1,8,0:0:0:0:
352,128,26938,1,8,0:0:0:0:
160,128,27231,1,0,0:0:0:0:
352,128,27670,1,8,0:0:0:0:
160,128,27963,1,0,0:0:0:0:
160,128,28109,1,0,0:0:0:0:
352,128,28402,1,8,0:0:0:0:
160,128,28694,1,0,0:0:0:0:
160,128,28841,1,0,0:0:0:0:
160,128,28987,1,0,0:0:0:0:
352,256,29573,5,12,0:0:0:0:
352,256,30012,1,12,0:0:0:0:
160,128,30304,1,0,0:0:0:0:
160,128,30451,1,0,0:0:0:0:
352,128,30743,1,8,0:0:0:0:
352,128,30890,1,8,0:0:0:0:
352,128,31036,1,8,0:0:0:0:
352,256,31329,1,12,0:0:0:0:
352,256,31768,1,12,0:0:0:0:
160,128,32060,1,0,0:0:0:0:
160,128,32207,1,0,0:0:0:0:
352,128,32499,1,8,0:0:0:0:
352,128,32646,1,8,0:0:0:0:
352,128,32792,1,8,0:0:0:0:
352,256,33085,1,12,0:0:0:0:
352,256,33524,1,12,0:0:0:0:
160,128,33816,1,0,0:0:0:0:
160,128,33963,1,0,0:0:0:0:
352,128,34255,1,8,0:0:0:0:
352,128,34402,1,8,0:0:0:0:
352,128,34548,1,8,0:0:0:0:
352,256,34841,1,12,0:0:0:0:
352,256,35280,1,12,0:0:0:0:
160,128,35572,1,0,0:0:0:0:
160,128,35719,1,0,0:0:0:0:
160,128,36012,1,0,0:0:0:0:
160,128,36158,1,0,0:0:0:0:
160,128,36304,1,0,0:0:0:0:
160,256,36597,1,4,0:0:0:0:
160,128,45962,5,0,0:0:0:0:
352,128,46401,1,8,0:0:0:0:
352,128,46840,1,8,0:0:0:0:
160,128,47133,1,0,0:0:0:0:
160,128,47426,1,0,0:0:0:0:
352,128,47718,1,8,0:0:0:0:
160,128,48304,1,0,0:0:0:0:
352,128,48743,1,8,0:0:0:0:
352,128,49182,1,8,0:0:0:0:
160,128,49475,1,0,0:0:0:0:
160,128,49767,1,0,0:0:0:0:
160,128,50060,1,0,0:0:0:0:
352,128,50206,1,8,0:0:0:0:
352,128,50353,1,8,0:0:0:0:
160,128,50645,1,0,0:0:0:0:
352,128,51084,1,8,0:0:0:0:
352,128,51523,1,8,0:0:0:0:
160,128,51816,1,0,0:0:0:0:
160,128,52109,1,0,0:0:0:0:
352,128,52401,1,8,0:0:0:0:
160,128,52987,1,0,0:0:0:0:
352,128,53426,1,8,0:0:0:0:
352,128,53865,1,8,0:0:0:0:
160,128,54157,1,0,0:0:0:0:
160,128,54450,1,0,0:0:0:0:
160,128,54743,1,0,0:0:0:0:
352,128,54889,1,8,0:0:0:0:
352,128,55036,1,8,0:0:0:0:
160,128,55328,5,0,0:0:0:0:
160,128,55914,1,0,0:0:0:0:
160,128,56060,1,0,0:0:0:0:
352,128,56353,1,8,0:0:0:0:
160,128,56499,1,0,0:0:0:0:
160,128,56645,1,0,0:0:0:0:
352,128,56792,1,8,0:0:0:0:
160,128,57084,1,0,0:0:0:0:
160,128,57231,1,0,0:0:0:0:
352,128,57377,1,8,0:0:0:0:
160,128,57670,1,0,0:0:0:0:
352,128,57962,1,8,0:0:0:0:
160,128,58255,1,0,0:0:0:0:
160,128,58401,1,0,0:0:0:0:
352,128,58694,1,8,0:0:0:0:
352,128,58840,1,8,0:0:0:0:
160,128,58987,1,0,0:0:0:0:
352,128,59133,1,8,0:0:0:0:
160,128,59426,1,0,0:0:0:0:
352,128,59572,1,8,0:0:0:0:
352,128,59718,1,8,0:0:0:0:
160,128,60011,1,0,0:0:0:0:
160,128,60596,1,0,0:0:0:0:
160,128,60743,1,0,0:0:0:0:
352,128,61036,1,8,0:0:0:0:
160,128,61182,1,0,0:0:0:0:
160,128,61328,1,0,0:0:0:0:
352,128,61475,1,8,0:0:0:0:
160,128,61767,1,0,0:0:0:0:
160,128,61914,1,0,0:0:0:0:
352,128,62060,1,8,0:0:0:0:
160,128,62353,1,0,0:0:0:0:
352,128,62645,1,8,0:0:0:0:
160,128,62938,1,0,0:0:0:0:
160,128,63084,1,0,0:0:0:0:
352,128,63377,1,8,0:0:0:0:
352,128,63523,1,8,0:0:0:0:
160,128,63670,1,0,0:0:0:0:
352,128,63816,1,8,0:0:0:0:
160,128,64109,1,0,0:0:0:0:
352,128,64255,1,8,0:0:0:0:
352,128,64401,1,8,0:0:0:0:
160,128,64694,1,0,0:0:0:0:
352,256,65280,5,12,0:0:0:0:
160,128,65572,1,0,0:0:0:0:
160,128,65865,1,0,0:0:0:0:
160,128,66011,1,0,0:0:0:0:
160,128,66158,1,0,0:0:0:0:
352,128,66450,1,8,0:0:0:0:
160,128,66743,1,0,0:0:0:0:
352,128,66889,1,8,0:0:0:0:
160,128,67182,1,0,0:0:0:0:
352,128,67328,1,8,0:0:0:0:
352,128,67621,1,8,0:0:0:0:
160,128,67914,1,0,0:0:0:0:
160,128,68206,1,0,0:0:0:0:
160,128,68353,1,0,0:0:0:0:
160,128,68499,1,0,0:0:0:0:
352,128,68792,1,8,0:0:0:0:
160,128,69084,1,0,0:0:0:0:
352,128,69231,1,8,0:0:0:0:
352,256,69962,1,12,0:0:0:0:
160,128,70255,1,0,0:0:0:0:
160,128,70548,1,0,0:0:0:0:
160,128,70694,1,0,0:0:0:0:
160,128,70840,1,0,0:0:0:0:
352,128,71133,1,8,0:0:0:0:
160,128,71426,1,0,0:0:0:0:
352,128,71572,1,8,0:0:0:0:
160,128,71865,1,0,0:0:0:0:
352,128,72011,1,8,0:0:0:0:
160,128,72304,1,0,0:0:0:0:
160,128,72450,1,0,0:0:0:0:
352,128,72597,1,8,0:0:0:0:
352,128,72889,1,8,0:0:0:0:
160,128,73182,1,0,0:0:0:0:
352,128,73328,1,8,0:0:0:0:
352,128,73621,1,8,0:0:0:0:
160,128,73914,1,0,0:0:0:0:
352,128,74060,1,8,0:0:0:0:
352,128,74353,1,8,0:0:0:0:
352,128,74499,1,8,0:0:0:0:
160,128,74646,1,0,0:0:0:0:
160,128,75231,1,0,0:0:0:0:
160,128,76109,1,0,0:0:0:0:
160,128,76402,1,0,0:0:0:0:
160,128,76987,1,0,0:0:0:0:
160,128,77865,1,0,0:0:0:0:
160,128,78158,1,0,0:0:0:0:
160,128,78743,1,0,0:0:0:0:
160,128,79621,1,0,0:0:0:0:
160,128,79914,1,0,0:0:0:0:
160,128,80499,1,0,0:0:0:0:
160,128,81377,1,0,0:0:0:0:
160,256,81670,1,4,0:0:0:0:
352,128,81963,1,8,0:0:0:0:
160,128,82255,1,0,0:0:0:0:
352,128,82402,1,8,0:0:0:0:
160,128,82548,1,0,0:0:0:0:
352,128,82841,1,8,0:0:0:0:
160,128,83133,1,0,0:0:0:0:
160,128,83426,1,0,0:0:0:0:
352,128,83719,1,8,0:0:0:0:
160,128,84011,1,0,0:0:0:0:
352,128,84158,1,8,0:0:0:0:
160,128,84304,1,0,0:0:0:0:
352,128,84597,1,8,0:0:0:0:
352,128,84889,1,8,0:0:0:0:
160,128,85182,1,0,0:0:0:0:
352,128,85475,1,8,0:0:0:0:
160,128,85767,1,0,0:0:0:0:
352,128,85914,1,8,0:0:0:0:
160,128,86060,1,0,0:0:0:0:
352,128,86353,1,8,0:0:0:0:
160,128,86645,1,0,0:0:0:0:
160,128,86938,1,0,0:0:0:0:
352,128,87231,1,8,0:0:0:0:
160,128,87524,1,0,0:0:0:0:
352,128,87670,1,8,0:0:0:0:
160,128,87816,1,0,0:0:0:0:
352,128,88109,1,8,0:0:0:0:
160,256,88694,1,4,0:0:0:0:
352,128,88987,1,8,0:0:0:0:
160,128,89280,1,0,0:0:0:0:
352,128,89426,1,8,0:0:0:0:
160,128,89572,1,0,0:0:0:0:
352,128,89865,1,8,0:0:0:0:
352,128,90011,1,8,0:0:0:0:
352,128,90158,1,8,0:0:0:0:
160,256,90450,1,4,0:0:0:0:
352,128,90743,1,8,0:0:0:0:
352,128,91036,1,8,0:0:0:0:
352,128,91182,1,8,0:0:0:0:
160,128,91328,1,0,0:0:0:0:
352,128,91621,1,8,0:0:0:0:
160,128,91914,1,0,0:0:0:0:
160,256,92207,1,4,0:0:0:0:
352,128,92499,1,8,0:0:0:0:
160,128,92792,1,0,0:0:0:0:
352,128,92938,1,8,0:0:0:0:
160,128,93085,1,0,0:0:0:0:
160,128,93377,1,0,0:0:0:0:
160,256,93670,1,4,0:0:0:0:
352,128,93963,1,8,0:0:0:0:
160,128,94255,1,0,0:0:0:0:
352,128,94402,1,8,0:0:0:0:
352,128,94548,1,8,0:0:0:0:
160,128,94841,1,0,0:0:0:0:
352,128,95134,1,8,0:0:0:0:
160,256,95719,1,4,0:0:0:0:
352,128,96011,1,8,0:0:0:0:
160,128,96304,1,0,0:0:0:0:
352,128,96450,1,8,0:0:0:0:
160,128,96597,1,0,0:0:0:0:
352,128,96889,1,8,0:0:0:0:
352,128,97036,1,8,0:0:0:0:
352,128,97182,1,8,0:0:0:0:
160,256,97475,1,4,0:0:0:0:
352,128,97767,1,8,0:0:0:0:
160,128,98060,1,0,0:0:0:0:
352,128,98206,1,8,0:0:0:0:
160,128,98353,1,0,0:0:0:0:
352,128,98645,1,8,0:0:0:0:
352,128,98792,1,8,0:0:0:0:
160,128,98938,1,0,0:0:0:0:
160,256,99231,1,4,0:0:0:0:
352,128,99523,1,8,0:0:0:0:
160,128,99816,1,0,0:0:0:0:
352,128,99962,1,8,0:0:0:0:
160,128,100109,1,0,0:0:0:0:
160,128,100401,1,0,0:0:0:0:
352,256,100695,1,12,0:0:0:0:
160,256,101134,1,4,0:0:0:0:
352,256,101573,1,12,0:0:0:0:
352,256,101865,1,12,0:0:0:0:
352,128,102451,1,8,0:0:0:0:
352,128,102597,1,8,0:0:0:0:
160,128,102743,1,0,0:0:0:0:
160,256,103036,1,4,0:0:0:0:
352,128,111231,5,8,0:0:0:0:
352,128,111523,1,8,0:0:0:0:
352,128,111816,1,8,0:0:0:0:
160,128,112401,5,0,0:0:0:0:
160,128,112987,1,0,0:0:0:0:
352,128,113572,1,8,0:0:0:0:
352,128,114157,1,8,0:0:0:0:
160,128,114743,1,0,0:0:0:0:
160,128,115328,1,0,0:0:0:0:
352,128,115914,1,8,0:0:0:0:
352,128,116499,1,8,0:0:0:0:
352,128,116792,1,8,0:0:0:0:
160,128,117084,1,0,0:0:0:0:
160,128,117670,1,0,0:0:0:0:
352,128,118255,1,8,0:0:0:0:
352,128,118840,1,8,0:0:0:0:
160,128,119426,1,0,0:0:0:0:
160,128,120011,1,0,0:0:0:0:
352,128,120596,1,8,0:0:0:0:
160,128,120889,1,0,0:0:0:0:
352,128,121182,1,8,0:0:0:0:
352,128,121475,1,8,0:0:0:0:
160,128,121767,1,0,0:0:0:0:
160,128,121914,1,0,0:0:0:0:
352,128,122060,1,8,0:0:0:0:
160,128,122353,1,0,0:0:0:0:
160,128,122645,1,0,0:0:0:0:
352,128,122938,1,8,0:0:0:0:
160,128,123084,1,0,0:0:0:0:
352,128,123231,1,8,0:0:0:0:
352,128,123523,1,8,0:0:0:0:
160,128,123816,1,0,0:0:0:0:
160,128,124109,1,0,0:0:0:0:
160,128,124255,1,0,0:0:0:0:
352,128,124401,1,8,0:0:0:0:
160,128,124694,1,0,0:0:0:0:
160,128,124987,1,0,0:0:0:0:
352,128,125279,1,8,0:0:0:0:
160,128,125426,1,0,0:0:0:0:
352,128,125572,1,8,0:0:0:0:
352,128,125865,1,8,0:0:0:0:
352,128,126011,1,8,0:0:0:0:
160,128,126157,1,0,0:0:0:0:
160,128,126450,1,0,0:0:0:0:
160,128,126596,1,0,0:0:0:0:
352,128,126743,1,8,0:0:0:0:
160,128,127035,1,0,0:0:0:0:
160,128,127328,1,0,0:0:0:0:
352,128,127621,1,8,0:0:0:0:
160,128,127767,1,0,0:0:0:0:
352,128,127914,1,8,0:0:0:0:
160,128,128206,1,0,0:0:0:0:
352,128,128499,1,8,0:0:0:0:
160,128,128792,1,0,0:0:0:0:
160,128,128938,1,0,0:0:0:0:
352,128,129084,1,8,0:0:0:0:
160,128,129377,1,0,0:0:0:0:
160,128,129670,1,0,0:0:0:0:
352,128,129962,1,8,0:0:0:0:
352,128,130109,1,8,0:0:0:0:
160,128,130255,1,0,0:0:0:0:
352,128,130548,1,8,0:0:0:0:
352,128,130694,1,8,0:0:0:0:
352,128,130840,1,8,0:0:0:0:
160,128,131133,1,0,0:0:0:0:
160,128,131572,1,0,0:0:0:0:
352,128,132011,1,8,0:0:0:0:
352,128,132304,1,8,0:0:0:0:
160,256,132596,1,4,0:0:0:0:
352,256,133475,1,12,0:0:0:0:
352,128,133914,1,8,0:0:0:0:
160,128,134353,1,0,0:0:0:0:
352,128,134645,1,8,0:0:0:0:
352,128,135084,1,8,0:0:0:0:
160,128,135523,1,0,0:0:0:0:
160,128,135670,1,0,0:0:0:0:
352,128,135816,1,8,0:0:0:0:
160,128,136109,1,0,0:0:0:0:
352,128,136255,1,8,0:0:0:0:
160,128,136694,1,0,0:0:0:0:
160,128,136840,1,0,0:0:0:0:
160,128,136987,1,0,0:0:0:0:
352,128,137279,1,8,0:0:0:0:
160,128,137572,1,0,0:0:0:0:
352,128,137865,1,8,0:0:0:0:
160,128,138157,1,0,0:0:0:0:
160,128,138596,1,0,0:0:0:0:
352,128,139035,1,8,0:0:0:0:
160,128,139328,1,0,0:0:0:0:
352,128,139621,1,8,0:0:0:0:
160,128,139767,1,0,0:0:0:0:
352,128,140206,1,8,0:0:0:0:
160,128,140499,1,0,0:0:0:0:
160,128,140792,1,0,0:0:0:0:
160,128,140938,1,0,0:0:0:0:
160,128,141231,1,0,0:0:0:0:
352,128,141377,1,8,0:0:0:0:
160,128,141670,1,0,0:0:0:0:
352,128,141962,1,8,0:0:0:0:
352,128,142255,1,8,0:0:0:0:
352,128,142548,1,8,0:0:0:0:
160,128,142840,1,0,0:0:0:0:
160,128,142987,1,0,0:0:0:0:
160,128,143133,1,0,0:0:0:0:
160,128,143426,1,0,0:0:0:0:
352,128,144011,1,8,0:0:0:0:
352,128,144157,1,8,0:0:0:0:
352,128,144304,1,8,0:0:0:0:
352,128,144596,1,8,0:0:0:0:
160,128,145182,1,0,0:0:0:0:
160,128,145475,1,0,0:0:0:0:
160,128,145621,1,0,0:0:0:0:
160,128,145914,1,0,0:0:0:0:
352,128,146060,1,8,0:0:0:0:
160,128,146206,1,0,0:0:0:0:
352,128,146353,1,8,0:0:0:0:
160,128,146645,1,0,0:0:0:0:
160,128,146938,1,0,0:0:0:0:
352,128,147231,1,8,0:0:0:0:
352,128,147377,1,8,0:0:0:0:
352,128,147523,1,8,0:0:0:0:
160,128,147816,1,0,0:0:0:0:
160,128,147962,1,0,0:0:0:0:
160,128,148255,1,0,0:0:0:0:
352,128,148401,1,8,0:0:0:0:
352,128,148694,1,8,0:0:0:0:
352,128,148987,1,8,0:0:0:0:
160,128,149133,1,0,0:0:0:0:
352,128,149572,1,8,0:0:0:0:
160,128,149865,1,0,0:0:0:0:
352,128,150157,1,8,0:0:0:0:
160,128,150304,1,0,0:0:0:0:
160,128,150596,1,0,0:0:0:0:
352,128,150743,1,8,0:0:0:0:
160,128,151035,1,0,0:0:0:0:
160,128,151328,1,0,0:0:0:0:
160,128,151621,1,0,0:0:0:0:
160,128,151914,1,0,0:0:0:0:
352,128,152207,5,8,0:0:0:0:
352,128,152353,1,8,0:0:0:0:
352,128,152499,1,8,0:0:0:0:
160,128,152792,1,0,0:0:0:0:
352,128,153670,1,8,0:0:0:0:
160,256,153963,1,4,0:0:0:0:
160,128,154255,1,0,0:0:0:0:
160,128,154841,1,0,0:0:0:0:
160,128,155133,1,0,0:0:0:0:
160,128,155280,1,0,0:0:0:0:
352,128,155426,1,8,0:0:0:0:
352,128,155719,1,8,0:0:0:0:
352,128,156011,1,8,0:0:0:0:
160,128,156597,1,0,0:0:0:0:
160,128,156889,1,0,0:0:0:0:
160,128,157036,1,0,0:0:0:0:
352,128,157182,1,8,0:0:0:0:
160,128,157475,1,0,0:0:0:0:
352,128,157767,1,8,0:0:0:0:
160,128,157914,1,0,0:0:0:0:
352,128,158060,1,8,0:0:0:0:
160,128,158353,1,0,0:0:0:0:
160,128,158645,1,0,0:0:0:0:
160,128,158792,1,0,0:0:0:0:
352,128,158938,1,8,0:0:0:0:
160,128,159231,1,0,0:0:0:0:
160,128,159523,1,0,0:0:0:0:
160,128,160109,1,0,0:0:0:0:
160,128,160402,1,0,0:0:0:0:
160,256,160987,1,4,0:0:0:0:
160,128,161280,1,0,0:0:0:0:
160,128,161865,1,0,0:0:0:0:
160,128,162158,1,0,0:0:0:0:
160,128,162304,1,0,0:0:0:0:
352,128,162450,1,8,0:0:0:0:
352,128,162743,1,8,0:0:0:0:
352,128,163036,1,8,0:0:0:0:
160,128,163621,1,0,0:0:0:0:
160,128,163914,1,0,0:0:0:0:
160,128,164060,1,0,0:0:0:0:
352,128,164206,1,8,0:0:0:0:
352,128,164499,1,8,0:0:0:0:
352,128,164792,1,8,0:0:0:0:
160,128,164938,1,0,0:0:0:0:
352,128,165084,1,8,0:0:0:0:
160,128,165377,1,0,0:0:0:0:
160,128,165670,1,0,0:0:0:0:
160,128,165816,1,0,0:0:0:0:
352,128,165963,1,8,0:0:0:0:
160,128,166255,1,0,0:0:0:0:
160,128,166548,1,0,0:0:0:0:
160,128,166694,1,0,0:0:0:0:
352,128,166841,1,8,0:0:0:0:
160,128,167133,1,0,0:0:0:0:
160,128,167426,1,0,0:0:0:0:
352,256,168011,5,12,0:0:0:0:
352,256,168304,1,12,0:0:0:0:
160,128,168597,1,0,0:0:0:0:
352,128,168889,1,8,0:0:0:0:
160,128,169182,1,0,0:0:0:0:
352,128,169328,1,8,0:0:0:0:
160,128,169475,1,0,0:0:0:0:
160,128,169767,1,0,0:0:0:0:
160,128,170060,1,0,0:0:0:0:
352,128,170206,1,8,0:0:0:0:
160,128,170353,1,0,0:0:0:0:
352,128,170645,1,8,0:0:0:0:
160,128,170938,1,0,0:0:0:0:
352,256,171523,1,12,0:0:0:0:
352,256,171816,1,12,0:0:0:0:
160,128,172109,1,0,0:0:0:0:
352,128,172402,1,8,0:0:0:0:
160,128,172694,1,0,0:0:0:0:
352,128,172841,1,8,0:0:0:0:
160,128,172987,1,0,0:0:0:0:
352,128,173280,1,8,0:0:0:0:
352,128,173572,1,8,0:0:0:0:
352,128,173719,1,8,0:0:0:0:
160,128,173865,1,0,0:0:0:0:
352,128,174158,1,8,0:0:0:0:
352,128,174450,1,8,0:0:0:0:
352,128,175036,5,8,0:0:0:0:
352,128,175328,1,8,0:0:0:0:
160,128,175621,1,0,0:0:0:0:
352,128,175914,1,8,0:0:0:0:
352,128,176206,1,8,0:0:0:0:
352,128,176499,1,8,0:0:0:0:
160,128,176792,1,0,0:0:0:0:
160,128,177084,1,0,0:0:0:0:
352,128,177377,1,8,0:0:0:0:
160,128,177670,1,0,0:0:0:0:
160,128,177962,1,0,0:0:0:0:
160,128,178255,1,0,0:0:0:0:
352,128,178548,1,8,0:0:0:0:
352,128,178841,1,8,0:0:0:0:
352,128,178987,1,8,0:0:0:0:
352,128,179133,1,8,0:0:0:0:
160,128,179426,1,0,0:0:0:0:
160,128,179719,1,0,0:0:0:0:
160,128,179865,1,0,0:0:0:0:
160,128,180011,1,0,0:0:0:0:
352,128,180304,1,8,0:0:0:0:
352,128,180450,1,8,0:0:0:0:
352,128,180597,1,8,0:0:0:0:
352,128,180743,1,8,0:0:0:0:
352,128,180889,1,8,0:0:0:0:
160,128,181182,1,0,0:0:0:0:
160,128,181328,1,0,0:0:0:0:
160,128,181475,1,0,0:0:0:0:
160,128,181621,1,0,0:0:0:0:
160,128,181767,1,0,0:0:0:0:
352,128,182061,1,8,0:0:0:0:
160,128,183231,1,0,0:0:0:0:
352,128,184109,1,8,0:0:0:0:
160,256,184402,1,4,0:0:0:0:
352,128,184841,1,8,0:0:0:0:
160,128,184987,1,0,0:0:0:0:
352,128,185280,1,8,0:0:0:0:
160,128,185572,1,0,0:0:0:0:
352,128,186011,1,8,0:0:0:0:
160,128,186158,1,0,0:0:0:0:
352,128,186450,1,8,0:0:0:0:
160,128,186743,1,0,0:0:0:0:
352,128,187182,1,8,0:0:0:0:
160,128,187328,1,0,0:0:0:0:
352,128,187621,1,8,0:0:0:0:
160,128,187914,1,0,0:0:0:0:
352,128,188353,1,8,0:0:0:0:
160,128,188499,1,0,0:0:0:0:
160,128,188645,1,0,0:0:0:0:
352,128,188792,1,8,0:0:0:0:
160,128,189084,1,0,0:0:0:0:
352,128,189523,1,8,0:0:0:0:
160,128,189670,1,0,0:0:0:0:
352,128,189962,1,8,0:0:0:0:
160,128,190255,1,0,0:0:0:0:
352,128,190694,1,8,0:0:0:0:
160,128,190841,1,0,0:0:0:0:
352,128,191133,1,8,0:0:0:0:
160,128,191426,1,0,0:0:0:0:
352,128,191865,1,8,0:0:0:0:
160,128,192011,1,0,0:0:0:0:
352,128,192304,1,8,0:0:0:0:
352,128,192597,1,8,0:0:0:0:
352,128,192743,1,8,0:0:0:0:
160,128,192889,1,0,0:0:0:0:
352,128,193182,1,8,0:0:0:0:
160,256,193767,5,4,0:0:0:0:
352,128,194060,1,8,0:0:0:0:
160,128,194353,1,0,0:0:0:0:
352,128,194645,1,8,0:0:0:0:
352,128,194792,1,8,0:0:0:0:
352,128,195231,1,8,0:0:0:0:
160,128,195523,1,0,0:0:0:0:
352,128,195816,1,8,0:0:0:0:
352,128,195962,1,8,0:0:0:0:
352,128,196402,1,8,0:0:0:0:
160,128,196694,1,0,0:0:0:0:
352,128,196987,1,8,0:0:0:0:
352,128,197133,1,8,0:0:0:0:
352,128,197572,1,8,0:0:0:0:
160,128,197865,1,0,0:0:0:0:
352,128,198158,1,8,0:0:0:0:
352,128,198304,1,8,0:0:0:0:
160,128,198450,1,0,0:0:0:0:
352,128,198743,1,8,0:0:0:0:
160,128,199036,1,0,0:0:0:0:
352,128,199328,1,8,0:0:0:0:
352,128,199475,1,8,0:0:0:0:
352,128,199914,1,8,0:0:0:0:
160,128,200206,1,0,0:0:0:0:
352,128,200499,1,8,0:0:0:0:
352,128,200645,1,8,0:0:0:0:
352,128,201084,1,8,0:0:0:0:
160,128,201377,1,0,0:0:0:0:
352,128,201670,1,8,0:0:0:0:
352,128,201816,1,8,0:0:0:0:
160,128,201962,1,0,0:0:0:0:
352,128,202109,1,8,0:0:0:0:
160,128,202255,1,0,0:0:0:0:
160,128,202548,1,0,0:0:0:0:
352,128,202841,1,8,0:0:0:0:
160,256,203133,1,4,0:0:0:0:
160,128,205475,1,0,0:0:0:0:
160,128,205914,1,0,0:0:0:0:
352,128,206645,1,8,0:0:0:0:
352,128,207084,1,8,0:0:0:0:
352,128,207523,1,8,0:0:0:0:
352,128,207816,1,8,0:0:0:0:
160,128,210158,1,0,0:0:0:0:
160,128,210450,1,0,0:0:0:0:
160,128,210743,1,0,0:0:0:0:
160,128,211036,1,0,0:0:0:0:
160,128,211328,1,0,0:0:0:0:
160,128,211621,1,0,0:0:0:0:
160,128,211914,1,0,0:0:0:0:
352,128,212206,1,8,0:0:0:0:
352,128,212353,1,8,0:0:0:0:
