osu file format v14

[General]
AudioFilename: audio.ogg
AudioLeadIn: 0
PreviewTime: 22966
Countdown: 0
SampleSet: Normal
StackLeniency: 0.7
Mode: 1
LetterboxInBreaks: 0
WidescreenStoryboard: 1

[Editor]
Bookmarks: 7646,17839,22966,44668,54881,57115,59029,61264,63178,63817,66051,67966,70200,72753,74987,76902,79136,81051,83285,85200,87434,89987,92540,101795,111051,120306,125093,146795,167221,179987,200412,210625
DistanceSpacing: 1.2
BeatDivisor: 8
GridSize: 32
TimelineZoom: 3.599999

[Metadata]
Title:Fukasetsu Fukasetsuten Fukanou Sekai
TitleUnicode:不可説不可説転不可能世界
Artist:Marmalade butcher
ArtistUnicode:Marmalade butcher
Creator:Rosemi Lovelock
Version:Oni
Source:
Tags:eyenine featured artist fa mappers' guild mg mpg math rock instrumental maniku マ肉 にえぬ nienu 大谷明久 ootani akihisa J氏 J-shi ユウスケ yuusuke 不可説不可説転不可能世界EP.
BeatmapID:3107014
BeatmapSetID:1492715

[Difficulty]
HPDrainRate:5.5
CircleSize:5
OverallDifficulty:6
ApproachRate:8
SliderMultiplier:1.4
SliderTickRate:1

[Events]
//Background and Video events
0,0,"kessyoukatokei.jpg",0,0
//Break Periods
//Storyboard Layer 0 (Background)
//Storyboard Layer 1 (Fail)
//Storyboard Layer 2 (Pass)
//Storyboard Layer 3 (Foreground)
//Storyboard Layer 4 (Overlay)
//Storyboard Sound Samples

[TimingPoints]
1264,319.148936170213,4,1,0,40,1,0
1264,-133.333333333333,4,1,0,40,0,0
4096,-133.333333333333,4,1,0,40,0,0
4176,-133.333333333333,4,1,0,42,0,0
4256,-133.333333333333,4,1,0,44,0,0
4335,-133.333333333333,4,1,0,46,0,0
4415,-133.333333333333,4,1,0,48,0,0
4495,-133.333333333333,4,1,0,50,0,0
4575,-133.333333333333,4,1,0,52,0,0
4654,-133.333333333333,4,1,0,54,0,0
4734,-133.333333333333,4,1,0,56,0,0
4814,-133.333333333333,4,1,0,58,0,0
4894,-133.333333333333,4,1,0,60,0,0
4974,-133.333333333333,4,1,0,62,0,0
5053,-133.333333333333,4,1,0,64,0,0
5133,-133.333333333333,4,1,0,66,0,0
5213,-133.333333333333,4,1,0,68,0,0
5293,-133.333333333333,4,1,0,70,0,0
5373,-133.333333333333,4,1,0,72,0,0
5452,-133.333333333333,4,1,0,74,0,0
5532,-133.333333333333,4,1,0,76,0,0
5612,-133.333333333333,4,1,0,78,0,0
5692,-133.333333333333,4,1,0,80,0,0
5851,-133.333333333333,4,1,0,84,0,0
5931,-133.333333333333,4,1,0,86,0,0
6011,-133.333333333333,4,1,0,88,0,0
6330,-133.333333333333,4,1,0,100,0,0
6450,-133.333333333333,4,1,0,80,0,0
7567,-86.9565217391304,4,1,0,100,0,0
7646,-86.9565217391304,4,1,0,100,0,1
16583,-105.263157894737,4,1,0,100,0,0
17740,-100,4,1,0,100,0,0
17859,-80,4,1,0,100,0,1
17937,-81.4249363867684,4,1,0,100,0,1
18098,-84.4084864292256,4,1,0,100,0,1
18178,-86.0215053763441,4,1,0,100,0,1
18258,-87.6276735203191,4,1,0,100,0,1
18338,-89.3311774742503,4,1,0,100,0,1
18498,-93.0232558139535,4,1,0,100,0,1
18577,-94.9554896142433,4,1,0,100,0,1
18737,-99.0712074303406,4,1,0,100,0,1
18817,-101.126549764375,4,1,0,100,0,1
18976,-105.782382367346,4,1,0,100,0,1
19136,-111.111111111111,4,1,0,100,0,1
19375,-108.181203515889,4,1,0,100,0,1
19615,-105.401844532279,4,1,0,100,0,1
19854,-102.761721258831,4,1,0,100,0,1
20093,-100.250626566416,4,1,0,100,0,1
20173,-99.4406463642014,4,1,0,100,0,1
20253,-98.6436498150432,4,1,0,100,0,1
20412,-97.0873786407767,4,1,0,100,0,1
20492,-95.5303270576277,4,1,0,100,0,1
20572,-94.0225183931552,4,1,0,100,0,1
20652,-92.5925925925926,4,1,0,100,0,1
20732,-91.1452399398441,4,1,0,100,0,1
20891,-88.4388334917862,4,1,0,100,0,1
21051,-85.8884429370068,4,1,0,100,0,1
21210,-83.4810948712555,4,1,0,100,0,1
21370,-81.205017495621,4,1,0,100,0,1
21689,-77.0059471692999,4,1,0,100,0,0
22327,-100,4,1,0,100,0,0
44668,-117.647058823529,4,1,0,90,0,0
54881,319.148936170213,7,1,0,80,1,0
54881,-133.333333333333,7,1,0,80,0,0
57115,319.148936170213,6,1,0,80,1,0
57115,-133.333333333333,7,1,0,80,0,0
59029,319.148936170213,7,1,0,80,1,0
59029,-133.333333333333,7,1,0,80,0,0
61263,319.148936170213,7,1,0,80,1,8
61264,319.148936170213,6,1,0,80,1,0
61264,-133.333333333333,7,1,0,80,0,0
63178,319.148936170213,4,1,0,80,1,8
63178,-133.333333333333,7,1,0,80,0,0
63817,319.148936170213,7,1,0,100,1,0
63817,-95.2380952380952,7,1,0,100,0,0
66051,319.148936170213,6,1,0,100,1,0
66051,-95.2380952380952,7,1,0,100,0,0
67966,319.148936170213,7,1,0,100,1,0
67966,-95.2380952380952,7,1,0,100,0,0
70200,319.148936170213,8,1,0,100,1,0
70200,-95.2380952380952,7,1,0,100,0,0
72753,319.148936170213,7,1,0,100,1,1
72753,-86.9565217391304,7,1,0,100,0,1
74987,319.148936170213,6,1,0,100,1,1
74987,-86.9565217391304,7,1,0,100,0,1
76902,319.148936170213,7,1,0,100,1,1
76902,-86.9565217391304,7,1,0,100,0,1
79136,319.148936170213,6,1,0,100,1,1
79136,-86.9565217391304,7,1,0,100,0,1
81051,319.148936170213,7,1,0,100,1,1
81051,-86.9565217391304,7,1,0,100,0,1
83285,319.148936170213,6,1,0,100,1,1
83285,-86.9565217391304,7,1,0,100,0,1
85200,319.148936170213,7,1,0,100,1,1
85200,-86.9565217391304,7,1,0,100,0,1
87434,319.148936170213,4,1,0,100,1,1
87434,-86.9565217391304,7,1,0,100,0,1
88710,-86.9565217391304,4,1,0,100,0,0
88790,-100,4,1,0,100,0,0
89987,319.148936170213,8,1,0,70,1,0
89987,-133.333333333333,8,1,0,70,0,0
92540,319.148936170213,7,1,0,80,1,0
92540,-117.647058823529,7,1,0,80,0,0
101476,319.148936170213,7,1,0,80,1,8
101795,319.148936170213,7,1,0,90,1,0
110731,319.148936170213,4,1,0,90,1,8
110732,319.148936170213,7,1,0,90,1,8
111051,319.148936170213,7,1,0,100,1,1
111051,-86.9565217391304,7,1,0,100,0,1
115519,319.148936170213,7,1,0,100,1,9
115519,-86.9565217391304,7,1,0,100,0,1
115558,-89.8876404494382,7,1,0,100,0,1
115638,-93.0232558139535,7,1,0,100,0,1
115718,-96.3855421686747,7,1,0,100,0,1
115838,319.148936170213,7,1,0,90,1,0
115838,-100,7,1,0,90,0,0
120306,-86.9565217391304,7,1,0,100,0,1
124774,319.148936170213,7,1,0,100,1,9
124774,-86.9565217391304,7,1,0,100,0,1
124813,-89.8876404494382,7,1,0,100,0,1
124893,-93.0232558139535,7,1,0,100,0,1
124973,-96.3855421686747,7,1,0,100,0,1
125093,319.148936170213,7,1,0,90,1,0
125093,-100,7,1,0,90,0,0
125172,-100,7,1,0,90,0,0
127327,319.148936170213,7,1,0,100,1,1
127327,-86.9565217391304,7,1,0,100,0,1
129281,-89.8876404494382,7,1,0,100,0,1
129361,-93.0232558139535,7,1,0,100,0,1
129441,-96.3855421686747,7,1,0,100,0,1
129521,-100,7,1,0,90,0,1
129561,-100,7,1,0,90,0,0
129640,-100,7,1,0,90,0,0
131795,-86.9565217391304,7,1,0,100,0,1
133749,-89.8876404494382,7,1,0,100,0,1
133829,-93.0232558139535,7,1,0,100,0,1
133909,-96.3855421686747,7,1,0,100,0,1
133989,-100,7,1,0,90,0,1
134029,-100,7,1,0,100,0,0
134188,-100,7,1,0,100,0,0
134667,-86.9565217391304,7,1,0,100,0,1
136263,319.148936170213,4,1,0,100,1,8
136583,319.148936170213,4,1,0,100,1,1
136583,-86.9565217391304,4,1,0,100,0,1
141689,-86.9565217391304,4,1,0,100,0,0
142965,-86.9565217391304,4,1,0,100,0,1
146795,-86.9565217391304,4,1,0,100,0,0
146875,-133.333333333333,4,1,0,70,0,0
146955,-95.2380952380952,4,1,0,70,0,0
147114,-97.0873786407767,4,1,0,70,0,0
147354,-100,4,1,0,70,0,0
147513,-102.040816326531,4,1,0,70,0,0
147673,-104.166666666667,4,1,0,70,0,0
147753,-105.263157894737,4,1,0,70,0,0
148072,-109.89010989011,4,1,0,70,0,0
148231,-112.359550561798,4,1,0,70,0,0
148391,-114.942528735632,4,1,0,70,0,0
148630,-119.047619047619,4,1,0,70,0,0
148790,-121.951219512195,4,1,0,70,0,0
148950,-125,4,1,0,70,0,0
149029,-126.582278481013,4,1,0,70,0,0
149348,-133.333333333333,4,1,0,70,0,0
167221,-86.9565217391304,4,1,0,100,0,1
177434,-86.9565217391304,4,1,0,100,0,0
177673,-111.111111111111,4,1,0,100,0,0
179907,-100,4,1,0,100,0,0
210625,-95.2380952380952,4,1,0,100,0,1
220838,-95.2380952380952,4,1,0,100,0,0
222114,-86.9565217391304,4,1,0,100,0,1
231051,-117.647058823529,4,1,0,80,0,0
237434,-86.9565217391304,4,1,0,100,0,1
239987,-86.9565217391304,4,1,0,100,0,0
240545,-105.263157894737,4,1,0,100,0,0
241263,-86.9565217391304,4,1,0,100,0,1
242221,-86.9565217391304,4,1,0,100,0,0
242540,-76.9230769230769,4,1,0,100,0,1
243178,-76.9230769230769,4,1,0,100,0,0

[HitObjects]
352,128,4136,5,8,0:0:0:0:
160,128,4295,1,0,0:0:0:0:
352,128,4455,1,8,0:0:0:0:
160,128,4615,1,0,0:0:0:0:
352,128,4774,1,8,0:0:0:0:
160,128,4934,1,0,0:0:0:0:
352,128,5093,1,8,0:0:0:0:
352,128,5173,1,8,0:0:0:0:
160,128,5253,1,0,0:0:0:0:
352,128,5412,1,8,0:0:0:0:
352,128,5492,1,8,0:0:0:0:
160,128,5572,1,0,0:0:0:0:
160,128,5652,1,0,0:0:0:0:
352,128,5732,1,8,0:0:0:0:
160,128,5891,1,0,0:0:0:0:
352,128,6051,1,8,0:0:0:0:
160,256,6370,1,4,0:0:0:0:
256,192,6529,12,0,7327,0:0:0:0:
352,256,7646,5,12,0:0:0:0:
352,256,7806,1,12,0:0:0:0:
160,128,7966,1,0,0:0:0:0:
160,128,8045,1,0,0:0:0:0:
160,128,8125,1,0,0:0:0:0:
352,256,8285,1,12,0:0:0:0:
160,128,8444,1,0,0:0:0:0:
352,128,8604,1,8,0:0:0:0:
352,128,8684,1,8,0:0:0:0:
352,128,8764,1,8,0:0:0:0:
352,128,8843,1,8,0:0:0:0:
160,128,8923,1,0,0:0:0:0:
352,128,9083,1,8,0:0:0:0:
160,128,9162,1,0,0:0:0:0:
160,128,9322,1,0,0:0:0:0:
160,128,9482,1,0,0:0:0:0:
352,128,9561,1,8,0:0:0:0:
352,128,9721,1,8,0:0:0:0:
160,256,9881,1,4,0:0:0:0:
352,256,10200,1,12,0:0:0:0:
352,256,10359,1,12,0:0:0:0:
160,128,10519,1,0,0:0:0:0:
160,128,10599,1,0,0:0:0:0:
160,128,10678,1,0,0:0:0:0:
352,256,10838,1,12,0:0:0:0:
160,128,10998,1,0,0:0:0:0:
352,128,11157,1,8,0:0:0:0:
352,128,11237,1,8,0:0:0:0:
352,128,11317,1,8,0:0:0:0:
160,256,11476,1,4,0:0:0:0:
160,256,11636,1,4,0:0:0:0:
352,128,11795,1,8,0:0:0:0:
352,128,11875,1,8,0:0:0:0:
160,128,11955,1,0,0:0:0:0:
352,128,12115,1,8,0:0:0:0:
352,128,12194,1,8,0:0:0:0:
160,128,12274,1,0,0:0:0:0:
352,256,12434,1,12,0:0:0:0:
352,256,12753,1,12,0:0:0:0:
352,256,12912,1,12,0:0:0:0:
160,128,13072,1,0,0:0:0:0:
160,128,13152,1,0,0:0:0:0:
160,128,13232,1,0,0:0:0:0:
352,128,13391,1,8,0:0:0:0:
352,128,13551,1,8,0:0:0:0:
352,128,13710,1,8,0:0:0:0:
352,128,13790,1,8,0:0:0:0:
352,128,13870,1,8,0:0:0:0:
352,256,14029,1,4,0:0:0:0:
160,128,14189,1,0,0:0:0:0:
352,128,14349,1,8,0:0:0:0:
160,128,14508,1,0,0:0:0:0:
352,128,14668,1,8,0:0:0:0:
352,128,14748,1,8,0:0:0:0:
352,128,14827,1,8,0:0:0:0:
352,128,14907,1,8,0:0:0:0:
160,128,14987,1,0,0:0:0:0:
160,128,15146,1,0,0:0:0:0:
352,128,15306,1,8,0:0:0:0:
160,128,15386,1,0,0:0:0:0:
352,128,15466,1,8,0:0:0:0:
160,128,15625,1,0,0:0:0:0:
160,128,15705,1,0,0:0:0:0:
160,128,15865,1,0,0:0:0:0:
160,128,15944,1,0,0:0:0:0:
160,128,16104,1,0,0:0:0:0:
352,256,16264,1,12,0:0:0:0:
160,128,16583,1,0,0:0:0:0:
160,128,16902,1,0,0:0:0:0:
160,128,17221,1,0,0:0:0:0:
160,128,17540,1,0,0:0:0:0:
352,128,17859,1,8,0:0:0:0:
160,128,17939,1,0,0:0:0:0:
352,128,18098,1,8,0:0:0:0:
160,128,18178,1,0,0:0:0:0:
160,128,18258,1,0,0:0:0:0:
352,128,18338,1,8,0:0:0:0:
160,128,18498,1,0,0:0:0:0:
352,128,18577,1,8,0:0:0:0:
160,128,18737,1,0,0:0:0:0:
352,128,18817,1,8,0:0:0:0:
352,128,18976,1,8,0:0:0:0:
160,128,19136,1,0,0:0:0:0:
160,128,19375,1,0,0:0:0:0:
160,128,19615,1,0,0:0:0:0:
160,128,19854,1,0,0:0:0:0:
160,128,20093,1,0,0:0:0:0:
160,128,20173,1,0,0:0:0:0:
160,128,20253,1,0,0:0:0:0:
352,128,20412,1,8,0:0:0:0:
352,128,20492,1,8,0:0:0:0:
352,128,20572,1,8,0:0:0:0:
160,128,20652,1,0,0:0:0:0:
160,128,20811,1,0,0:0:0:0:
160,128,20891,1,0,0:0:0:0:
160,128,21051,1,0,0:0:0:0:
160,128,21210,1,0,0:0:0:0:
352,256,21370,1,12,0:0:0:0:
160,128,21689,1,0,0:0:0:0:
352,128,22646,1,8,0:0:0:0:
352,128,22726,1,8,0:0:0:0:
352,128,22806,1,8,0:0:0:0:
160,256,22966,1,4,0:0:0:0:
352,128,23285,1,8,0:0:0:0:
160,128,23444,1,0,0:0:0:0:
160,128,23524,1,0,0:0:0:0:
352,128,23604,1,8,0:0:0:0:
160,128,23764,1,0,0:0:0:0:
352,128,23923,1,8,0:0:0:0:
160,128,24083,1,0,0:0:0:0:
160,128,24162,1,0,0:0:0:0:
160,128,24242,1,0,0:0:0:0:
160,128,24402,1,0,0:0:0:0:
352,128,24561,1,8,0:0:0:0:
160,128,24721,1,0,0:0:0:0:
160,128,24801,1,0,0:0:0:0:
352,128,24881,1,8,0:0:0:0:
160,128,25040,1,0,0:0:0:0:
352,128,25200,1,8,0:0:0:0:
160,128,25519,1,0,0:0:0:0:
160,128,25678,1,0,0:0:0:0:
352,128,25838,1,8,0:0:0:0:
160,128,25998,1,0,0:0:0:0:
160,128,26077,1,0,0:0:0:0:
352,128,26157,1,8,0:0:0:0:
160,128,26317,1,0,0:0:0:0:
352,128,26476,1,8,0:0:0:0:
160,128,26636,1,0,0:0:0:0:
352,128,26795,1,8,0:0:0:0:
352,128,26875,1,8,0:0:0:0:
160,128,26955,1,0,0:0:0:0:
160,128,27035,1,0,0:0:0:0:
352,128,27115,1,8,0:0:0:0:
160,128,27274,1,0,0:0:0:0:
352,128,27354,1,8,0:0:0:0:
352,128,27514,1,8,0:0:0:0:
160,128,27593,1,0,0:0:0:0:
352,128,27753,1,8,0:0:0:0:
160,128,27833,1,0,0:0:0:0:
352,128,27912,1,8,0:0:0:0:
160,256,28072,1,4,0:0:0:0:
352,128,28391,1,8,0:0:0:0:
160,128,28551,1,0,0:0:0:0:
160,128,28631,1,0,0:0:0:0:
160,128,28710,1,0,0:0:0:0:
160,128,28870,1,0,0:0:0:0:
352,128,29029,1,8,0:0:0:0:
160,128,29189,1,0,0:0:0:0:
160,128,29269,1,0,0:0:0:0:
352,128,29349,1,8,0:0:0:0:
160,128,29508,1,0,0:0:0:0:
352,128,29668,1,8,0:0:0:0:
352,128,29827,1,8,0:0:0:0:
352,128,29907,1,8,0:0:0:0:
160,128,29987,1,0,0:0:0:0:
160,128,30146,1,0,0:0:0:0:
352,128,30306,1,8,0:0:0:0:
160,128,30625,1,0,0:0:0:0:
160,128,30785,1,0,0:0:0:0:
352,128,30944,1,8,0:0:0:0:
160,128,31104,1,0,0:0:0:0:
160,128,31184,1,0,0:0:0:0:
352,128,31264,1,8,0:0:0:0:
160,128,31423,1,0,0:0:0:0:
352,128,31583,1,8,0:0:0:0:
352,128,31742,1,8,0:0:0:0:
160,128,31902,1,0,0:0:0:0:
160,128,31982,1,0,0:0:0:0:
160,128,32061,1,0,0:0:0:0:
160,128,32141,1,0,0:0:0:0:
352,128,32221,1,8,0:0:0:0:
160,128,32381,1,0,0:0:0:0:
352,128,32460,1,8,0:0:0:0:
352,128,32620,1,8,0:0:0:0:
160,128,32700,1,0,0:0:0:0:
352,128,32859,1,8,0:0:0:0:
160,128,33019,1,0,0:0:0:0:
160,256,33178,1,4,0:0:0:0:
352,128,33498,1,8,0:0:0:0:
160,128,33657,1,0,0:0:0:0:
352,128,33737,1,8,0:0:0:0:
160,128,33817,1,0,0:0:0:0:
160,128,33976,1,0,0:0:0:0:
352,128,34136,1,8,0:0:0:0:
352,128,34295,1,8,0:0:0:0:
352,128,34375,1,8,0:0:0:0:
160,128,34455,1,0,0:0:0:0:
160,128,34535,1,0,0:0:0:0:
160,128,34615,1,0,0:0:0:0:
352,128,34774,1,8,0:0:0:0:
160,128,34934,1,0,0:0:0:0:
160,128,35014,1,0,0:0:0:0:
352,128,35093,1,8,0:0:0:0:
160,128,35253,1,0,0:0:0:0:
352,128,35412,1,8,0:0:0:0:
160,128,35732,1,0,0:0:0:0:
160,128,35891,1,0,0:0:0:0:
160,128,35971,1,0,0:0:0:0:
352,128,36051,1,8,0:0:0:0:
160,128,36210,1,0,0:0:0:0:
352,128,36290,1,8,0:0:0:0:
160,128,36370,1,0,0:0:0:0:
352,128,36529,1,8,0:0:0:0:
352,128,36689,1,8,0:0:0:0:
160,128,36849,1,0,0:0:0:0:
352,128,37008,1,8,0:0:0:0:
352,128,37088,1,8,0:0:0:0:
160,128,37168,1,0,0:0:0:0:
160,128,37248,1,0,0:0:0:0:
352,128,37327,1,8,0:0:0:0:
160,128,37487,1,0,0:0:0:0:
352,128,37567,1,8,0:0:0:0:
352,128,37726,1,8,0:0:0:0:
160,128,37806,1,0,0:0:0:0:
352,128,37966,1,8,0:0:0:0:
160,128,38045,1,0,0:0:0:0:
352,128,38125,1,8,0:0:0:0:
160,256,38285,1,4,0:0:0:0:
352,128,38604,1,8,0:0:0:0:
160,128,38764,1,0,0:0:0:0:
352,128,38843,1,8,0:0:0:0:
160,128,38923,1,0,0:0:0:0:
352,128,39083,1,8,0:0:0:0:
352,128,39242,1,8,0:0:0:0:
160,128,39402,1,0,0:0:0:0:
160,128,39482,1,0,0:0:0:0:
352,128,39561,1,8,0:0:0:0:
352,128,39641,1,8,0:0:0:0:
160,128,39721,1,0,0:0:0:0:
352,128,39881,1,8,0:0:0:0:
160,128,40040,1,0,0:0:0:0:
352,128,40120,1,8,0:0:0:0:
160,128,40200,1,0,0:0:0:0:
160,128,40359,1,0,0:0:0:0:
352,128,40519,1,8,0:0:0:0:
160,128,40838,1,0,0:0:0:0:
160,128,40998,1,0,0:0:0:0:
352,128,41157,1,8,0:0:0:0:
160,128,41317,1,0,0:0:0:0:
160,128,41396,1,0,0:0:0:0:
352,128,41476,1,8,0:0:0:0:
160,128,41636,1,0,0:0:0:0:
352,128,41795,1,8,0:0:0:0:
160,128,41955,1,0,0:0:0:0:
160,128,42035,1,0,0:0:0:0:
352,128,42115,1,8,0:0:0:0:
160,128,42274,1,0,0:0:0:0:
352,128,42434,1,8,0:0:0:0:
352,128,42514,1,8,0:0:0:0:
160,128,42593,1,0,0:0:0:0:
160,128,42673,5,0,0:0:0:0:
352,128,42753,1,8,0:0:0:0:
160,128,42912,1,0,0:0:0:0:
352,128,43072,1,8,0:0:0:0:
352,128,43232,1,8,0:0:0:0:
160,256,43391,1,4,0:0:0:0:
256,192,43551,12,0,44508,0:0:0:0:
160,256,44668,5,4,0:0:0:0:
160,128,44827,1,0,0:0:0:0:
160,128,44987,1,0,0:0:0:0:
352,128,45146,1,8,0:0:0:0:
352,128,45306,1,8,0:0:0:0:
160,128,45466,1,0,0:0:0:0:
352,128,45625,1,8,0:0:0:0:
352,128,45785,1,8,0:0:0:0:
160,128,45944,1,0,0:0:0:0:
160,128,46104,1,0,0:0:0:0:
160,128,46264,1,0,0:0:0:0:
352,128,46423,1,8,0:0:0:0:
352,128,46902,1,8,0:0:0:0:
160,128,47221,1,0,0:0:0:0:
160,128,47381,1,0,0:0:0:0:
160,128,47540,1,0,0:0:0:0:
352,128,47700,1,8,0:0:0:0:
160,128,47859,1,0,0:0:0:0:
352,128,48019,1,8,0:0:0:0:
352,128,48178,1,8,0:0:0:0:
160,128,48338,1,0,0:0:0:0:
352,128,48498,1,8,0:0:0:0:
160,128,48657,1,0,0:0:0:0:
160,128,48817,1,0,0:0:0:0:
352,128,48976,1,8,0:0:0:0:
352,128,49455,1,8,0:0:0:0:
160,128,49615,1,0,0:0:0:0:
160,128,49694,1,0,0:0:0:0:
160,128,49774,1,0,0:0:0:0:
160,128,49934,1,0,0:0:0:0:
160,128,50093,1,0,0:0:0:0:
352,128,50253,1,8,0:0:0:0:
352,128,50412,1,8,0:0:0:0:
160,128,50572,1,0,0:0:0:0:
352,128,50732,1,8,0:0:0:0:
352,128,50891,1,8,0:0:0:0:
160,128,51051,1,0,0:0:0:0:
160,128,51210,1,0,0:0:0:0:
160,128,51370,1,0,0:0:0:0:
352,128,51529,1,8,0:0:0:0:
352,128,52008,1,8,0:0:0:0:
160,128,52327,1,0,0:0:0:0:
160,128,52487,1,0,0:0:0:0:
160,128,52646,1,0,0:0:0:0:
352,128,52806,1,8,0:0:0:0:
160,128,52966,1,0,0:0:0:0:
352,128,53125,1,8,0:0:0:0:
352,128,53285,1,8,0:0:0:0:
160,128,53444,1,0,0:0:0:0:
352,128,53604,1,8,0:0:0:0:
160,128,53764,1,0,0:0:0:0:
160,128,53923,1,0,0:0:0:0:
352,128,54083,1,8,0:0:0:0:
160,256,54881,1,4,0:0:0:0:
160,128,55040,1,0,0:0:0:0:
352,128,55200,1,8,0:0:0:0:
160,128,55359,1,0,0:0:0:0:
352,128,55519,1,8,0:0:0:0:
160,128,55678,1,0,0:0:0:0:
352,128,55838,1,8,0:0:0:0:
352,128,55998,1,8,0:0:0:0:
160,128,56157,1,0,0:0:0:0:
160,128,56317,1,0,0:0:0:0:
352,128,56476,1,8,0:0:0:0:
352,128,56636,1,8,0:0:0:0:
352,256,56795,1,12,0:0:0:0:
160,128,57115,1,0,0:0:0:0:
160,128,57274,1,0,0:0:0:0:
352,128,57434,1,8,0:0:0:0:
160,128,57593,1,0,0:0:0:0:
352,128,57753,1,8,0:0:0:0:
160,128,57912,1,0,0:0:0:0:
352,128,58072,1,8,0:0:0:0:
352,128,58232,1,8,0:0:0:0:
352,128,58391,1,8,0:0:0:0:
160,128,58551,1,0,0:0:0:0:
352,256,58710,1,12,0:0:0:0:
160,128,59029,1,0,0:0:0:0:
160,128,59188,1,0,0:0:0:0:
352,128,59348,1,8,0:0:0:0:
160,128,59507,1,0,0:0:0:0:
160,128,59667,1,0,0:0:0:0:
352,128,59826,1,8,0:0:0:0:
352,128,59986,1,8,0:0:0:0:
160,128,60146,1,0,0:0:0:0:
352,128,60305,1,8,0:0:0:0:
160,128,60465,1,0,0:0:0:0:
352,128,60624,1,8,0:0:0:0:
160,128,60784,1,0,0:0:0:0:
352,256,60943,1,12,0:0:0:0:
160,128,61264,1,0,0:0:0:0:
160,128,61423,1,0,0:0:0:0:
352,128,61583,1,8,0:0:0:0:
352,128,61742,1,8,0:0:0:0:
160,128,61902,1,0,0:0:0:0:
160,128,62061,1,0,0:0:0:0:
352,128,62221,1,8,0:0:0:0:
160,128,62381,1,0,0:0:0:0:
352,128,62540,1,8,0:0:0:0:
160,128,62700,1,0,0:0:0:0:
352,128,62859,1,8,0:0:0:0:
160,128,63178,1,0,0:0:0:0:
160,128,63257,1,0,0:0:0:0:
352,128,63417,1,8,0:0:0:0:
352,128,63656,1,8,0:0:0:0:
160,256,63817,1,4,0:0:0:0:
160,128,63976,1,0,0:0:0:0:
160,128,64056,1,0,0:0:0:0:
352,128,64136,1,8,0:0:0:0:
160,128,64295,1,0,0:0:0:0:
160,128,64375,1,0,0:0:0:0:
352,128,64455,1,8,0:0:0:0:
160,128,64614,1,0,0:0:0:0:
352,128,64774,1,8,0:0:0:0:
352,128,64854,1,8,0:0:0:0:
352,128,64934,1,8,0:0:0:0:
160,128,65093,1,0,0:0:0:0:
160,128,65253,1,0,0:0:0:0:
352,128,65412,1,8,0:0:0:0:
352,128,65492,1,8,0:0:0:0:
160,128,65572,1,0,0:0:0:0:
352,256,65731,1,12,0:0:0:0:
160,256,66051,1,4,0:0:0:0:
160,128,66210,1,0,0:0:0:0:
160,128,66290,1,0,0:0:0:0:
352,128,66370,1,8,0:0:0:0:
160,128,66529,1,0,0:0:0:0:
160,128,66609,1,0,0:0:0:0:
352,128,66689,1,8,0:0:0:0:
352,128,66848,1,8,0:0:0:0:
160,128,67008,1,0,0:0:0:0:
160,128,67088,1,0,0:0:0:0:
352,128,67168,1,8,0:0:0:0:
352,128,67247,1,8,0:0:0:0:
160,128,67327,1,0,0:0:0:0:
160,128,67487,1,0,0:0:0:0:
352,256,67646,1,12,0:0:0:0:
160,256,67966,1,4,0:0:0:0:
160,128,68125,1,0,0:0:0:0:
160,128,68205,1,0,0:0:0:0:
352,128,68285,1,8,0:0:0:0:
160,128,68444,1,0,0:0:0:0:
160,128,68524,1,0,0:0:0:0:
352,128,68604,1,8,0:0:0:0:
352,128,68763,1,8,0:0:0:0:
352,128,68923,1,8,0:0:0:0:
352,128,69003,1,8,0:0:0:0:
160,128,69083,1,0,0:0:0:0:
160,128,69162,1,0,0:0:0:0:
160,128,69242,1,0,0:0:0:0:
352,128,69402,1,8,0:0:0:0:
352,128,69561,1,8,0:0:0:0:
160,128,69721,1,0,0:0:0:0:
352,256,69880,1,12,0:0:0:0:
160,256,70200,1,4,0:0:0:0:
160,128,70359,1,0,0:0:0:0:
160,128,70439,1,0,0:0:0:0:
352,128,70519,1,8,0:0:0:0:
160,128,70678,1,0,0:0:0:0:
160,128,70758,1,0,0:0:0:0:
352,128,70838,1,8,0:0:0:0:
352,128,70997,1,8,0:0:0:0:
352,128,71157,1,8,0:0:0:0:
352,128,71237,1,8,0:0:0:0:
160,128,71317,1,0,0:0:0:0:
160,128,71396,1,0,0:0:0:0:
352,128,71476,1,8,0:0:0:0:
160,128,71636,1,0,0:0:0:0:
160,128,71715,1,0,0:0:0:0:
352,128,71795,1,8,0:0:0:0:
160,128,71955,1,0,0:0:0:0:
160,128,72035,1,0,0:0:0:0:
352,128,72114,1,8,0:0:0:0:
352,128,72274,1,8,0:0:0:0:
160,128,72434,1,0,0:0:0:0:
352,256,72753,1,12,0:0:0:0:
160,128,72912,1,0,0:0:0:0:
160,128,72992,1,0,0:0:0:0:
352,128,73072,1,8,0:0:0:0:
352,128,73231,1,8,0:0:0:0:
352,128,73311,1,8,0:0:0:0:
160,128,73391,1,0,0:0:0:0:
160,128,73550,1,0,0:0:0:0:
352,128,73710,1,8,0:0:0:0:
352,128,73790,1,8,0:0:0:0:
160,128,73870,1,0,0:0:0:0:
160,128,73949,1,0,0:0:0:0:
352,128,74029,1,8,0:0:0:0:
160,128,74189,1,0,0:0:0:0:
160,128,74268,1,0,0:0:0:0:
352,128,74348,1,8,0:0:0:0:
352,128,74508,1,8,0:0:0:0:
160,256,74667,1,4,0:0:0:0:
352,256,74987,1,12,0:0:0:0:
160,128,75146,1,0,0:0:0:0:
160,128,75226,1,0,0:0:0:0:
352,128,75306,1,8,0:0:0:0:
352,128,75465,1,8,0:0:0:0:
352,128,75545,1,8,0:0:0:0:
160,128,75625,1,0,0:0:0:0:
160,128,75784,1,0,0:0:0:0:
352,128,75944,1,8,0:0:0:0:
352,128,76024,1,8,0:0:0:0:
160,128,76104,1,0,0:0:0:0:
160,128,76183,1,0,0:0:0:0:
352,128,76263,1,8,0:0:0:0:
160,128,76423,1,0,0:0:0:0:
352,256,76582,1,12,0:0:0:0:
352,256,76902,1,12,0:0:0:0:
160,128,77061,1,0,0:0:0:0:
160,128,77141,1,0,0:0:0:0:
352,128,77221,1,8,0:0:0:0:
352,128,77380,1,8,0:0:0:0:
352,128,77460,1,8,0:0:0:0:
160,128,77540,1,0,0:0:0:0:
160,128,77699,1,0,0:0:0:0:
352,128,77859,1,8,0:0:0:0:
352,128,77939,1,8,0:0:0:0:
160,128,78019,1,0,0:0:0:0:
160,128,78098,1,0,0:0:0:0:
352,128,78178,1,8,0:0:0:0:
160,128,78338,1,0,0:0:0:0:
160,128,78417,1,0,0:0:0:0:
352,128,78497,1,8,0:0:0:0:
352,128,78657,1,8,0:0:0:0:
160,256,78816,1,4,0:0:0:0:
352,256,79136,1,12,0:0:0:0:
160,128,79295,1,0,0:0:0:0:
160,128,79375,1,0,0:0:0:0:
352,128,79455,1,8,0:0:0:0:
352,128,79614,1,8,0:0:0:0:
352,128,79694,1,8,0:0:0:0:
160,128,79774,1,0,0:0:0:0:
160,128,79933,1,0,0:0:0:0:
352,128,80093,1,8,0:0:0:0:
352,128,80173,1,8,0:0:0:0:
160,128,80253,1,0,0:0:0:0:
160,128,80332,1,0,0:0:0:0:
352,128,80412,1,8,0:0:0:0:
160,128,80572,1,0,0:0:0:0:
352,256,80731,1,12,0:0:0:0:
352,256,81051,1,12,0:0:0:0:
160,128,81210,1,0,0:0:0:0:
160,128,81290,1,0,0:0:0:0:
352,128,81370,1,8,0:0:0:0:
352,128,81529,1,8,0:0:0:0:
352,128,81609,1,8,0:0:0:0:
160,128,81689,1,0,0:0:0:0:
160,128,81848,1,0,0:0:0:0:
352,128,82008,1,8,0:0:0:0:
352,128,82088,1,8,0:0:0:0:
160,128,82168,1,0,0:0:0:0:
160,128,82247,1,0,0:0:0:0:
352,128,82327,1,8,0:0:0:0:
160,128,82487,1,0,0:0:0:0:
352,128,82646,1,8,0:0:0:0:
352,128,82726,1,8,0:0:0:0:
352,128,82806,1,8,0:0:0:0:
160,256,82965,1,4,0:0:0:0:
352,256,83285,1,12,0:0:0:0:
160,128,83444,1,0,0:0:0:0:
160,128,83524,1,0,0:0:0:0:
352,128,83604,1,8,0:0:0:0:
160,128,83763,1,0,0:0:0:0:
352,128,83843,1,8,0:0:0:0:
160,128,83923,1,0,0:0:0:0:
160,128,84082,1,0,0:0:0:0:
352,128,84242,1,8,0:0:0:0:
352,128,84322,1,8,0:0:0:0:
160,128,84402,1,0,0:0:0:0:
160,128,84481,1,0,0:0:0:0:
352,128,84561,1,8,0:0:0:0:
160,128,84721,1,0,0:0:0:0:
352,256,84880,1,12,0:0:0:0:
352,256,85200,1,12,0:0:0:0:
160,128,85359,1,0,0:0:0:0:
160,128,85439,1,0,0:0:0:0:
352,128,85519,1,8,0:0:0:0:
352,128,85678,1,8,0:0:0:0:
352,128,85758,1,8,0:0:0:0:
160,128,85838,1,0,0:0:0:0:
160,128,85997,1,0,0:0:0:0:
352,128,86157,1,8,0:0:0:0:
352,128,86237,1,8,0:0:0:0:
160,128,86317,1,0,0:0:0:0:
160,128,86396,1,0,0:0:0:0:
352,128,86476,1,8,0:0:0:0:
352,128,86636,1,8,0:0:0:0:
352,128,86795,1,8,0:0:0:0:
352,128,86875,1,8,0:0:0:0:
160,128,86955,1,0,0:0:0:0:
160,256,87114,1,4,0:0:0:0:
352,256,87434,1,12,0:0:0:0:
160,128,87593,1,0,0:0:0:0:
160,128,87673,1,0,0:0:0:0:
352,128,87753,1,8,0:0:0:0:
160,128,87912,1,0,0:0:0:0:
352,128,87992,1,8,0:0:0:0:
160,128,88072,1,0,0:0:0:0:
160,128,88231,1,0,0:0:0:0:
352,128,88391,1,8,0:0:0:0:
352,128,88471,1,8,0:0:0:0:
352,128,88551,1,8,0:0:0:0:
352,128,88710,1,8,0:0:0:0:
352,128,89029,1,8,0:0:0:0:
352,128,89348,1,8,0:0:0:0:
352,128,89987,1,8,0:0:0:0:
352,128,90306,1,8,0:0:0:0:
352,128,90625,1,8,0:0:0:0:
352,128,90784,1,8,0:0:0:0:
352,128,91104,1,8,0:0:0:0:
352,128,91423,1,8,0:0:0:0:
352,128,91582,1,8,0:0:0:0:
352,128,91742,1,8,0:0:0:0:
352,128,91901,1,8,0:0:0:0:
160,128,92540,1,0,0:0:0:0:
160,128,92859,1,0,0:0:0:0:
352,128,93178,1,8,0:0:0:0:
352,128,93337,1,8,0:0:0:0:
160,128,93657,1,0,0:0:0:0:
352,128,93976,1,8,0:0:0:0:
352,128,94135,1,8,0:0:0:0:
160,128,94295,1,0,0:0:0:0:
352,128,94454,1,8,0:0:0:0:
160,128,94774,1,0,0:0:0:0:
160,128,95093,1,0,0:0:0:0:
352,128,95412,1,8,0:0:0:0:
352,128,95571,1,8,0:0:0:0:
160,128,95891,1,0,0:0:0:0:
352,128,96210,1,8,0:0:0:0:
160,128,96369,1,0,0:0:0:0:
160,128,96529,1,0,0:0:0:0:
352,128,96688,1,8,0:0:0:0:
160,128,97008,1,0,0:0:0:0:
160,128,97327,1,0,0:0:0:0:
352,128,97646,1,8,0:0:0:0:
352,128,97805,1,8,0:0:0:0:
160,128,98125,1,0,0:0:0:0:
352,128,98444,1,8,0:0:0:0:
352,128,98603,1,8,0:0:0:0:
160,128,98763,1,0,0:0:0:0:
352,128,98922,1,8,0:0:0:0:
160,128,99242,1,0,0:0:0:0:
160,128,99561,1,0,0:0:0:0:
352,128,99880,1,8,0:0:0:0:
352,128,100040,1,8,0:0:0:0:
160,128,100359,1,0,0:0:0:0:
352,128,100678,1,8,0:0:0:0:
160,128,100837,1,0,0:0:0:0:
160,128,100997,1,0,0:0:0:0:
352,128,101157,1,8,0:0:0:0:
160,128,101795,1,0,0:0:0:0:
352,128,102114,1,8,0:0:0:0:
160,128,102273,1,0,0:0:0:0:
352,128,102433,1,8,0:0:0:0:
352,128,102592,1,8,0:0:0:0:
160,128,102752,1,0,0:0:0:0:
352,128,102912,1,8,0:0:0:0:
352,128,103231,1,8,0:0:0:0:
352,128,103390,1,8,0:0:0:0:
160,128,103550,1,0,0:0:0:0:
352,128,103709,1,8,0:0:0:0:
160,128,104029,1,0,0:0:0:0:
352,128,104348,1,8,0:0:0:0:
160,128,104507,1,0,0:0:0:0:
352,128,104667,1,8,0:0:0:0:
160,128,104826,1,0,0:0:0:0:
160,128,104986,1,0,0:0:0:0:
352,128,105146,1,8,0:0:0:0:
160,128,105465,1,0,0:0:0:0:
352,128,105624,1,8,0:0:0:0:
160,128,105784,1,0,0:0:0:0:
352,128,105943,1,8,0:0:0:0:
352,128,106103,1,8,0:0:0:0:
160,128,106263,1,0,0:0:0:0:
352,128,106582,1,8,0:0:0:0:
160,128,106741,1,0,0:0:0:0:
352,128,106901,1,8,0:0:0:0:
352,128,107060,1,8,0:0:0:0:
160,128,107220,1,0,0:0:0:0:
352,128,107380,1,8,0:0:0:0:
352,128,107699,1,8,0:0:0:0:
352,128,107858,1,8,0:0:0:0:
160,128,108018,1,0,0:0:0:0:
352,128,108177,1,8,0:0:0:0:
160,128,108497,1,0,0:0:0:0:
352,128,108816,1,8,0:0:0:0:
160,128,108975,1,0,0:0:0:0:
352,128,109135,1,8,0:0:0:0:
160,128,109295,1,0,0:0:0:0:
160,128,109454,1,0,0:0:0:0:
352,128,109614,1,8,0:0:0:0:
160,128,109933,1,0,0:0:0:0:
352,128,110092,1,8,0:0:0:0:
160,128,110252,1,0,0:0:0:0:
352,128,110412,1,8,0:0:0:0:
160,128,110732,1,0,0:0:0:0:
160,128,110811,1,0,0:0:0:0:
160,128,110891,1,0,0:0:0:0:
352,256,111051,1,12,0:0:0:0:
352,256,111370,1,12,0:0:0:0:
352,256,111689,1,12,0:0:0:0:
352,256,111848,1,12,0:0:0:0:
352,256,112168,1,12,0:0:0:0:
352,256,112487,1,12,0:0:0:0:
352,256,112646,1,12,0:0:0:0:
352,256,112965,1,12,0:0:0:0:
352,256,113285,1,12,0:0:0:0:
352,256,113604,1,12,0:0:0:0:
352,256,113923,1,12,0:0:0:0:
352,256,114082,1,12,0:0:0:0:
352,256,114401,1,12,0:0:0:0:
352,256,114721,1,12,0:0:0:0:
352,256,114880,1,12,0:0:0:0:
352,256,115199,1,12,0:0:0:0:
352,128,115519,1,8,0:0:0:0:
352,128,115598,1,8,0:0:0:0:
352,128,115678,1,8,0:0:0:0:
352,128,115758,1,8,0:0:0:0:
160,128,115838,1,0,0:0:0:0:
352,128,116157,1,8,0:0:0:0:
160,128,116316,1,0,0:0:0:0:
352,128,116476,1,8,0:0:0:0:
352,128,116635,1,8,0:0:0:0:
160,128,116795,1,0,0:0:0:0:
352,128,116955,1,8,0:0:0:0:
352,128,117274,1,8,0:0:0:0:
352,128,117433,1,8,0:0:0:0:
160,128,117593,1,0,0:0:0:0:
352,128,117752,1,8,0:0:0:0:
160,128,118072,1,0,0:0:0:0:
352,128,118391,1,8,0:0:0:0:
160,128,118550,1,0,0:0:0:0:
352,128,118710,1,8,0:0:0:0:
352,128,118869,1,8,0:0:0:0:
160,128,119029,1,0,0:0:0:0:
352,128,119189,1,8,0:0:0:0:
352,128,119508,1,8,0:0:0:0:
352,128,119667,1,8,0:0:0:0:
160,128,119827,1,0,0:0:0:0:
352,128,119986,1,8,0:0:0:0:
352,128,120066,1,8,0:0:0:0:
160,128,120146,1,0,0:0:0:0:
352,256,120306,1,12,0:0:0:0:
352,256,120625,1,12,0:0:0:0:
352,256,120944,1,12,0:0:0:0:
352,256,121103,1,12,0:0:0:0:
352,256,121423,1,12,0:0:0:0:
352,256,121742,1,12,0:0:0:0:
352,256,121901,1,12,0:0:0:0:
352,256,122220,1,12,0:0:0:0:
352,256,122540,1,12,0:0:0:0:
352,256,122859,1,12,0:0:0:0:
352,256,123178,1,12,0:0:0:0:
352,256,123338,1,12,0:0:0:0:
352,256,123657,1,12,0:0:0:0:
352,256,123976,1,12,0:0:0:0:
352,256,124135,1,12,0:0:0:0:
352,256,124455,1,12,0:0:0:0:
352,128,124774,1,8,0:0:0:0:
352,128,124853,1,8,0:0:0:0:
352,128,124933,1,8,0:0:0:0:
352,128,125013,1,8,0:0:0:0:
160,128,125093,1,0,0:0:0:0:
352,128,125412,1,8,0:0:0:0:
160,128,125571,1,0,0:0:0:0:
352,128,125731,1,8,0:0:0:0:
160,128,125890,1,0,0:0:0:0:
160,128,126050,1,0,0:0:0:0:
352,128,126210,1,8,0:0:0:0:
352,128,126529,1,8,0:0:0:0:
352,128,126688,1,8,0:0:0:0:
160,128,126848,1,0,0:0:0:0:
352,128,127007,1,8,0:0:0:0:
352,128,127087,1,8,0:0:0:0:
160,128,127167,1,0,0:0:0:0:
352,256,127327,1,12,0:0:0:0:
352,256,127646,1,12,0:0:0:0:
352,256,127965,1,12,0:0:0:0:
352,256,128124,1,12,0:0:0:0:
352,256,128444,1,12,0:0:0:0:
352,256,128763,1,12,0:0:0:0:
352,256,128922,1,12,0:0:0:0:
352,128,129241,1,8,0:0:0:0:
352,128,129321,1,8,0:0:0:0:
352,128,129401,1,8,0:0:0:0:
352,128,129481,1,8,0:0:0:0:
160,128,129561,1,0,0:0:0:0:
352,128,129880,1,8,0:0:0:0:
160,128,130039,1,0,0:0:0:0:
352,128,130199,1,8,0:0:0:0:
352,128,130358,1,8,0:0:0:0:
160,128,130518,1,0,0:0:0:0:
352,128,130678,1,8,0:0:0:0:
352,128,130997,1,8,0:0:0:0:
352,128,131156,1,8,0:0:0:0:
160,128,131316,1,0,0:0:0:0:
352,128,131475,1,8,0:0:0:0:
352,128,131555,1,8,0:0:0:0:
160,128,131635,1,0,0:0:0:0:
352,256,131795,1,12,0:0:0:0:
352,256,132114,1,12,0:0:0:0:
352,256,132433,1,12,0:0:0:0:
352,256,132592,1,12,0:0:0:0:
352,256,132912,1,12,0:0:0:0:
352,256,133231,1,12,0:0:0:0:
352,256,133390,1,12,0:0:0:0:
352,128,133709,1,8,0:0:0:0:
352,128,133789,1,8,0:0:0:0:
352,128,133869,1,8,0:0:0:0:
352,128,133949,1,8,0:0:0:0:
160,128,134029,1,0,0:0:0:0:
352,128,134348,1,8,0:0:0:0:
352,256,134667,1,12,0:0:0:0:
352,256,134827,1,12,0:0:0:0:
352,256,135146,1,12,0:0:0:0:
352,256,135465,1,12,0:0:0:0:
352,256,135624,1,12,0:0:0:0:
352,256,135944,1,12,0:0:0:0:
352,256,136583,1,12,0:0:0:0:
160,128,136742,1,0,0:0:0:0:
352,128,136902,1,8,0:0:0:0:
160,128,136981,1,0,0:0:0:0:
352,128,137141,1,8,0:0:0:0:
160,128,137301,1,0,0:0:0:0:
352,128,137460,1,8,0:0:0:0:
160,128,137540,1,0,0:0:0:0:
352,128,137859,1,8,0:0:0:0:
160,128,138019,1,0,0:0:0:0:
352,128,138178,1,8,0:0:0:0:
160,128,138258,1,0,0:0:0:0:
352,128,138418,1,8,0:0:0:0:
160,128,138577,1,0,0:0:0:0:
352,128,138737,1,8,0:0:0:0:
160,128,138817,1,0,0:0:0:0:
352,128,139136,1,8,0:0:0:0:
160,128,139295,1,0,0:0:0:0:
352,128,139455,1,8,0:0:0:0:
160,128,139535,1,0,0:0:0:0:
352,128,139694,1,8,0:0:0:0:
160,128,139854,1,0,0:0:0:0:
352,128,140013,1,8,0:0:0:0:
160,128,140093,1,0,0:0:0:0:
352,128,140253,1,8,0:0:0:0:
352,128,140412,1,8,0:0:0:0:
160,128,140572,1,0,0:0:0:0:
352,128,140731,1,8,0:0:0:0:
160,128,140811,1,0,0:0:0:0:
352,128,140971,1,8,0:0:0:0:
160,128,141130,1,0,0:0:0:0:
352,128,141290,1,8,0:0:0:0:
160,128,141370,1,0,0:0:0:0:
160,128,141450,1,0,0:0:0:0:
352,128,141529,1,8,0:0:0:0:
160,256,141689,1,4,0:0:0:0:
160,128,142646,1,0,0:0:0:0:
352,128,142965,1,8,0:0:0:0:
352,128,143045,1,8,0:0:0:0:
160,128,143125,1,0,0:0:0:0:
352,128,143285,1,8,0:0:0:0:
352,128,143364,1,8,0:0:0:0:
352,128,143524,1,8,0:0:0:0:
160,128,143604,1,0,0:0:0:0:
352,128,143684,1,8,0:0:0:0:
352,128,143843,1,8,0:0:0:0:
160,128,143923,1,0,0:0:0:0:
352,128,144242,1,8,0:0:0:0:
160,128,144402,1,0,0:0:0:0:
352,128,144561,1,8,0:0:0:0:
160,128,144641,1,0,0:0:0:0:
352,128,144801,1,8,0:0:0:0:
160,128,144960,1,0,0:0:0:0:
352,128,145120,1,8,0:0:0:0:
160,128,145200,1,0,0:0:0:0:
160,128,145359,1,0,0:0:0:0:
352,128,145519,1,8,0:0:0:0:
352,128,145678,1,8,0:0:0:0:
352,128,145838,1,8,0:0:0:0:
160,128,145918,1,0,0:0:0:0:
352,128,146077,1,8,0:0:0:0:
352,128,146237,1,8,0:0:0:0:
352,128,146396,1,8,0:0:0:0:
160,128,146476,1,0,0:0:0:0:
352,128,146556,1,8,0:0:0:0:
352,128,146636,1,8,0:0:0:0:
160,256,146795,1,4,0:0:0:0:
160,128,146955,1,0,0:0:0:0:
160,128,147114,1,0,0:0:0:0:
160,128,147354,1,0,0:0:0:0:
160,128,147513,1,0,0:0:0:0:
160,128,147673,1,0,0:0:0:0:
160,128,147753,1,0,0:0:0:0:
160,128,148072,1,0,0:0:0:0:
160,128,148231,1,0,0:0:0:0:
160,128,148391,1,0,0:0:0:0:
160,128,148630,1,0,0:0:0:0:
160,128,148790,1,0,0:0:0:0:
160,128,148950,1,0,0:0:0:0:
160,128,149029,1,0,0:0:0:0:
160,128,149348,1,0,0:0:0:0:
160,128,149508,1,0,0:0:0:0:
160,128,149668,1,0,0:0:0:0:
160,128,149907,1,0,0:0:0:0:
160,128,150067,1,0,0:0:0:0:
160,128,150226,1,0,0:0:0:0:
160,128,150306,1,0,0:0:0:0:
160,128,150465,1,0,0:0:0:0:
160,128,150625,1,0,0:0:0:0:
160,128,150785,1,0,0:0:0:0:
160,128,150944,1,0,0:0:0:0:
160,128,151184,1,0,0:0:0:0:
160,128,151343,1,0,0:0:0:0:
160,128,151503,1,0,0:0:0:0:
160,128,151583,1,0,0:0:0:0:
160,128,151902,1,0,0:0:0:0:
160,128,152061,1,0,0:0:0:0:
160,128,152221,1,0,0:0:0:0:
160,128,152460,1,0,0:0:0:0:
160,128,152620,1,0,0:0:0:0:
160,128,152779,1,0,0:0:0:0:
160,128,152859,1,0,0:0:0:0:
160,128,153178,1,0,0:0:0:0:
160,128,153338,1,0,0:0:0:0:
160,128,153497,1,0,0:0:0:0:
160,128,153737,1,0,0:0:0:0:
160,128,153896,1,0,0:0:0:0:
160,128,154056,1,0,0:0:0:0:
160,128,154136,1,0,0:0:0:0:
160,128,154455,1,0,0:0:0:0:
160,128,154614,1,0,0:0:0:0:
160,128,154774,1,0,0:0:0:0:
160,128,155013,1,0,0:0:0:0:
160,128,155173,1,0,0:0:0:0:
160,128,155333,1,0,0:0:0:0:
160,128,155412,1,0,0:0:0:0:
160,128,155572,1,0,0:0:0:0:
160,128,155731,1,0,0:0:0:0:
160,128,155891,1,0,0:0:0:0:
160,128,156051,1,0,0:0:0:0:
160,128,156290,1,0,0:0:0:0:
160,128,156450,1,0,0:0:0:0:
160,128,156609,1,0,0:0:0:0:
160,128,156689,1,0,0:0:0:0:
352,128,157008,1,8,0:0:0:0:
352,128,157168,1,8,0:0:0:0:
352,128,157327,1,8,0:0:0:0:
352,128,157567,1,8,0:0:0:0:
352,128,157726,1,8,0:0:0:0:
352,128,157886,1,8,0:0:0:0:
352,128,157965,1,8,0:0:0:0:
352,128,158285,1,8,0:0:0:0:
352,128,158444,1,8,0:0:0:0:
352,128,158604,1,8,0:0:0:0:
352,128,158843,1,8,0:0:0:0:
352,128,159003,1,8,0:0:0:0:
352,128,159162,1,8,0:0:0:0:
352,128,159242,1,8,0:0:0:0:
352,128,159561,1,8,0:0:0:0:
352,128,159721,1,8,0:0:0:0:
352,128,159880,1,8,0:0:0:0:
352,128,160120,1,8,0:0:0:0:
352,128,160279,1,8,0:0:0:0:
352,128,160439,1,8,0:0:0:0:
352,128,160519,1,8,0:0:0:0:
352,128,160678,1,8,0:0:0:0:
352,128,160838,1,8,0:0:0:0:
352,128,160997,1,8,0:0:0:0:
352,128,161157,1,8,0:0:0:0:
352,128,161396,1,8,0:0:0:0:
352,128,161556,1,8,0:0:0:0:
352,128,161715,1,8,0:0:0:0:
352,128,161795,1,8,0:0:0:0:
352,128,162114,1,8,0:0:0:0:
352,128,162274,1,8,0:0:0:0:
352,128,162434,1,8,0:0:0:0:
352,128,162673,1,8,0:0:0:0:
352,128,162833,1,8,0:0:0:0:
352,128,162992,1,8,0:0:0:0:
352,128,163072,1,8,0:0:0:0:
352,128,163391,1,8,0:0:0:0:
352,128,163551,1,8,0:0:0:0:
352,128,163710,1,8,0:0:0:0:
352,128,163950,1,8,0:0:0:0:
352,128,164109,1,8,0:0:0:0:
352,128,164269,1,8,0:0:0:0:
352,128,164348,1,8,0:0:0:0:
352,128,164668,1,8,0:0:0:0:
352,128,164827,1,8,0:0:0:0:
352,128,164987,1,8,0:0:0:0:
352,128,165226,1,8,0:0:0:0:
352,128,165386,1,8,0:0:0:0:
352,128,165545,1,8,0:0:0:0:
352,128,165625,1,8,0:0:0:0:
352,128,165785,1,8,0:0:0:0:
352,128,165944,1,8,0:0:0:0:
352,128,166263,1,8,0:0:0:0:
352,128,166583,1,8,0:0:0:0:
160,256,167221,1,4,0:0:0:0:
160,128,167540,1,0,0:0:0:0:
352,256,167700,1,12,0:0:0:0:
352,128,168019,1,8,0:0:0:0:
160,256,168178,1,4,0:0:0:0:
160,128,168497,1,0,0:0:0:0:
352,256,168657,1,12,0:0:0:0:
352,128,168976,1,8,0:0:0:0:
352,128,169136,1,8,0:0:0:0:
352,128,169215,1,8,0:0:0:0:
352,128,169295,1,8,0:0:0:0:
352,128,169375,1,8,0:0:0:0:
352,128,169455,1,8,0:0:0:0:
352,128,169614,1,8,0:0:0:0:
160,256,169774,1,4,0:0:0:0:
160,128,170093,1,0,0:0:0:0:
352,256,170253,1,12,0:0:0:0:
352,128,170572,1,8,0:0:0:0:
160,256,170731,1,4,0:0:0:0:
160,128,171051,1,0,0:0:0:0:
352,256,171210,1,12,0:0:0:0:
352,128,171529,1,8,0:0:0:0:
352,128,171689,1,8,0:0:0:0:
352,128,171769,1,8,0:0:0:0:
352,128,171848,1,8,0:0:0:0:
352,128,171928,1,8,0:0:0:0:
160,128,172008,1,0,0:0:0:0:
160,128,172168,1,0,0:0:0:0:
352,256,172327,1,12,0:0:0:0:
352,128,172567,1,8,0:0:0:0:
160,128,172646,1,0,0:0:0:0:
352,128,172806,1,8,0:0:0:0:
160,128,172965,1,0,0:0:0:0:
160,128,173045,1,0,0:0:0:0:
352,128,173125,1,8,0:0:0:0:
352,128,173285,1,8,0:0:0:0:
160,128,173444,1,0,0:0:0:0:
352,128,173524,1,8,0:0:0:0:
160,128,173604,1,0,0:0:0:0:
352,128,173763,1,8,0:0:0:0:
352,128,173843,1,8,0:0:0:0:
160,128,173923,1,0,0:0:0:0:
160,128,174083,1,0,0:0:0:0:
352,128,174242,1,8,0:0:0:0:
352,128,174561,1,8,0:0:0:0:
160,256,174880,1,4,0:0:0:0:
160,128,175200,1,0,0:0:0:0:
352,256,175359,1,12,0:0:0:0:
352,128,175678,1,8,0:0:0:0:
160,256,175838,1,4,0:0:0:0:
160,128,176157,1,0,0:0:0:0:
352,256,176317,1,12,0:0:0:0:
352,128,176636,1,8,0:0:0:0:
352,128,176795,1,8,0:0:0:0:
352,128,176875,1,8,0:0:0:0:
352,128,176955,1,8,0:0:0:0:
352,128,177035,1,8,0:0:0:0:
352,128,177114,1,8,0:0:0:0:
352,128,177274,1,8,0:0:0:0:
160,256,177434,1,4,0:0:0:0:
256,192,177593,12,0,178710,0:0:0:0:
352,128,178870,5,8,0:0:0:0:
352,128,179189,1,8,0:0:0:0:
352,128,179508,1,8,0:0:0:0:
256,192,179668,12,0,179827,0:0:0:0:
160,256,179987,5,4,0:0:0:0:
352,128,180306,1,8,0:0:0:0:
160,128,180465,1,0,0:0:0:0:
160,128,180545,1,0,0:0:0:0:
352,128,180625,1,8,0:0:0:0:
160,128,180785,1,0,0:0:0:0:
352,128,180944,1,8,0:0:0:0:
160,256,181104,1,4,0:0:0:0:
160,128,181423,1,0,0:0:0:0:
352,128,181583,1,8,0:0:0:0:
160,128,181742,1,0,0:0:0:0:
352,128,181822,1,8,0:0:0:0:
160,128,181902,1,0,0:0:0:0:
160,128,182061,1,0,0:0:0:0:
352,128,182221,1,8,0:0:0:0:
160,256,182540,1,4,0:0:0:0:
352,128,182859,1,8,0:0:0:0:
160,128,183019,1,0,0:0:0:0:
160,128,183178,1,0,0:0:0:0:
160,128,183258,1,0,0:0:0:0:
352,128,183338,1,8,0:0:0:0:
352,128,183418,1,8,0:0:0:0:
160,128,183497,1,0,0:0:0:0:
352,256,183657,1,12,0:0:0:0:
160,128,183976,1,0,0:0:0:0:
352,128,184136,1,8,0:0:0:0:
160,128,184295,1,0,0:0:0:0:
352,128,184455,1,8,0:0:0:0:
352,128,184535,1,8,0:0:0:0:
160,128,184614,1,0,0:0:0:0:
160,128,184694,1,0,0:0:0:0:
352,128,184774,1,8,0:0:0:0:
160,256,185093,1,4,0:0:0:0:
352,128,185412,1,8,0:0:0:0:
160,128,185572,1,0,0:0:0:0:
160,128,185652,1,0,0:0:0:0:
352,128,185731,1,8,0:0:0:0:
352,128,185891,1,8,0:0:0:0:
352,128,186051,1,8,0:0:0:0:
160,256,186210,1,4,0:0:0:0:
160,128,186529,1,0,0:0:0:0:
352,128,186689,1,8,0:0:0:0:
160,128,186848,1,0,0:0:0:0:
160,128,186928,1,0,0:0:0:0:
352,128,187008,1,8,0:0:0:0:
160,128,187168,1,0,0:0:0:0:
352,128,187327,1,8,0:0:0:0:
160,256,187646,1,4,0:0:0:0:
160,128,187806,1,0,0:0:0:0:
160,128,187886,1,0,0:0:0:0:
352,128,187965,1,8,0:0:0:0:
352,128,188125,1,8,0:0:0:0:
160,128,188285,1,0,0:0:0:0:
160,128,188364,1,0,0:0:0:0:
352,128,188444,1,8,0:0:0:0:
352,128,188524,1,8,0:0:0:0:
160,128,188604,1,0,0:0:0:0:
352,256,188763,1,12,0:0:0:0:
352,128,189083,1,8,0:0:0:0:
352,128,189162,1,8,0:0:0:0:
160,128,189242,1,0,0:0:0:0:
352,128,189402,1,8,0:0:0:0:
160,128,189481,1,0,0:0:0:0:
352,128,189561,1,8,0:0:0:0:
160,128,189721,1,0,0:0:0:0:
352,128,189880,1,8,0:0:0:0:
160,256,190200,1,4,0:0:0:0:
352,128,190519,1,8,0:0:0:0:
160,128,190678,1,0,0:0:0:0:
160,128,190758,1,0,0:0:0:0:
352,128,190838,1,8,0:0:0:0:
160,128,190997,1,0,0:0:0:0:
352,128,191157,1,8,0:0:0:0:
160,256,191317,1,4,0:0:0:0:
160,128,191636,1,0,0:0:0:0:
352,128,191795,1,8,0:0:0:0:
160,128,191955,1,0,0:0:0:0:
160,128,192035,1,0,0:0:0:0:
160,128,192114,1,0,0:0:0:0:
160,128,192274,1,0,0:0:0:0:
352,128,192434,1,8,0:0:0:0:
160,256,192753,1,4,0:0:0:0:
352,128,193072,1,8,0:0:0:0:
160,128,193231,1,0,0:0:0:0:
352,128,193391,1,8,0:0:0:0:
160,128,193471,1,0,0:0:0:0:
352,128,193551,1,8,0:0:0:0:
352,128,193630,1,8,0:0:0:0:
160,128,193710,1,0,0:0:0:0:
352,256,193870,1,12,0:0:0:0:
352,128,194189,1,8,0:0:0:0:
352,128,194348,1,8,0:0:0:0:
160,128,194508,1,0,0:0:0:0:
352,128,194588,1,8,0:0:0:0:
160,128,194668,1,0,0:0:0:0:
160,128,194827,1,0,0:0:0:0:
160,128,194907,1,0,0:0:0:0:
352,128,194987,1,8,0:0:0:0:
160,256,195306,1,4,0:0:0:0:
352,128,195625,1,8,0:0:0:0:
160,128,195785,1,0,0:0:0:0:
160,128,195864,1,0,0:0:0:0:
352,128,195944,1,8,0:0:0:0:
352,128,196104,1,8,0:0:0:0:
352,128,196263,1,8,0:0:0:0:
160,256,196423,1,4,0:0:0:0:
160,128,196742,1,0,0:0:0:0:
352,128,196902,1,8,0:0:0:0:
160,128,197061,1,0,0:0:0:0:
160,128,197141,1,0,0:0:0:0:
352,128,197221,1,8,0:0:0:0:
160,128,197380,1,0,0:0:0:0:
352,128,197540,1,8,0:0:0:0:
160,256,197859,1,4,0:0:0:0:
160,128,198019,1,0,0:0:0:0:
160,128,198098,1,0,0:0:0:0:
352,128,198178,1,8,0:0:0:0:
352,128,198338,1,8,0:0:0:0:
160,128,198497,1,0,0:0:0:0:
160,128,198577,1,0,0:0:0:0:
352,128,198657,1,8,0:0:0:0:
160,128,198737,1,0,0:0:0:0:
352,128,198817,1,8,0:0:0:0:
352,256,198976,1,12,0:0:0:0:
352,128,199295,1,8,0:0:0:0:
160,128,199375,1,0,0:0:0:0:
352,128,199455,1,8,0:0:0:0:
160,128,199614,1,0,0:0:0:0:
352,128,199774,1,8,0:0:0:0:
352,128,199854,1,8,0:0:0:0:
352,128,199934,1,8,0:0:0:0:
352,128,200013,1,8,0:0:0:0:
160,128,200093,1,0,0:0:0:0:
352,256,200412,1,12,0:0:0:0:
160,128,200572,1,0,0:0:0:0:
160,128,200652,1,0,0:0:0:0:
352,128,200731,1,8,0:0:0:0:
352,128,200891,1,8,0:0:0:0:
352,128,201210,1,8,0:0:0:0:
352,128,201370,1,8,0:0:0:0:
352,128,201450,1,8,0:0:0:0:
160,128,201529,1,0,0:0:0:0:
160,256,201689,1,4,0:0:0:0:
160,128,201848,1,0,0:0:0:0:
352,128,201928,1,8,0:0:0:0:
160,128,202008,1,0,0:0:0:0:
352,128,202168,1,8,0:0:0:0:
160,128,202487,1,0,0:0:0:0:
352,128,202646,1,8,0:0:0:0:
352,128,202806,1,8,0:0:0:0:
160,256,202965,1,4,0:0:0:0:
160,128,203125,1,0,0:0:0:0:
160,128,203205,1,0,0:0:0:0:
352,128,203285,1,8,0:0:0:0:
160,128,203444,1,0,0:0:0:0:
160,128,203763,1,0,0:0:0:0:
160,128,203843,1,0,0:0:0:0:
352,128,203923,1,8,0:0:0:0:
352,128,204083,1,8,0:0:0:0:
160,256,204242,1,4,0:0:0:0:
352,128,204402,1,8,0:0:0:0:
352,128,204481,1,8,0:0:0:0:
160,128,204561,1,0,0:0:0:0:
352,128,204721,1,8,0:0:0:0:
160,128,204880,1,0,0:0:0:0:
352,128,205040,1,8,0:0:0:0:
352,128,205120,1,8,0:0:0:0:
352,128,205200,1,8,0:0:0:0:
352,256,205519,1,12,0:0:0:0:
160,128,205678,1,0,0:0:0:0:
160,128,205758,1,0,0:0:0:0:
352,128,205838,1,8,0:0:0:0:
352,128,205997,1,8,0:0:0:0:
352,128,206317,1,8,0:0:0:0:
352,128,206476,1,8,0:0:0:0:
352,128,206556,1,8,0:0:0:0:
160,128,206636,1,0,0:0:0:0:
160,256,206795,1,4,0:0:0:0:
160,128,206955,1,0,0:0:0:0:
352,128,207035,1,8,0:0:0:0:
160,128,207114,1,0,0:0:0:0:
352,128,207274,1,8,0:0:0:0:
160,128,207593,1,0,0:0:0:0:
352,128,207753,1,8,0:0:0:0:
352,128,207912,1,8,0:0:0:0:
160,256,208072,1,4,0:0:0:0:
160,128,208231,1,0,0:0:0:0:
160,128,208311,1,0,0:0:0:0:
352,128,208391,1,8,0:0:0:0:
160,128,208551,1,0,0:0:0:0:
160,128,208870,1,0,0:0:0:0:
160,128,208950,1,0,0:0:0:0:
352,128,209029,1,8,0:0:0:0:
352,128,209189,1,8,0:0:0:0:
160,256,209348,1,4,0:0:0:0:
352,128,209508,1,8,0:0:0:0:
352,128,209668,1,8,0:0:0:0:
160,128,209827,1,0,0:0:0:0:
352,128,209987,1,8,0:0:0:0:
352,128,210067,1,8,0:0:0:0:
352,128,210146,1,8,0:0:0:0:
352,128,210226,1,8,0:0:0:0:
160,128,210306,1,0,0:0:0:0:
352,256,210625,1,12,0:0:0:0:
160,128,210785,1,0,0:0:0:0:
160,128,210864,1,0,0:0:0:0:
352,128,210944,1,8,0:0:0:0:
352,128,211024,1,8,0:0:0:0:
160,128,211104,1,0,0:0:0:0:
352,128,211263,1,8,0:0:0:0:
352,128,211423,1,8,0:0:0:0:
352,128,211503,1,8,0:0:0:0:
160,128,211583,1,0,0:0:0:0:
160,128,211742,1,0,0:0:0:0:
160,128,211822,1,0,0:0:0:0:
352,128,211902,1,8,0:0:0:0:
352,128,211981,1,8,0:0:0:0:
352,128,212061,1,8,0:0:0:0:
352,128,212221,1,8,0:0:0:0:
160,128,212380,1,0,0:0:0:0:
160,128,212540,1,0,0:0:0:0:
160,128,212700,1,0,0:0:0:0:
160,128,212779,1,0,0:0:0:0:
352,128,212859,1,8,0:0:0:0:
160,128,213019,1,0,0:0:0:0:
352,128,213178,1,8,0:0:0:0:
160,128,213338,1,0,0:0:0:0:
160,128,213418,1,0,0:0:0:0:
352,128,213497,1,8,0:0:0:0:
352,128,213657,1,8,0:0:0:0:
352,128,213737,1,8,0:0:0:0:
160,128,213817,1,0,0:0:0:0:
160,128,213896,1,0,0:0:0:0:
352,128,213976,1,8,0:0:0:0:
160,128,214136,1,0,0:0:0:0:
352,128,214295,1,8,0:0:0:0:
352,128,214455,1,8,0:0:0:0:
352,128,214774,1,8,0:0:0:0:
160,128,214934,1,0,0:0:0:0:
352,128,215093,1,8,0:0:0:0:
352,128,215173,1,8,0:0:0:0:
160,128,215253,1,0,0:0:0:0:
160,128,215333,1,0,0:0:0:0:
352,128,215412,1,8,0:0:0:0:
352,256,215731,1,12,0:0:0:0:
160,128,215891,1,0,0:0:0:0:
160,128,215971,1,0,0:0:0:0:
352,128,216051,1,8,0:0:0:0:
160,128,216210,1,0,0:0:0:0:
352,128,216370,1,8,0:0:0:0:
352,128,216450,1,8,0:0:0:0:
160,128,216529,1,0,0:0:0:0:
160,128,216689,1,0,0:0:0:0:
352,128,216848,1,8,0:0:0:0:
160,128,216928,1,0,0:0:0:0:
352,128,217008,1,8,0:0:0:0:
352,128,217088,1,8,0:0:0:0:
160,128,217168,1,0,0:0:0:0:
352,128,217327,1,8,0:0:0:0:
352,128,217407,1,8,0:0:0:0:
160,128,217487,1,0,0:0:0:0:
160,128,217646,1,0,0:0:0:0:
352,128,217806,1,8,0:0:0:0:
352,128,217886,1,8,0:0:0:0:
352,128,217965,1,8,0:0:0:0:
352,128,218125,1,8,0:0:0:0:
352,128,218444,1,8,0:0:0:0:
352,128,218604,1,8,0:0:0:0:
160,128,218763,1,0,0:0:0:0:
160,128,218843,1,0,0:0:0:0:
160,128,218923,1,0,0:0:0:0:
352,128,219083,1,8,0:0:0:0:
352,128,219242,1,8,0:0:0:0:
160,128,219402,1,0,0:0:0:0:
160,128,219561,1,0,0:0:0:0:
160,128,219641,1,0,0:0:0:0:
352,128,219721,1,8,0:0:0:0:
160,128,219801,1,0,0:0:0:0:
352,128,219880,1,8,0:0:0:0:
160,128,220041,1,0,0:0:0:0:
160,128,220120,1,0,0:0:0:0:
352,128,220200,1,8,0:0:0:0:
160,128,220359,1,0,0:0:0:0:
160,128,220439,1,0,0:0:0:0:
352,128,220519,1,8,0:0:0:0:
352,128,220598,1,8,0:0:0:0:
352,128,220678,1,8,0:0:0:0:
352,128,220758,1,8,0:0:0:0:
160,128,220838,1,0,0:0:0:0:
256,192,220997,12,0,221636,0:0:0:0:
352,128,221795,5,8,0:0:0:0:
352,128,221875,1,8,0:0:0:0:
352,128,221955,1,8,0:0:0:0:
160,256,222114,1,4,0:0:0:0:
352,256,222274,1,12,0:0:0:0:
160,128,222434,1,0,0:0:0:0:
160,128,222513,1,0,0:0:0:0:
160,128,222593,1,0,0:0:0:0:
352,256,222753,1,12,0:0:0:0:
160,128,222912,1,0,0:0:0:0:
352,128,223072,1,8,0:0:0:0:
352,128,223152,1,8,0:0:0:0:
352,128,223231,1,8,0:0:0:0:
352,128,223311,1,8,0:0:0:0:
160,128,223391,1,0,0:0:0:0:
352,128,223551,1,8,0:0:0:0:
160,128,223630,1,0,0:0:0:0:
160,128,223790,1,0,0:0:0:0:
160,128,223950,1,0,0:0:0:0:
352,128,224029,1,8,0:0:0:0:
352,128,224189,1,8,0:0:0:0:
160,256,224348,1,4,0:0:0:0:
352,256,224668,1,12,0:0:0:0:
160,256,224827,1,4,0:0:0:0:
352,128,224987,1,8,0:0:0:0:
352,128,225067,1,8,0:0:0:0:
352,128,225146,1,8,0:0:0:0:
160,256,225306,1,4,0:0:0:0:
352,128,225465,1,8,0:0:0:0:
160,128,225625,1,0,0:0:0:0:
160,128,225705,1,0,0:0:0:0:
160,128,225785,1,0,0:0:0:0:
352,256,225944,1,12,0:0:0:0:
160,256,226104,1,4,0:0:0:0:
352,128,226263,1,8,0:0:0:0:
352,128,226343,1,8,0:0:0:0:
160,128,226423,1,0,0:0:0:0:
160,128,226503,1,0,0:0:0:0:
352,128,226583,1,8,0:0:0:0:
160,128,226742,1,0,0:0:0:0:
352,256,226902,1,12,0:0:0:0:
352,256,227221,1,12,0:0:0:0:
352,256,227380,1,12,0:0:0:0:
160,128,227540,1,0,0:0:0:0:
160,128,227620,1,0,0:0:0:0:
160,128,227700,1,0,0:0:0:0:
352,128,227859,1,8,0:0:0:0:
352,128,228019,1,8,0:0:0:0:
352,128,228178,1,8,0:0:0:0:
352,128,228258,1,8,0:0:0:0:
352,128,228338,1,8,0:0:0:0:
160,256,228497,1,4,0:0:0:0:
160,128,228657,1,0,0:0:0:0:
352,128,228817,1,8,0:0:0:0:
352,128,228896,1,8,0:0:0:0:
160,128,228976,1,0,0:0:0:0:
352,128,229136,1,8,0:0:0:0:
352,128,229215,1,8,0:0:0:0:
352,128,229295,1,8,0:0:0:0:
352,128,229375,1,8,0:0:0:0:
160,128,229455,1,0,0:0:0:0:
160,128,229614,1,0,0:0:0:0:
352,128,229774,1,8,0:0:0:0:
160,128,229854,1,0,0:0:0:0:
352,128,229934,1,8,0:0:0:0:
160,128,230094,1,0,0:0:0:0:
160,128,230173,1,0,0:0:0:0:
160,128,230333,1,0,0:0:0:0:
160,128,230412,1,0,0:0:0:0:
160,128,230572,1,0,0:0:0:0:
352,256,230731,1,12,0:0:0:0:
160,128,231051,1,0,0:0:0:0:
160,128,231370,1,0,0:0:0:0:
352,128,231689,1,8,0:0:0:0:
352,128,232008,1,8,0:0:0:0:
160,128,232168,1,0,0:0:0:0:
352,128,232327,1,8,0:0:0:0:
160,128,232487,1,0,0:0:0:0:
352,128,232567,1,8,0:0:0:0:
160,128,232806,1,0,0:0:0:0:
160,128,232965,1,0,0:0:0:0:
160,128,233125,1,0,0:0:0:0:
352,128,233205,1,8,0:0:0:0:
160,128,233444,1,0,0:0:0:0:
160,128,233604,1,0,0:0:0:0:
160,128,233763,1,0,0:0:0:0:
352,128,233843,1,8,0:0:0:0:
160,128,234083,1,0,0:0:0:0:
160,128,234242,1,0,0:0:0:0:
160,128,234402,1,0,0:0:0:0:
352,128,234481,1,8,0:0:0:0:
160,128,234721,1,0,0:0:0:0:
160,128,234880,1,0,0:0:0:0:
352,128,235120,1,8,0:0:0:0:
160,128,235200,1,0,0:0:0:0:
352,128,235439,1,8,0:0:0:0:
160,128,235519,1,0,0:0:0:0:
352,128,235758,1,8,0:0:0:0:
160,128,235838,1,0,0:0:0:0:
352,128,236077,1,8,0:0:0:0:
160,128,236157,1,0,0:0:0:0:
160,128,236316,1,0,0:0:0:0:
160,128,236476,1,0,0:0:0:0:
160,128,236635,1,0,0:0:0:0:
160,128,236795,1,0,0:0:0:0:
160,128,236955,1,0,0:0:0:0:
352,128,237114,1,8,0:0:0:0:
352,128,237194,1,8,0:0:0:0:
352,128,237274,1,8,0:0:0:0:
352,256,237434,1,12,0:0:0:0:
160,128,237593,1,0,0:0:0:0:
352,128,237753,1,8,0:0:0:0:
160,128,237833,1,0,0:0:0:0:
352,128,237992,1,8,0:0:0:0:
160,128,238152,1,0,0:0:0:0:
352,128,238311,1,8,0:0:0:0:
160,128,238391,1,0,0:0:0:0:
160,128,238551,1,0,0:0:0:0:
352,128,238710,1,8,0:0:0:0:
160,128,238870,1,0,0:0:0:0:
352,128,239029,1,8,0:0:0:0:
160,128,239109,1,0,0:0:0:0:
352,128,239269,1,8,0:0:0:0:
160,128,239428,1,0,0:0:0:0:
352,128,239588,1,8,0:0:0:0:
160,128,239668,1,0,0:0:0:0:
352,128,239827,1,8,0:0:0:0:
160,128,239987,1,0,0:0:0:0:
352,128,240625,1,8,0:0:0:0:
352,128,240785,1,8,0:0:0:0:
352,128,240944,1,8,0:0:0:0:
352,128,241024,1,8,0:0:0:0:
352,128,241104,1,8,0:0:0:0:
160,256,241263,1,4,0:0:0:0:
352,128,241423,1,8,0:0:0:0:
352,128,241583,1,8,0:0:0:0:
160,128,241662,1,0,0:0:0:0:
352,128,241822,1,8,0:0:0:0:
160,128,241981,1,0,0:0:0:0:
352,128,242141,1,8,0:0:0:0:
160,128,242221,1,0,0:0:0:0:
352,128,242540,1,8,0:0:0:0:
352,128,242620,1,8,0:0:0:0:
352,128,242700,1,8,0:0:0:0:
352,128,242779,1,8,0:0:0:0:
352,128,242859,1,8,0:0:0:0:
352,128,242939,1,8,0:0:0:0:
352,128,243019,1,8,0:0:0:0:
352,128,243098,1,8,0:0:0:0:
352,128,243178,1,8,0:0:0:0:
