osu file format v14

[General]
AudioFilename: audio.mp3
AudioLeadIn: 0
PreviewTime: 127224
Countdown: 0
SampleSet: Soft
StackLeniency: 0.2
Mode: 0
LetterboxInBreaks: 0
WidescreenStoryboard: 1

[Editor]
DistanceSpacing: 1
BeatDivisor: 4
GridSize: 32
TimelineZoom: 2.1

[Metadata]
Title:Amanita
TitleUnicode:Amanita
Artist:Marmalade butcher
ArtistUnicode:Marmalade butcher
Creator:Camo
Version:X
Source:
Tags:mao zelq deviouspanda asaben asa olsonn megafan paradogi nullum sonum ヌルムソヌム instrumental math rock fa featured artist o!wc owc owc2020 finals hd1
BeatmapID:3350946
BeatmapSetID:1473778

[Difficulty]
HPDrainRate:5.5
CircleSize:4
OverallDifficulty:9.4
ApproachRate:9.6
SliderMultiplier:1.97
SliderTickRate:1

[Events]
//Background and Video events
0,0,"84719437_p0.jpg",0,0
//Break Periods
2,79826,82828
//Storyboard Layer 0 (Background)
//Storyboard Layer 1 (Fail)
//Storyboard Layer 2 (Pass)
//Storyboard Layer 3 (Foreground)
//Storyboard Layer 4 (Overlay)
//Storyboard Sound Samples

[TimingPoints]
1384,309.278350515464,4,2,1,60,1,0
1384,-76.9230769230769,4,2,1,60,0,0
2621,-71.4285714285714,4,2,1,60,0,0
4631,-58.8235294117647,4,2,1,60,0,0
5095,-71.4285714285714,4,2,1,60,0,0
6796,-58.8235294117647,4,2,1,60,0,0
7878,-71.4285714285714,4,2,1,60,0,0
9579,-52.6315789473684,4,2,1,60,0,0
10043,-71.4285714285714,4,2,1,60,0,0
12518,309.278350515464,7,2,1,60,1,0
12518,-58.8235294117647,7,2,1,60,0,0
12749,-58.8235294117647,7,2,1,5,0,0
12827,-76.9230769230769,7,2,1,60,0,0
14373,-333.333333333333,7,2,1,60,0,0
14605,-333.333333333333,7,2,1,5,0,0
14682,-58.8235294117647,7,2,1,60,0,0
14914,-58.8235294117647,7,2,1,5,0,0
14992,-76.9230769230769,7,2,1,60,0,0
16847,309.278350515464,6,2,1,60,1,0
16847,-58.8235294117647,6,2,1,60,0,0
17078,-58.8235294117647,6,2,1,5,0,0
17156,-76.9230769230769,6,2,1,60,0,0
18702,309.278350515464,7,2,1,60,1,0
18702,-58.8235294117647,7,2,1,60,0,0
18933,-58.8235294117647,7,2,1,5,0,0
19011,-76.9230769230769,7,2,1,60,0,0
20866,309.278350515464,4,2,1,50,1,0
20866,-83.3333333333333,4,2,1,50,0,0
23340,309.278350515464,6,2,1,50,1,0
23340,-83.3333333333333,6,2,1,50,0,0
25195,309.278350515464,4,2,1,50,1,0
25195,-83.3333333333333,4,2,1,50,0,0
27669,309.278350515464,6,2,1,50,1,0
27669,-83.3333333333333,6,2,1,50,0,0
29524,309.278350515464,4,2,1,50,1,0
29524,-76.9230769230769,4,2,1,50,0,0
31688,-62.5,4,2,1,50,0,0
31920,-62.5,4,2,1,5,0,0
31998,309.278350515464,6,2,1,50,1,0
31998,-76.9230769230769,6,2,1,50,0,0
32307,-62.5,6,2,1,50,0,0
32616,-76.9230769230769,6,2,1,50,0,0
33544,-62.5,6,2,1,50,0,0
33775,-62.5,6,2,1,5,0,0
33853,309.278350515464,4,2,1,50,1,0
33853,-76.9230769230769,4,2,1,50,0,0
37564,-71.4285714285714,4,2,1,50,0,0
40657,-90.9090909090909,4,2,1,50,0,0
40889,-90.9090909090909,4,2,1,5,0,0
40966,-333.333333333333,4,2,1,50,0,0
41198,-333.333333333333,4,2,1,5,0,0
41275,-71.4285714285714,4,2,1,50,0,0
43131,-90.9090909090909,4,2,1,50,0,0
43440,-333.333333333333,4,2,1,50,0,0
43672,-333.333333333333,4,2,1,5,0,0
43749,-71.4285714285714,4,2,1,50,0,0
45605,-90.9090909090909,4,2,1,50,0,0
45837,-90.9090909090909,4,2,1,5,0,0
45914,-333.333333333333,4,2,1,50,0,0
46146,-333.333333333333,4,2,1,5,0,0
46224,-71.4285714285714,4,2,1,50,0,0
48234,-100,4,2,1,50,0,0
48389,-71.4285714285714,4,2,1,50,0,0
48698,-66.6666666666667,4,2,1,80,0,1
58285,-66.6666666666667,4,2,1,80,0,0
58595,-66.6666666666667,4,2,1,80,0,1
68492,-100,4,2,1,70,0,0
69729,-71.4285714285714,4,2,1,70,0,0
70038,-83.3333333333333,4,2,1,70,0,0
71430,-66.6666666666667,4,2,1,70,0,0
71662,-66.6666666666667,4,2,1,5,0,0
71739,-83.3333333333333,4,2,1,70,0,0
71894,-166.666666666667,4,2,1,70,0,0
72203,-71.4285714285714,4,2,1,70,0,0
72435,-71.4285714285714,4,2,1,5,0,0
72512,-83.3333333333333,4,2,1,70,0,0
73904,-71.4285714285714,4,2,1,70,0,0
74909,-71.4285714285714,4,2,1,5,0,0
74987,-83.3333333333333,4,2,1,70,0,0
76378,-71.4285714285714,4,2,1,70,0,0
76610,-71.4285714285714,4,2,1,5,0,0
76688,-83.3333333333333,4,2,1,70,0,0
77151,-71.4285714285714,4,2,1,70,0,0
77383,-71.4285714285714,4,2,1,5,0,0
77461,-83.3333333333333,4,2,1,70,0,0
79626,-333.333333333334,4,2,1,50,0,0
82023,-333.333333333334,4,2,1,5,0,0
82100,-333.333333333334,4,2,1,50,0,0
83955,309.278350515464,4,2,1,50,1,0
83955,-200,4,2,1,50,0,0
87666,-100,4,2,1,70,0,0
88284,309.278350515464,4,2,1,70,1,0
88284,-76.9230769230769,4,2,1,70,0,0
90758,-62.5,4,2,1,70,0,0
90990,-76.9230769230769,4,2,1,70,0,0
92613,309.278350515464,4,2,1,70,1,0
92613,-76.9230769230769,4,2,1,70,0,0
96324,-66.6666666666667,4,2,1,70,0,0
97561,-125,4,2,1,70,0,0
102509,-76.9230769230769,4,2,1,70,0,0
107458,-71.4285714285714,4,2,2,85,0,0
117355,-66.6666666666667,4,2,2,85,0,1
120757,-40,4,2,2,85,0,1
121066,-66.6666666666667,4,2,2,85,0,1
127252,-625,4,2,1,70,0,0
132045,-625,4,2,1,5,0,0
132123,-625,4,2,1,5,0,0
132200,-166.666666666667,4,2,1,70,0,0
137149,-90.9090909090909,4,2,1,60,0,0
137458,-71.4285714285714,4,2,1,60,0,0
137690,-90.9090909090909,4,2,1,60,0,0
140241,-71.4285714285714,4,2,1,60,0,0
140473,-90.9090909090909,4,2,1,60,0,0
142097,-71.4285714285714,4,2,1,60,0,0
142329,-71.4285714285714,4,2,1,5,0,0
142406,-90.9090909090909,4,2,1,60,0,0
143643,-71.4285714285714,4,2,1,60,0,0
143875,-71.4285714285714,4,2,1,5,0,0
143953,-90.9090909090909,4,2,1,60,0,0
145190,-71.4285714285714,4,2,1,60,0,0
145499,-90.9090909090909,4,2,1,60,0,0
147045,-71.4285714285714,4,2,1,90,0,0
151994,-71.4285714285714,4,2,1,90,0,1
156633,-71.4285714285714,4,2,1,90,0,0
156942,-71.4285714285714,4,2,1,90,0,1
158334,-200,4,2,1,90,0,1
158489,-71.4285714285714,4,2,1,90,0,1
166530,-71.4285714285714,4,2,1,90,0,0
166839,-66.6666666666667,4,2,1,95,0,1
170396,-200,4,2,1,95,0,1
170551,-66.6666666666667,4,2,1,95,0,1
176736,-66.6666666666667,4,2,2,95,0,1
186618,309.278350515464,4,2,2,95,1,1
186618,-71.4285714285714,4,2,2,95,0,1
196514,-100,4,2,1,75,0,0
198989,-83.3333333333333,4,2,1,75,0,0
206721,-100,4,2,1,5,0,0

[Colours]
Combo1 : 255,128,128
Combo2 : 245,162,99
Combo3 : 198,147,253
Combo4 : 0,115,230

[HitObjects]
479,165,1384,5,10,0:2:0:0:
437,157,1461,1,8,0:2:0:0:
406,128,1538,1,10,0:2:0:0:
397,88,1615,1,8,0:2:0:0:
408,77,1693,6,0,L|467:54,1,64.0249970691682,10|8,0:2|0:2,0:0:0:0:
306,188,1847,2,0,L|283:129,1,64.0249970691682,10|8,0:2|0:2,0:0:0:0:
157,59,2002,6,0,P|137:31|91:26,1,64.0249970691682,10|8,0:2|0:2,0:0:0:0:
96,122,2157,2,0,P|61:119|28:151,1,64.0249970691682,10|8,0:2|0:2,0:0:0:0:
160,226,2312,5,10,0:2:0:0:
169,226,2389,1,10,0:2:0:0:
179,222,2466,1,10,0:2:0:0:
186,215,2543,1,10,0:2:0:0:
191,204,2621,6,0,P|144:252|148:324,1,137.899995791626,6|2,1:2|0:0,0:0:0:0:
361,268,2930,2,0,P|334:242|278:252,1,68.9499978958131,10|0,0:2|0:0,0:0:0:0:
255,304,3085,2,0,L|262:385,1,68.9499978958131,2|0,1:2|0:0,0:0:0:0:
496,374,3239,5,2,1:2:0:0:
418,359,3394,1,0,1:2:0:0:
505,214,3548,6,0,P|491:252|450:262,1,68.9499978958131,2|0,1:2|0:0,0:0:0:0:
424,185,3703,2,0,P|383:183|361:147,1,68.9499978958131,2|0,1:2|0:0,0:0:0:0:
260,0,3858,6,0,P|270:31|274:78,1,68.9499978958131,2|0,1:2|0:0,0:0:0:0:
210,129,4012,1,2,1:2:0:0:
178,118,4089,1,0,0:0:0:0:
164,87,4166,1,10,0:2:0:0:
360,81,4322,1,2,0:0:0:0:
255,282,4476,6,0,P|274:265|275:214,1,68.9499978958131,2|0,1:2|0:0,0:0:0:0:
201,354,4631,2,0,P|175:316|178:263,1,83.7250015969277,2|0,1:2|0:0,0:0:0:0:
0,107,4786,5,10,0:2:0:0:
203,207,4940,1,2,0:0:0:0:
331,380,5095,6,0,P|349:300|383:214,1,137.899995791626,6|2,1:2|0:0,0:0:0:0:
503,135,5404,2,0,P|493:171|458:185,1,68.9499978958131,10|0,0:2|0:0,0:0:0:0:
385,169,5559,2,0,L|308:147,1,68.9499978958131,2|0,1:2|0:0,0:0:0:0:
466,356,5713,5,10,0:2:0:0:
446,279,5868,1,0,1:2:0:0:
392,46,6023,6,0,P|423:70|430:117,1,68.9499978958131,2|0,1:2|0:0,0:0:0:0:
236,156,6177,2,0,P|241:117|278:87,1,68.9499978958131,10|0,0:2|0:0,0:0:0:0:
354,319,6332,5,2,1:2:0:0:
277,333,6487,1,2,1:2:0:0:
61,377,6641,6,0,P|35:356|38:314,1,68.9499978958131,10|0,0:2|0:0,0:0:0:0:
130,241,6796,2,0,P|136:281|117:318,1,83.7250015969277,2|0,0:0|0:0,0:0:0:0:
0,82,6951,5,10,0:2:0:0:
52,100,7028,1,8,0:2:0:0:
105,118,7105,1,10,0:2:0:0:
158,136,7182,1,8,0:2:0:0:
216,202,7260,5,10,0:2:0:0:
229,198,7337,1,10,0:2:0:0:
243,195,7414,1,10,0:2:0:0:
256,192,7491,1,10,0:2:0:0:
247,115,7569,6,0,L|217:295,1,167.450003193855,6|2,1:2|0:0,0:0:0:0:
452,367,7878,2,0,P|451:325|415:298,1,68.9499978958131,10|0,0:2|0:0,0:0:0:0:
369,265,8033,2,0,L|269:281,1,68.9499978958131,2|0,1:2|0:0,0:0:0:0:
46,384,8188,5,2,1:2:0:0:
125,372,8342,1,0,1:2:0:0:
336,143,8497,6,0,P|328:179|293:203,1,68.9499978958131,2|0,1:2|0:0,0:0:0:0:
227,216,8652,2,0,P|190:219|156:193,1,68.9499978958131,2|0,1:2|0:0,0:0:0:0:
370,5,8806,6,0,P|352:39|374:83,1,68.9499978958131,2|0,1:2|0:0,0:0:0:0:
420,118,8961,1,2,1:2:0:0:
449,133,9038,1,0,0:0:0:0:
483,128,9115,1,10,0:2:0:0:
279,86,9270,1,2,1:2:0:0:
70,358,9425,6,0,P|48:330|61:291,1,68.9499978958131,2|0,1:2|0:0,0:0:0:0:
128,267,9579,2,0,P|157:298|145:353,1,93.574997501278,2|0,1:2|0:0,0:0:0:0:
3,34,9734,5,10,0:2:0:0:
270,0,9889,1,2,0:0:0:0:
250,307,10043,6,0,P|239:226|194:158,1,137.899995791626,4|2,1:2|0:0,0:0:0:0:
93,31,10353,2,0,P|99:67|132:93,1,68.9499978958131,10|0,0:2|0:0,0:0:0:0:
202,99,10507,2,0,L|283:80,1,68.9499978958131,2|0,1:2|0:0,0:0:0:0:
40,229,10662,5,10,0:2:0:0:
16,154,10816,1,0,1:2:0:0:
176,19,10971,5,2,1:2:0:0:
103,374,11126,1,14,0:2:0:0:
103,374,11899,5,8,0:2:0:0:
171,366,11976,1,8,0:2:0:0:
239,358,12053,1,8,0:2:0:0:
308,350,12130,1,8,0:2:0:0:
371,296,12208,5,8,0:2:0:0:
382,300,12285,1,8,0:2:0:0:
393,305,12362,1,8,0:2:0:0:
405,310,12439,1,8,0:2:0:0:
391,384,12518,6,0,P|374:254|361:135,1,251.175004790783,6|0,1:2|0:0,0:0:0:0:
398,67,12827,2,0,P|457:67|474:124,1,128.049994138336,10|0,0:2|0:0,0:0:0:0:
239,224,13136,5,2,1:2:0:0:
278,121,13291,1,2,0:0:0:0:
248,234,13445,2,0,L|264:369,1,128.049994138336,10|2,0:2|0:0,0:0:0:0:
140,57,13755,5,2,1:2:0:0:
189,150,13909,1,2,0:0:0:0:
126,48,14064,2,0,L|-16:24,1,128.049994138336,10|2,0:2|0:0,0:0:0:0:
36,256,14373,6,0,P|65:266|82:284,1,44.3249986473084,14|0,0:2|0:0,0:0:0:0:
34,384,14682,6,0,P|63:238|107:127,1,251.175004790783,6|0,1:2|0:0,0:0:0:0:
161,96,14992,2,0,P|204:134|186:219,1,128.049994138336,10|0,0:2|0:0,0:0:0:0:
85,61,15301,5,2,1:2:0:0:
22,121,15456,1,2,0:0:0:0:
161,96,15610,2,0,L|290:78,1,128.049994138336,10|2,0:2|0:0,0:0:0:0:
447,86,15920,5,2,1:2:0:0:
375,40,16074,1,2,0:0:0:0:
342,250,16229,2,0,L|360:118,1,128.049994138336,10|2,0:2|1:2,0:0:0:0:
264,322,16538,5,10,0:2:0:0:
264,337,16615,1,8,0:2:0:0:
271,352,16692,1,8,0:2:0:0:
282,363,16769,1,8,0:2:0:0:
363,356,16847,6,0,P|240:334|110:317,1,251.175004790783,6|0,1:2|0:0,0:0:0:0:
41,334,17156,2,0,P|5:301|26:211,1,128.049994138336,10|0,0:2|0:0,0:0:0:0:
252,210,17465,5,2,1:2:0:0:
166,194,17620,1,2,1:2:0:0:
66,53,17774,2,0,L|84:188,1,128.049994138336,10|2,0:2|0:0,0:0:0:0:
10,226,18084,1,2,1:2:0:0:
225,16,18238,6,0,L|212:99,1,64.0249970691682,10|0,0:2|0:0,0:0:0:0:
287,128,18393,5,10,0:2:0:0:
298,124,18470,1,8,0:2:0:0:
309,119,18547,1,10,0:2:0:0:
321,114,18624,1,8,0:2:0:0:
392,149,18702,6,0,L|118:98,1,251.175004790783,6|0,1:2|0:0,0:0:0:0:
64,213,19011,2,0,P|139:220|171:178,1,128.049994138336,10|0,0:2|0:0,0:0:0:0:
15,35,19320,5,2,1:2:0:0:
35,124,19475,1,2,1:2:0:0:
296,246,19629,5,10,0:2:0:0:
207,266,19784,1,2,0:0:0:0:
208,21,19939,5,10,0:2:0:0:
218,77,20016,1,8,0:2:0:0:
261,103,20093,1,10,0:2:0:0:
312,98,20171,1,8,0:2:0:0:
336,53,20248,1,10,0:2:0:0:
370,15,20325,1,8,0:2:0:0:
420,2,20403,1,10,0:2:0:0:
462,29,20480,1,8,0:2:0:0:
480,76,20557,1,10,0:2:0:0:
15,366,20866,6,0,P|34:356|74:350,1,59.0999981964112,6|0,1:2|0:0,0:0:0:0:
145,368,21020,1,0,0:0:0:0:
12,191,21175,5,8,0:2:0:0:
131,286,21329,5,2,1:2:0:0:
156,273,21407,1,0,1:2:0:0:
169,249,21484,1,2,0:0:0:0:
123,133,21639,2,0,P|108:155|106:193,1,59.0999981964112,0|0,1:2|0:0,0:0:0:0:
227,333,21793,5,8,0:2:0:0:
254,257,21948,1,2,1:2:0:0:
196,97,22103,6,0,P|178:69|149:61,1,59.0999981964112,2|0,1:2|0:0,0:0:0:0:
78,69,22257,1,0,0:0:0:0:
59,256,22412,5,8,1:2:0:0:
181,380,22567,5,2,1:2:0:0:
200,358,22644,1,0,1:2:0:0:
186,332,22721,1,2,1:2:0:0:
109,348,22876,1,0,1:2:0:0:
279,377,23030,6,0,L|468:353,1,177.299994589234,10|0,0:2|0:0,0:0:0:0:
490,276,23340,6,0,L|498:216,1,59.0999981964112,2|0,1:2|0:0,0:0:0:0:
510,145,23494,1,0,0:0:0:0:
410,285,23649,5,8,0:2:0:0:
209,351,23803,5,2,1:2:0:0:
217,324,23881,1,0,1:2:0:0:
242,309,23958,1,2,0:0:0:0:
325,295,24113,1,0,1:2:0:0:
128,366,24267,5,8,0:2:0:0:
51,373,24422,1,2,1:2:0:0:
24,365,24499,1,0,0:0:0:0:
18,339,24577,1,2,1:2:0:0:
106,245,24731,2,0,P|103:277|82:306,1,59.0999981964112
53,142,24886,6,0,P|26:209|25:264,1,118.199996392822,10|0,0:2|1:2,0:0:0:0:
180,305,25118,5,0,1:2:0:0:
180,305,25195,2,0,P|213:296|226:259,1,59.0999981964112,6|0,1:2|0:0,0:0:0:0:
242,203,25349,1,0,0:0:0:0:
84,70,25504,5,8,0:2:0:0:
145,155,25658,5,2,1:2:0:0:
172,148,25736,1,0,1:2:0:0:
193,130,25813,1,2,0:0:0:0:
217,2,25968,2,0,P|187:11|168:43,1,59.0999981964112,0|0,1:2|0:0,0:0:0:0:
363,143,26122,5,8,0:2:0:0:
279,137,26277,1,2,0:0:0:0:
135,310,26432,6,0,P|152:336|185:338,1,59.0999981964112,2|0,1:2|0:0,0:0:0:0:
250,322,26586,1,0,0:0:0:0:
101,218,26741,6,0,P|49:267|52:327,1,118.199996392822,10|0,0:2|1:2,0:0:0:0:
87,381,26973,1,0,1:2:0:0:
87,381,27050,5,2,1:2:0:0:
180,239,27205,1,0,1:2:0:0:
3,109,27359,5,10,0:2:0:0:
14,188,27514,1,0,1:2:0:0:
179,61,27669,6,0,P|158:40|128:37,1,59.0999981964112,2|0,1:2|0:0,0:0:0:0:
59,47,27823,1,0,0:0:0:0:
82,232,27978,5,8,0:2:0:0:
223,161,28132,5,2,1:2:0:0:
205,145,28210,1,0,1:2:0:0:
182,139,28287,1,2,0:0:0:0:
262,233,28442,2,0,P|289:214|298:187,1,59.0999981964112,0|0,1:2|0:0,0:0:0:0:
322,22,28596,5,8,0:2:0:0:
245,9,28751,1,2,1:2:0:0:
318,107,28906,6,0,P|358:102|373:84,1,59.0999981964112,2|0,1:2|0:0,0:0:0:0:
400,21,29060,1,0,0:0:0:0:
100,8,29215,5,10,0:2:0:0:
108,12,29292,1,8,0:2:0:0:
103,21,29370,1,8,0:2:0:0:
111,25,29447,1,8,0:2:0:0:
185,51,29524,6,0,P|111:77|72:157,1,128.049994138336,6|0,1:2|0:0,0:0:0:0:
86,194,29755,5,0,1:2:0:0:
90,198,29833,2,0,P|134:186|142:163,1,64.0249970691682,8|0,0:2|0:0,0:0:0:0:
10,299,29987,5,2,1:2:0:0:
12,333,30065,1,0,1:2:0:0:
42,351,30142,1,2,0:0:0:0:
94,280,30297,1,0,1:2:0:0:
178,384,30451,6,0,P|249:322|233:272,1,128.049994138336,8|2,0:2|1:2,0:0:0:0:
290,231,30683,5,0,1:2:0:0:
290,231,30761,2,0,P|262:203|224:208,1,64.0249970691682,2|0,1:2|0:0,0:0:0:0:
159,174,30915,2,0,P|148:212|172:242,1,64.0249970691682
328,381,31070,6,0,P|373:365|374:334,1,64.0249970691682,8|0,0:2|0:0,0:0:0:0:
443,213,31225,5,2,1:2:0:0:
408,222,31302,1,0,1:2:0:0:
379,210,31379,2,0,P|397:184|448:189,1,64.0249970691682,2|0,0:0|0:0,0:0:0:0:
459,104,31534,2,0,P|489:113|500:163,1,64.0249970691682,0|0,1:2|0:0,0:0:0:0:
456,303,31688,6,0,P|399:178|308:94,1,236.4,10|0,0:2|0:0,0:0:0:0:
265,39,31998,5,2,0:0:0:0:
257,36,32075,1,2,0:0:0:0:
249,34,32152,1,2,0:0:0:0:
242,32,32229,1,2,0:0:0:0:
176,66,32307,6,0,L|364:21,1,157.6,8|2,0:2|1:2,0:0:0:0:
420,4,32539,5,0,1:2:0:0:
420,4,32616,2,0,L|406:78,1,64.0249970691682,2|0,1:2|0:0,0:0:0:0:
375,139,32771,2,0,P|354:156|313:156,1,64.0249970691682,0|0,1:2|0:0,0:0:0:0:
105,13,32925,5,8,0:2:0:0:
198,183,33080,5,2,1:2:0:0:
225,166,33157,1,0,0:0:0:0:
229,135,33235,1,2,1:2:0:0:
115,201,33389,2,0,P|127:234|177:248,1,64.0249970691682
109,109,33544,6,0,L|76:347,1,236.4,10|0,0:2|1:2,0:0:0:0:
150,382,33853,6,0,P|186:376|204:349,1,64.0249970691682,6|0,1:2|0:0,0:0:0:0:
241,284,34007,2,0,P|245:247|225:222,1,64.0249970691682
0,172,34162,5,8,0:2:0:0:
174,7,34316,5,2,1:2:0:0:
204,18,34394,1,0,1:2:0:0:
217,48,34471,1,2,0:0:0:0:
109,109,34626,1,0,1:2:0:0:
229,135,34780,6,0,P|319:111|336:49,1,128.049994138336,8|2,0:2|1:2,0:0:0:0:
380,21,35012,5,0,1:2:0:0:
380,21,35090,2,0,P|406:27|423:67,1,64.0249970691682,2|0,1:2|0:0,0:0:0:0:
512,62,35244,2,0,P|514:88|481:117,1,64.0249970691682
372,268,35399,6,0,P|377:202|410:138,1,128.049994138336,10|0,0:2|1:2,0:0:0:0:
486,206,35631,1,0,1:2:0:0:
486,206,35708,5,2,1:2:0:0:
332,86,35863,1,0,1:2:0:0:
451,359,36017,5,10,0:2:0:0:
468,283,36172,1,0,1:2:0:0:
322,77,36327,6,0,P|253:53|191:43,1,128.049994138336,2|0,0:0|0:0,0:0:0:0:
118,56,36559,5,0,1:2:0:0:
118,56,36636,2,0,P|126:95|163:112,1,64.0249970691682,8|0,1:2|0:0,0:0:0:0:
406,64,36791,5,2,1:2:0:0:
404,33,36868,1,0,1:2:0:0:
377,16,36945,1,2,0:0:0:0:
285,146,37100,1,0,1:2:0:0:
512,48,37255,6,0,P|476:108|468:183,1,128.049994138336,8|2,0:2|1:2,0:0:0:0:
512,259,37487,5,0,1:2:0:0:
512,259,37564,2,0,L|419:244,1,68.9499978958131,6|0,1:2|0:0,0:0:0:0:
299,227,37718,1,0,0:0:0:0:
348,379,37873,6,0,L|363:286,1,68.9499978958131,10|0,0:2|0:0,0:0:0:0:
380,166,38027,1,0,0:0:0:0:
260,326,38182,5,10,0:2:0:0:
204,365,38259,1,8,0:2:0:0:
138,384,38336,1,8,0:2:0:0:
69,380,38413,1,8,0:2:0:0:
10,332,38492,5,8,0:2:0:0:
8,324,38569,1,8,0:2:0:0:
6,316,38646,1,8,0:2:0:0:
4,308,38724,1,8,0:2:0:0:
59,253,38801,6,0,P|96:249|139:237,1,68.9499978958131,6|0,1:2|0:0,0:0:0:0:
314,128,38956,2,0,P|350:138|389:158,1,68.9499978958131,2|0,0:0|0:0,0:0:0:0:
156,167,39110,6,0,P|187:183|199:215,1,68.9499978958131,10|0,0:2|0:0,0:0:0:0:
297,52,39265,2,0,P|263:61|245:90,1,68.9499978958131,2|0,1:2|0:0,0:0:0:0:
318,246,39420,6,0,P|395:258|495:290,1,137.899995791626,2|0,1:2|0:0,0:0:0:0:
509,366,39651,5,2,0:0:0:0:
509,366,39729,2,0,P|462:362|448:337,1,68.9499978958131,10|2,0:2|0:0,0:0:0:0:
512,129,39883,6,0,P|500:56|420:55,1,137.899995791626,2|0,0:0|1:2,0:0:0:0:
385,93,40115,5,2,0:0:0:0:
385,93,40193,2,0,L|394:170,1,68.9499978958131,2|0,0:0|0:0,0:0:0:0:
268,354,40347,5,10,0:2:0:0:
262,358,40425,1,8,0:2:0:0:
256,362,40502,1,10,0:2:0:0:
250,366,40580,1,8,0:2:0:0:
181,342,40657,6,0,L|341:369,1,162.52500495987,10|0,0:2|0:0,0:0:0:0:
172,350,40966,6,0,L|146:313,1,44.3249986473084,2|0,0:0|0:0,0:0:0:0:
161,242,41275,6,0,P|195:235|221:191,1,68.9499978958131,6|0,1:2|0:0,0:0:0:0:
246,85,41430,2,0,P|223:58|172:55,1,68.9499978958131,2|0,0:0|0:0,0:0:0:0:
370,218,41584,6,0,P|342:237|305:239,1,68.9499978958131,10|0,0:2|0:0,0:0:0:0:
331,99,41739,2,0,P|362:110|386:139,1,68.9499978958131,2|0,1:2|0:0,0:0:0:0:
185,137,41894,6,0,L|43:111,1,137.899995791626,2|0,1:2|0:0,0:0:0:0:
0,0,42126,5,2,0:0:0:0:
0,0,42203,2,0,P|31:5|58:41,1,68.9499978958131,10|2,0:2|0:0,0:0:0:0:
26,362,42358,6,0,P|98:327|88:229,1,137.899995791626,2|0,0:0|1:2,0:0:0:0:
7,186,42590,5,2,0:0:0:0:
7,186,42667,2,0,P|11:227|40:248,1,68.9499978958131,2|0,0:0|0:0,0:0:0:0:
193,304,42822,5,10,0:2:0:0:
201,308,42899,1,2,0:0:0:0:
197,316,42977,1,2,1:2:0:0:
205,320,43054,1,2,0:0:0:0:
261,371,43131,6,0,L|430:353,1,162.52500495987,2|0,1:2|0:0,0:0:0:0:
494,321,43440,6,0,P|477:295|452:290,1,44.3249986473084,2|0,1:2|0:0,0:0:0:0:
387,278,43749,6,0,P|396:242|433:223,1,68.9499978958131,6|0,1:2|0:0,0:0:0:0:
475,164,43904,2,0,P|501:189|499:231,1,68.9499978958131,2|0,0:0|0:0,0:0:0:0:
263,48,44059,6,0,P|284:19|326:19,1,68.9499978958131,10|0,0:2|0:0,0:0:0:0:
386,121,44213,2,0,P|350:117|329:80,1,68.9499978958131,2|0,1:2|1:2,0:0:0:0:
163,226,44368,6,0,P|197:157|269:146,1,137.899995791626,2|0,1:2|0:0,0:0:0:0:
306,251,44600,5,2,0:0:0:0:
306,251,44677,2,0,P|264:247|243:224,1,68.9499978958131,10|2,0:2|0:0,0:0:0:0:
101,0,44832,5,2,1:2:0:0:
36,60,44987,5,8,0:2:0:0:
44,93,45064,1,8,0:2:0:0:
69,115,45141,1,2,0:0:0:0:
103,116,45218,1,0,1:2:0:0:
129,93,45296,1,10,0:2:0:0:
151,67,45373,1,0,0:0:0:0:
184,57,45450,1,2,1:2:0:0:
216,69,45528,1,0,1:2:0:0:
232,99,45605,6,0,P|273:145|376:139,1,162.52500495987,2|0,1:2|0:0,0:0:0:0:
410,80,45914,6,0,P|428:69|452:66,1,44.3249986473084,2|0,0:0|0:0,0:0:0:0:
510,115,46224,5,6,1:2:0:0:
489,198,46378,1,2,0:0:0:0:
489,198,46456,1,2,0:0:0:0:
489,198,46533,1,10,0:2:0:0:
245,382,46688,6,0,P|276:361|284:329,1,68.9499978958131,2|0,1:2|0:0,0:0:0:0:
272,259,46842,1,10,0:2:0:0:
421,315,46997,6,0,P|390:294|382:262,1,68.9499978958131,0|0,1:2|0:0,0:0:0:0:
383,187,47151,2,0,P|392:150|420:132,1,68.9499978958131,2|2,1:2|0:0,0:0:0:0:
485,31,47306,6,0,P|501:34|520:52,2,34.4749989479065,10|0|0,0:2|0:0|0:0,0:0:0:0:
406,30,47461,5,2,1:2:0:0:
399,39,47615,1,2,0:0:0:0:
324,22,47770,5,2,0:0:0:0:
317,31,47924,1,2,0:0:0:0:
239,15,48079,5,2,0:0:0:0:
56,227,48234,6,0,P|89:225|126:210,1,49.25,0|0,1:2|0:0,0:0:0:0:
376,123,48389,6,0,P|404:141|419:188,1,68.9499978958131,8|0,0:2|0:0,0:0:0:0:
498,163,48543,2,0,P|496:196|463:232,1,68.9499978958131,0|0,1:2|1:2,0:0:0:0:
208,378,48698,6,0,P|232:346|232:304,1,73.8750028181077,6|0,3:2|0:0,0:0:0:0:
324,316,48853,2,0,P|318:276|288:246,1,73.8750028181077,2|0,0:0|0:0,0:0:0:0:
93,80,49007,6,0,P|67:99|68:152,1,73.8750028181077,10|0,0:2|0:0,0:0:0:0:
278,177,49162,5,2,0:2:0:0:
238,157,49239,1,2,0:2:0:0:
195,168,49316,1,2,0:2:0:0:
167,203,49394,1,2,0:2:0:0:
146,242,49471,1,2,0:2:0:0:
108,265,49548,1,2,0:2:0:0:
65,252,49626,1,10,0:2:0:0:
186,51,49780,5,2,0:0:0:0:
186,51,49858,1,2,0:0:0:0:
186,51,49935,2,0,P|263:41|349:22,1,147.750005636215,2|0,3:2|0:0,0:0:0:0:
478,173,50244,5,10,0:2:0:0:
497,100,50399,1,0,0:0:0:0:
280,173,50554,6,0,P|248:199|250:239,1,73.8750028181077,2|0,1:2|0:0,0:0:0:0:
167,221,50708,2,0,P|162:262|192:288,1,73.8750028181077
408,355,50863,6,0,P|335:324|257:305,1,147.750005636215,10|0,0:2|0:0,0:0:0:0:
205,368,51095,1,2,0:0:0:0:
205,368,51172,5,2,3:2:0:0:
420,350,51327,1,0,0:0:0:0:
486,200,51481,5,8,0:2:0:0:
491,310,51636,1,0,0:0:0:0:
349,190,51791,5,2,1:2:0:0:
356,153,51868,1,2,0:0:0:0:
363,117,51945,1,2,0:0:0:0:
371,81,52022,1,2,0:0:0:0:
429,31,52100,6,0,B|474:20,6,36.9375014090539,10|0|0|0|0|0|0,0:2|0:0|0:0|0:0|0:0|0:0|0:0,0:0:0:0:
319,18,52409,6,0,P|277:22|244:52,1,73.8750028181077,2|0,3:2|0:0,0:0:0:0:
84,192,52564,2,0,P|43:178|18:142,1,73.8750028181077,2|0,0:0|0:0,0:0:0:0:
161,33,52718,6,0,P|131:34|93:73,1,73.8750028181077,10|0,0:0|0:0,0:0:0:0:
236,204,52873,2,0,P|208:193|186:150,1,73.8750028181077,2|0,0:2|0:0,0:0:0:0:
357,147,53028,5,2,3:2:0:0:
360,137,53105,1,0,0:0:0:0:
364,127,53182,1,0,0:0:0:0:
366,118,53260,1,0,0:0:0:0:
369,110,53337,5,10,0:2:0:0:
376,167,53414,1,0,1:2:0:0:
383,225,53492,1,0,1:2:0:0:
390,283,53568,1,0,1:2:0:0:
397,341,53646,5,6,3:2:0:0:
309,363,53801,1,0,0:0:0:0:
68,297,53956,5,8,0:2:0:0:
85,384,54110,1,0,0:0:0:0:
309,263,54265,5,2,1:2:0:0:
222,280,54419,1,0,0:0:0:0:
48,167,54574,6,0,P|19:131|28:87,1,73.8750028181077,10|0,0:2|0:0,0:0:0:0:
100,89,54729,2,0,P|116:45|159:31,1,73.8750028181077,0|0,1:2|1:2,0:0:0:0:
376,0,54883,5,6,3:2:0:0:
410,178,55037,1,0,0:0:0:0:
444,356,55193,1,8,0:2:0:0:
468,279,55347,5,2,0:0:0:0:
470,270,55425,1,2,0:0:0:0:
473,261,55502,5,2,1:2:0:0:
365,250,55657,1,0,0:0:0:0:
258,2,55811,5,10,0:2:0:0:
248,110,55967,1,0,1:2:0:0:
278,102,56044,1,0,1:2:0:0:
308,94,56121,5,6,3:2:0:0:
86,67,56275,1,0,0:0:0:0:
53,275,56430,5,8,0:2:0:0:
308,110,56584,5,0,1:2:0:0:
278,102,56661,1,0,1:2:0:0:
248,94,56738,5,6,3:2:0:0:
473,79,56894,1,0,0:0:0:0:
244,383,57048,5,8,0:2:0:0:
229,306,57203,1,0,0:0:0:0:
494,302,57358,5,10,3:2:0:0:
429,291,57435,1,8,0:2:0:0:
363,281,57512,1,2,1:2:0:0:
297,271,57589,1,0,1:2:0:0:
233,227,57667,5,8,0:2:0:0:
232,221,57744,1,0,0:0:0:0:
229,215,57821,1,2,0:0:0:0:
226,209,57898,1,0,0:0:0:0:
224,203,57976,6,0,L|150:193,1,73.8750028181077,0|0,1:2|0:0,0:0:0:0:
283,80,58131,2,0,L|300:173,1,73.8750028181077
164,365,58285,5,10,0:2:0:0:
162,356,58363,1,2,0:0:0:0:
160,347,58440,1,2,0:0:0:0:
158,338,58517,1,2,0:0:0:0:
100,286,58595,6,0,L|21:275,1,73.8750028181077,6|0,3:2|0:0,0:0:0:0:
47,190,58749,2,0,L|34:118,1,73.8750028181077,2|0,0:0|0:0,0:0:0:0:
118,85,58904,6,0,L|192:96,1,73.8750028181077,10|0,0:2|0:0,0:0:0:0:
247,315,59059,6,0,L|218:156,1,147.750005636215,2|0,0:0|1:2,0:0:0:0:
435,44,59368,5,2,0:0:0:0:
353,28,59523,1,8,0:2:0:0:
446,297,59677,6,0,P|398:283|389:240,1,73.8750028181077,2|0,0:0|0:0,0:0:0:0:
344,19,59832,5,0,1:2:0:0:
426,35,59987,1,2,0:0:0:0:
310,239,60141,6,0,P|323:205|356:189,1,73.8750028181077,10|0,0:2|0:0,0:0:0:0:
338,110,60296,2,0,P|373:105|404:125,1,73.8750028181077,2|0,0:0|0:0,0:0:0:0:
323,327,60450,5,2,1:2:0:0:
243,322,60605,1,0,0:0:0:0:
33,154,60760,5,10,1:2:0:0:
37,190,60837,1,0,1:2:0:0:
42,227,60914,1,0,1:2:0:0:
46,263,60991,1,0,1:2:0:0:
51,300,61069,6,0,P|74:318|125:321,1,73.8750028181077,2|0,3:2|0:0,0:0:0:0:
286,200,61224,2,0,P|311:186|362:192,1,73.8750028181077,2|0,0:0|0:0,0:0:0:0:
142,130,61378,6,0,P|153:162|158:209,1,73.8750028181077,10|0,0:2|0:0,0:0:0:0:
230,384,61533,6,0,P|234:350|350:313,1,147.750005636215,2|0,0:0|1:2,0:0:0:0:
512,328,61842,5,2,0:0:0:0:
510,365,61920,1,0,0:0:0:0:
482,384,61997,1,8,0:2:0:0:
395,120,62151,6,0,P|427:137|436:179,1,73.8750028181077,2|0,0:0|0:0,0:0:0:0:
174,241,62306,5,2,1:2:0:0:
125,230,62383,1,0,1:2:0:0:
77,220,62460,1,0,1:2:0:0:
29,209,62537,1,0,1:2:0:0:
42,232,62615,5,10,0:2:0:0:
105,212,62692,1,0,1:2:0:0:
168,194,62769,1,0,1:2:0:0:
232,175,62846,1,0,1:2:0:0:
295,156,62925,6,0,L|281:239,1,73.8750028181077,2|0,1:2|1:2,0:0:0:0:
365,194,63079,2,0,L|351:277,1,73.8750028181077,2|0,1:2|1:2,0:0:0:0:
155,85,63234,5,10,0:2:0:0:
149,81,63311,1,2,0:0:0:0:
143,77,63389,1,2,0:0:0:0:
137,73,63466,1,2,0:0:0:0:
188,17,63543,6,0,P|227:13|279:-1,1,73.8750028181077,6|0,3:2|0:0,0:0:0:0:
448,141,63698,2,0,P|483:157|528:187,1,73.8750028181077,2|0,0:0|0:0,0:0:0:0:
405,4,63853,6,0,P|388:48|358:75,1,73.8750028181077,10|0,0:2|0:0,0:0:0:0:
215,269,64007,6,0,P|233:191|306:180,1,147.750005636215,2|0,0:0|1:2,0:0:0:0:
479,369,64316,5,2,0:0:0:0:
503,341,64394,1,2,0:0:0:0:
484,309,64471,1,10,0:2:0:0:
268,335,64626,6,0,P|239:346|190:348,1,73.8750028181077,2|0,0:0|0:0,0:0:0:0:
105,133,64780,6,0,P|132:208|128:283,1,147.750005636215,0|2,1:2|0:0,0:0:0:0:
79,353,65012,5,2,0:0:0:0:
79,353,65090,2,0,P|39:347|20:315,1,73.8750028181077,10|0,0:2|0:0,0:0:0:0:
0,247,65244,2,0,P|3:208|27:183,1,73.8750028181077,2|0,0:0|0:0,0:0:0:0:
226,0,65399,5,2,3:2:0:0:
216,79,65554,1,0,0:0:0:0:
484,309,65708,5,10,3:2:0:0:
405,299,65863,1,0,0:0:0:0:
115,75,66017,5,2,0:2:0:0:
120,130,66094,1,2,0:2:0:0:
125,185,66171,1,2,0:2:0:0:
131,240,66248,1,2,0:2:0:0:
136,295,66326,5,8,0:2:0:0:
58,285,66481,1,0,0:0:0:0:
317,18,66636,5,0,1:2:0:0:
307,96,66791,1,0,0:0:0:0:
340,384,66945,6,0,P|263:348|269:281,1,147.750005636215,10|0,0:2|0:0,0:0:0:0:
345,227,67177,1,2,0:0:0:0:
345,227,67255,5,14,0:2:0:0:
290,218,67332,1,8,0:2:0:0:
235,209,67409,1,2,1:2:0:0:
180,201,67486,1,0,1:2:0:0:
126,192,67564,1,10,0:2:0:0:
408,3,67718,5,10,1:2:0:0:
408,3,67796,1,8,1:2:0:0:
408,3,67873,5,2,1:2:0:0:
442,30,67950,1,0,1:2:0:0:
447,74,68028,1,0,1:2:0:0:
421,110,68105,1,0,1:2:0:0:
380,127,68182,1,10,0:2:0:0:
335,120,68260,1,0,1:2:0:0:
291,129,68337,1,2,1:2:0:0:
267,166,68414,1,0,1:2:0:0:
276,206,68492,5,2,1:2:0:0:
354,221,68646,1,0,0:0:0:0:
170,96,68801,6,0,L|111:85,1,49.25,2|0,0:0|0:0,0:0:0:0:
49,72,68956,2,0,L|-10:61,1,49.25,2|0,0:0|0:0,0:0:0:0:
218,271,69110,5,2,0:0:0:0:
296,286,69264,1,2,0:0:0:0:
140,258,69420,5,6,0:0:0:0:
130,255,69497,1,2,0:0:0:0:
121,254,69574,1,2,0:0:0:0:
112,252,69651,1,2,0:0:0:0:
117,174,69729,6,0,L|145:387,1,206.849993687439,6|0,1:2|0:0,0:0:0:0:
239,374,70038,2,0,P|306:351|310:299,2,118.199996392822,10|2|0,0:2|1:2|1:2,0:0:0:0:
55,372,70502,1,2,1:2:0:0:
269,237,70657,5,2,1:2:0:0:
285,212,70734,1,2,0:0:0:0:
272,185,70811,1,2,1:2:0:0:
194,211,70966,1,0,1:2:0:0:
356,180,71121,6,0,P|396:172|430:149,1,59.0999981964112,2|0,1:2|0:0,0:0:0:0:
426,0,71275,5,10,0:2:0:0:
426,0,71353,1,2,0:0:0:0:
426,0,71430,2,0,B|398:46|441:111|477:73|511:128|500:189,1,221.625008454323,2|0,1:2|0:0,0:0:0:0:
474,265,71739,6,0,P|442:260|422:235,1,59.0999981964112,2|0,1:2|0:0,0:0:0:0:
207,115,71894,6,0,L|170:105,1,29.5499990982056,10|0,0:2|0:0,0:0:0:0:
345,9,72048,6,0,L|335:46,1,29.5499990982056,2|0,0:0|0:0,0:0:0:0:
342,374,72203,6,0,L|313:159,1,206.849993687439,6|0,1:2|0:0,0:0:0:0:
378,120,72512,2,0,P|424:107|456:37,1,118.199996392822,10|2,0:2|1:2,0:0:0:0:
281,98,72822,1,8,0:2:0:0:
432,266,72976,5,2,1:2:0:0:
461,261,73054,1,2,0:0:0:0:
475,235,73131,1,2,1:2:0:0:
237,197,73285,6,0,L|98:174,1,118.199996392822,10|0,0:2|1:2,0:0:0:0:
48,274,73517,5,2,0:0:0:0:
48,274,73595,2,0,P|94:265|107:237,1,59.0999981964112,2|0,1:2|0:0,0:0:0:0:
150,325,73749,2,0,P|176:286|165:257,1,59.0999981964112,8|0,0:2|0:0,0:0:0:0:
40,193,73904,6,0,P|22:172|31:114,1,68.9499978958131,2|0,0:0|0:0,0:0:0:0:
255,9,74059,5,8,0:2:0:0:
293,24,74136,1,8,0:2:0:0:
329,44,74214,1,10,0:2:0:0:
362,68,74291,1,8,0:2:0:0:
419,133,74368,5,10,0:2:0:0:
427,131,74445,1,10,0:2:0:0:
435,129,74523,1,10,0:2:0:0:
443,127,74600,1,10,0:2:0:0:
465,54,74677,6,0,P|449:165|433:272,1,206.849993687439,6|0,1:2|0:0,0:0:0:0:
416,333,74987,2,0,P|378:321|372:298,1,59.0999981964112,10|0,0:2|0:0,0:0:0:0:
327,155,75141,2,0,L|209:139,1,118.199996392822,2|0,1:2|1:2,0:0:0:0:
86,41,75450,6,0,P|114:53|123:83,1,59.0999981964112,2|0,1:2|0:0,0:0:0:0:
97,152,75605,1,0,1:2:0:0:
181,262,75760,6,0,P|173:234|147:220,1,59.0999981964112,2|0,1:2|0:0,0:0:0:0:
72,238,75915,1,0,1:2:0:0:
223,336,76069,6,0,P|249:317|261:284,1,59.0999981964112,2|0,1:2|0:0,0:0:0:0:
409,109,76224,5,10,0:2:0:0:
409,109,76301,1,2,0:0:0:0:
409,109,76378,2,0,B|363:88|309:124|326:156|280:199|219:180,1,206.849993687439,2|0,1:2|0:0,0:0:0:0:
172,128,76688,6,0,P|199:105|238:110,1,59.0999981964112,2|0,1:2|0:0,0:0:0:0:
475,157,76842,5,10,0:2:0:0:
469,201,76919,1,2,0:0:0:0:
464,245,76996,1,2,0:0:0:0:
459,289,77073,1,2,0:0:0:0:
454,333,77151,6,0,P|365:362|220:360,1,206.849993687439,6|0,1:2|0:0,0:0:0:0:
196,303,77461,2,0,L|182:173,1,118.199996392822,10|2,0:2|1:2,0:0:0:0:
169,382,77770,1,8,0:2:0:0:
343,166,77925,5,2,0:0:0:0:
358,190,78002,1,2,0:0:0:0:
344,214,78079,1,2,1:2:0:0:
249,99,78234,2,0,P|315:81|358:31,1,118.199996392822,10|0,0:2|1:2,0:0:0:0:
112,34,78543,5,2,1:2:0:0:
130,37,78698,1,10,0:2:0:0:
103,122,78853,5,2,0:0:0:0:
112,123,78930,1,8,0:2:0:0:
121,125,79008,1,2,1:2:0:0:
259,233,79162,5,2,1:2:0:0:
241,230,79317,1,10,0:2:0:0:
223,227,79471,1,2,1:2:0:0:
16,380,79626,5,6,1:2:0:0:
120,235,83337,5,2,0:0:0:0:
125,159,83646,1,2,0:0:0:0:
130,83,83955,6,0,L|195:66,1,49.25,6|0,1:2|0:0,0:0:0:0:
234,15,84264,2,0,L|294:43,1,49.25,8|2,0:2|0:0,0:0:0:0:
355,40,84573,2,0,L|377:103,1,49.25,2|0,0:0|0:0,0:0:0:0:
422,143,84882,2,0,L|393:203,1,49.25,8|2,0:2|0:0,0:0:0:0:
330,252,85192,5,2,1:2:0:0:
324,225,85346,1,0,0:0:0:0:
317,198,85501,2,0,L|226:182,1,73.875,10|0,0:2|0:0,0:0:0:0:
186,236,85810,2,0,L|194:295,1,49.25,2|0,0:0|1:2,0:0:0:0:
146,346,86119,6,0,L|100:337,1,32.8333333333333,10|0,0:2|1:2,0:0:0:0:
280,369,86429,6,0,L|341:341,1,49.25,2|0,1:2|0:0,0:0:0:0:
403,356,86738,2,0,L|432:295,1,49.25,8|2,0:2|0:0,0:0:0:0:
481,260,87047,2,0,L|458:196,1,49.25,2|0,0:0|0:0,0:0:0:0:
469,138,87356,2,0,L|408:108,1,49.25,8|2,0:2|0:0,0:0:0:0:
317,61,87666,5,10,0:2:0:0:
309,56,87743,1,8,0:2:0:0:
301,51,87820,1,0,1:2:0:0:
293,46,87898,1,0,1:2:0:0:
284,7,87975,5,10,0:2:0:0:
275,55,88052,1,8,0:2:0:0:
267,104,88129,1,8,0:2:0:0:
258,152,88206,1,8,0:2:0:0:
249,200,88284,6,0,P|221:209|175:209,1,64.0249970691682,6|0,1:2|0:0,0:0:0:0:
403,331,88438,5,2,0:0:0:0:
409,283,88515,1,2,0:0:0:0:
424,238,88592,1,10,0:2:0:0:
448,196,88669,1,2,0:0:0:0:
480,160,88747,6,0,P|479:209|456:239,1,64.0249970691682,2|0,1:2|1:2,0:0:0:0:
263,381,88902,6,0,B|185:365|237:323|158:312,1,128.049994138336,2|0,1:2|1:2,0:0:0:0:
83,347,89134,1,2,0:0:0:0:
83,347,89211,5,10,0:2:0:0:
49,311,89289,1,0,0:0:0:0:
56,265,89366,2,0,P|86:238|118:236,1,64.0249970691682,2|0,0:0|0:0,0:0:0:0:
279,300,89521,6,0,P|328:256|316:177,1,128.049994138336,2|0,1:2|0:0,0:0:0:0:
274,136,89753,1,2,0:0:0:0:
274,136,89830,2,0,P|310:128|349:115,1,64.0249970691682,10|0,0:2|0:0,0:0:0:0:
512,26,89985,5,2,1:2:0:0:
490,64,90062,1,0,1:2:0:0:
451,85,90139,1,2,1:2:0:0:
407,76,90216,1,0,0:0:0:0:
372,50,90294,1,0,1:2:0:0:
331,31,90371,1,0,0:0:0:0:
286,34,90448,2,0,P|249:45|220:48,1,64.0249970691682,10|0,0:2|0:0,0:0:0:0:
471,180,90603,2,0,P|434:169|405:166,1,64.0249970691682,0|0,1:2|0:0,0:0:0:0:
217,233,90758,6,0,P|124:250|55:291,1,157.6,2|0,1:2|0:0,0:0:0:0:
83,370,90990,5,2,0:0:0:0:
83,370,91067,2,0,P|120:361|136:333,1,64.0249970691682,10|0,0:2|0:0,0:0:0:0:
61,193,91222,6,0,P|44:165|3:156,1,64.0249970691682,2|0,1:2|1:2,0:0:0:0:
233,324,91376,5,2,1:2:0:0:
275,345,91453,1,0,0:0:0:0:
321,360,91530,1,0,1:2:0:0:
368,370,91607,1,0,0:0:0:0:
416,373,91686,6,0,P|431:343|431:297,1,64.0249970691682,8|0,0:2|0:0,0:0:0:0:
467,181,91840,6,0,L|496:160,2,32.0124985345841,2|0|0,1:2|0:0|0:0,0:0:0:0:
388,228,91995,6,0,P|320:207|238:197,1,128.049994138336,2|0,1:2|0:0,0:0:0:0:
182,212,92227,5,2,0:0:0:0:
182,212,92304,2,0,P|171:176|152:144,1,64.0249970691682,10|0,0:2|0:0,0:0:0:0:
315,129,92459,2,0,P|352:135|390:149,1,64.0249970691682,0|0,1:2|1:2,0:0:0:0:
213,318,92613,5,6,1:2:0:0:
165,320,92690,1,2,0:0:0:0:
117,328,92767,1,2,0:0:0:0:
71,340,92844,1,2,0:0:0:0:
26,357,92922,5,10,0:2:0:0:
15,346,92999,1,0,0:0:0:0:
7,332,93076,1,2,1:2:0:0:
5,316,93153,1,0,1:2:0:0:
8,301,93231,6,0,P|91:300|163:352,1,128.049994138336,2|0,1:2|1:2,0:0:0:0:
197,370,93463,5,2,0:0:0:0:
197,370,93540,2,0,P|239:357|253:327,1,64.0249970691682,10|0,0:2|0:0,0:0:0:0:
186,183,93695,5,2,1:2:0:0:
186,183,93772,1,0,0:0:0:0:
186,183,93850,5,2,1:2:0:0:
233,174,93927,1,2,0:0:0:0:
280,166,94004,1,2,0:0:0:0:
328,158,94081,1,2,0:0:0:0:
395,109,94159,5,10,0:2:0:0:
405,112,94236,1,0,0:0:0:0:
415,115,94313,1,0,1:2:0:0:
425,118,94390,1,0,1:2:0:0:
488,185,94468,6,0,P|475:218|467:266,1,64.0249970691682,2|0,1:2|0:0,0:0:0:0:
323,153,94623,2,0,P|318:121|311:90,1,64.0249970691682,0|0,1:2|0:0,0:0:0:0:
451,318,94777,6,0,P|485:316|522:299,1,64.0249970691682,10|0,0:2|0:0,0:0:0:0:
264,268,94932,2,0,P|232:254|200:252,1,64.0249970691682,0|0,1:2|0:0,0:0:0:0:
341,380,95087,5,2,1:2:0:0:
343,332,95164,1,2,0:0:0:0:
353,285,95241,1,2,0:0:0:0:
370,240,95318,1,2,0:0:0:0:
394,198,95396,5,10,0:2:0:0:
385,211,95473,1,0,0:0:0:0:
373,222,95550,1,2,1:2:0:0:
359,229,95627,1,0,1:2:0:0:
343,232,95705,6,0,P|333:158|324:94,1,128.049994138336,2|0,1:2|1:2,0:0:0:0:
395,58,95937,1,2,0:0:0:0:
395,58,96015,2,0,P|373:31|330:35,1,64.0249970691682,10|0,0:2|0:0,0:0:0:0:
166,79,96169,6,0,L|132:71,2,32.0124985345841,2|0|0,0:0|0:0|0:0,0:0:0:0:
234,133,96324,6,0,L|245:221,1,73.8750028181077,2|0,1:2|0:0,0:0:0:0:
257,318,96478,1,0,0:0:0:0:
242,212,96633,6,0,L|154:223,1,73.8750028181077,10|0,0:2|0:0,0:0:0:0:
57,235,96787,1,0,0:0:0:0:
318,367,96942,5,10,0:2:0:0:
362,333,97019,1,8,0:2:0:0:
406,300,97096,1,8,0:2:0:0:
451,267,97173,1,8,0:2:0:0:
493,201,97252,5,8,0:2:0:0:
495,191,97329,1,8,0:2:0:0:
497,181,97406,1,8,0:2:0:0:
499,171,97484,1,8,0:2:0:0:
451,102,97561,6,0,L|355:88,2,78.8,6|2|2,1:2|0:0|0:0,0:0:0:0:
277,49,98102,5,2,0:0:0:0:
277,49,98180,2,0,L|263:145,2,78.8,2|2|2,0:0|0:0|0:0,0:0:0:0:
171,165,98721,5,2,0:0:0:0:
171,165,98798,2,0,L|75:151,1,78.8,2|2,0:0|0:0,0:0:0:0:
252,236,99107,2,0,L|329:247,1,78.8,2|2,0:0|0:0,0:0:0:0:
336,255,99339,1,2,0:0:0:0:
342,263,99417,2,0,L|329:354,1,78.8,2|2,0:0|0:0,0:0:0:0:
413,228,99726,5,2,0:0:0:0:
421,224,99881,1,2,0:0:0:0:
337,87,100035,6,0,L|350:178,2,78.8,2|2|2,0:0|0:0|0:0,0:0:0:0:
178,42,100577,5,2,0:0:0:0:
178,42,100654,2,0,L|274:56,2,78.8,2|2|2,0:0|0:0|0:0,0:0:0:0:
117,179,101195,5,2,0:0:0:0:
117,179,101272,2,0,L|105:100,1,78.8,2|2,0:0|0:0,0:0:0:0:
53,243,101582,2,0,L|64:320,1,78.8,2|2,0:0|0:0,0:0:0:0:
69,327,101814,1,2,0:0:0:0:
76,333,101891,2,0,L|153:321,1,78.8,2|2,0:0|0:0,0:0:0:0:
314,364,102200,5,2,0:0:0:0:
234,344,102355,1,2,0:0:0:0:
105,101,102509,5,6,1:2:0:0:
115,179,102664,1,2,0:0:0:0:
427,172,102819,6,0,L|287:147,1,128.049994138336,10|0,0:2|1:2,0:0:0:0:
208,164,103051,5,2,1:2:0:0:
208,164,103128,2,0,P|225:202|229:246,1,64.0249970691682,2|0,1:2|0:0,0:0:0:0:
361,14,103283,2,0,P|344:52|340:96,1,64.0249970691682,2|0,1:2|0:0,0:0:0:0:
321,329,103437,6,0,P|352:257|410:263,1,128.049994138336,10|0,0:2|1:2,0:0:0:0:
492,345,103669,1,2,0:0:0:0:
492,345,103747,5,2,1:2:0:0:
403,364,103901,1,2,0:0:0:0:
135,312,104056,5,10,0:2:0:0:
222,298,104210,2,0,L|233:222,1,64.0249970691682,2|2,1:2|1:2,0:0:0:0:
311,191,104365,5,2,1:2:0:0:
311,191,104442,1,0,0:0:0:0:
311,191,104520,1,2,1:2:0:0:
62,368,104674,5,10,0:2:0:0:
52,286,104829,1,2,1:2:0:0:
266,115,104984,5,2,1:2:0:0:
223,134,105061,1,0,0:0:0:0:
178,120,105138,1,2,0:0:0:0:
153,80,105215,1,0,0:0:0:0:
162,34,105293,6,0,P|193:28|231:14,1,64.0249970691682,10|0,0:2|0:0,0:0:0:0:
31,138,105448,2,0,P|62:143|100:157,1,64.0249970691682,0|2,1:2|1:2,0:0:0:0:
202,344,105602,6,0,P|197:278|167:214,1,128.049994138336,2|2,1:2|1:2,0:0:0:0:
166,220,105834,1,0,0:0:0:0:
159,222,105911,2,0,P|141:267|152:286,1,64.0249970691682,10|0,0:2|0:0,0:0:0:0:
277,301,106066,1,0,1:2:0:0:
472,205,106221,5,2,1:2:0:0:
450,191,106298,1,0,0:0:0:0:
425,199,106375,1,2,0:0:0:0:
402,186,106453,1,0,0:0:0:0:
377,191,106530,6,0,L|362:223,2,32.0124985345841,10|0|0,0:2|0:0|0:0,0:0:0:0:
299,172,106685,2,0,L|265:184,2,32.0124985345841,2|0|2,0:0|0:0|0:0,0:0:0:0:
411,83,106839,5,2,1:2:0:0:
414,74,106994,1,2,0:0:0:0:
417,65,107149,1,2,0:0:0:0:
484,356,107458,6,0,P|447:337|416:332,1,68.9499978958131,6|0,1:2|0:0,0:0:0:0:
444,229,107613,2,0,P|403:239|372:237,1,68.9499978958131,2|0,0:0|0:0,0:0:0:0:
219,365,107767,5,10,0:2:0:0:
233,355,107844,1,0,0:0:0:0:
243,341,107921,1,0,0:0:0:0:
248,325,107998,1,0,0:0:0:0:
247,308,108076,5,2,1:2:0:0:
225,280,108154,1,2,0:0:0:0:
193,267,108231,1,2,0:0:0:0:
158,267,108308,1,2,0:0:0:0:
125,278,108386,1,10,0:2:0:0:
83,279,108463,1,2,0:0:0:0:
48,256,108540,1,2,0:0:0:0:
30,218,108618,1,2,0:0:0:0:
35,177,108695,5,2,1:2:0:0:
89,125,108772,1,2,0:0:0:0:
150,111,108850,1,2,0:0:0:0:
207,116,108927,1,2,0:0:0:0:
249,136,109004,1,10,0:2:0:0:
274,172,109082,1,2,0:0:0:0:
276,194,109159,1,2,0:0:0:0:
268,207,109236,1,2,0:0:0:0:
258,210,109314,6,0,P|218:202|176:188,1,68.9499978958131,2|0,1:2|0:0,0:0:0:0:
371,293,109468,5,2,0:0:0:0:
371,293,109545,1,2,0:0:0:0:
371,293,109623,2,0,P|331:301|289:315,1,68.9499978958131,10|0,0:2|0:0,0:0:0:0:
200,351,109777,2,0,P|160:343|118:329,1,68.9499978958131,2|0,0:0|0:0,0:0:0:0:
16,253,109932,5,0,1:2:0:0:
94,233,110087,1,0,0:0:0:0:
250,10,110241,5,8,0:2:0:0:
230,88,110396,1,2,0:0:0:0:
230,88,110473,1,2,0:0:0:0:
230,88,110551,5,2,1:2:0:0:
241,134,110628,1,2,0:0:0:0:
252,180,110705,1,2,0:0:0:0:
263,226,110783,1,2,0:0:0:0:
274,272,110860,6,0,L|256:350,1,68.9499978958131,10|2,0:2|0:0,0:0:0:0:
461,79,111015,2,0,L|443:1,1,68.9499978958131,2|2,1:2|0:0,0:0:0:0:
190,262,111169,6,0,P|159:249|115:243,1,68.9499978958131,2|2,1:2|0:0,0:0:0:0:
408,139,111324,2,0,P|439:152|483:158,1,68.9499978958131,2|2,0:0|0:0,0:0:0:0:
390,335,111478,5,10,0:2:0:0:
364,265,111556,1,2,0:0:0:0:
327,209,111633,1,2,0:0:0:0:
289,173,111710,1,2,0:0:0:0:
249,147,111787,1,2,1:2:0:0:
223,138,111865,1,2,0:0:0:0:
206,134,111942,1,2,0:0:0:0:
187,135,112020,1,2,0:0:0:0:
177,139,112097,1,10,0:2:0:0:
329,44,112252,5,2,0:0:0:0:
420,61,112406,1,6,1:2:0:0:
252,266,112561,5,2,0:0:0:0:
248,249,112638,1,2,0:0:0:0:
243,231,112716,1,10,0:2:0:0:
166,243,112870,1,2,0:0:0:0:
42,66,113025,5,2,1:2:0:0:
118,0,113179,1,2,0:0:0:0:
123,26,113256,1,2,0:0:0:0:
129,54,113334,1,10,0:2:0:0:
214,33,113489,1,2,0:0:0:0:
468,336,113643,5,2,1:2:0:0:
87,259,113798,1,2,0:0:0:0:
402,384,113953,5,10,0:2:0:0:
386,304,114107,1,2,0:0:0:0:
453,256,114262,5,2,1:2:0:0:
92,384,114417,1,2,0:0:0:0:
294,44,114571,5,10,0:2:0:0:
290,31,114726,1,2,0:0:0:0:
286,18,114881,6,0,L|272:166,1,137.899995791626,2|2,1:2|0:0,0:0:0:0:
278,163,115113,1,2,0:0:0:0:
283,170,115190,1,10,0:2:0:0:
363,160,115344,1,0,0:0:0:0:
203,95,115499,6,0,P|163:86|130:77,1,68.9499978958131,0|0,1:2|0:0,0:0:0:0:
315,303,115654,2,0,P|323:269|331:236,1,68.9499978958131
11,254,115808,5,8,0:2:0:0:
9,260,115886,1,8,0:2:0:0:
7,266,115963,1,8,0:2:0:0:
5,272,116041,1,0,0:0:0:0:
3,278,116118,5,10,0:2:0:0:
70,290,116195,1,10,0:2:0:0:
137,302,116272,1,2,1:2:0:0:
204,314,116350,1,2,1:2:0:0:
265,373,116427,5,10,0:2:0:0:
319,365,116504,1,2,0:0:0:0:
373,357,116582,1,2,0:0:0:0:
427,349,116659,1,2,0:0:0:0:
485,289,116736,5,2,1:2:0:0:
486,281,116813,1,2,1:2:0:0:
487,273,116890,1,2,1:2:0:0:
489,265,116967,1,2,1:2:0:0:
491,257,117045,6,0,P|459:253|406:243,1,68.9499978958131,10|2,0:2|0:0,0:0:0:0:
251,203,117200,2,0,P|282:199|336:189,1,68.9499978958131,2|2,0:0|0:0,0:0:0:0:
407,11,117355,5,2,1:2:0:0:
456,36,117432,1,2,0:0:0:0:
458,94,117509,1,2,1:2:0:0:
406,124,117587,1,2,0:0:0:0:
347,122,117664,1,10,0:2:0:0:
290,105,117741,1,2,0:0:0:0:
230,111,117819,1,2,1:2:0:0:
186,150,117896,1,2,0:0:0:0:
170,206,117973,6,0,P|173:242|182:283,1,73.8750028181077,10|0,0:2|0:0,0:0:0:0:
105,360,118128,2,0,P|101:323|93:283,1,73.8750028181077,2|0,1:2|0:0,0:0:0:0:
1,245,118283,2,0,P|4:281|13:322,1,73.8750028181077,10|0,0:2|0:0,0:0:0:0:
256,353,118437,5,2,1:2:0:0:
326,306,118514,1,0,0:0:0:0:
346,232,118591,1,10,0:2:0:0:
313,169,118669,1,0,0:0:0:0:
269,136,118746,1,2,1:2:0:0:
248,105,118823,1,0,0:0:0:0:
242,83,118901,1,10,0:2:0:0:
249,69,118978,1,0,0:0:0:0:
259,65,119056,6,0,P|298:74|307:128,1,73.8750028181077,2|0,1:2|0:0,0:0:0:0:
220,281,119210,5,10,0:2:0:0:
161,273,119287,1,0,0:0:0:0:
111,260,119364,1,2,1:2:0:0:
59,240,119441,1,0,0:0:0:0:
10,214,119520,6,0,P|0:158|9:119,1,73.8750028181077,10|0,0:2|0:0,0:0:0:0:
289,241,119674,2,0,P|299:297|290:336,1,73.8750028181077,2|0,1:2|0:0,0:0:0:0:
94,381,119829,5,10,0:2:0:0:
89,378,119906,1,2,0:0:0:0:
84,381,119984,1,2,1:2:0:0:
79,378,120060,1,2,0:0:0:0:
74,381,120138,1,10,0:2:0:0:
69,378,120215,1,2,0:0:0:0:
64,381,120293,1,2,1:2:0:0:
59,378,120370,1,2,0:0:0:0:
52,381,120448,6,0,P|46:342|34:285,1,73.8750028181077,10|0,0:2|0:0,0:0:0:0:
177,156,120602,2,0,P|214:164|254:178,1,73.8750028181077,2|0,1:2|0:0,0:0:0:0:
0,211,120757,6,0,P|40:216|245:261,1,246.25,10|0,0:2|1:2,0:0:0:0:
353,377,120989,1,0,0:0:0:0:
353,377,121066,5,2,1:2:0:0:
395,335,121143,1,10,0:2:0:0:
408,276,121221,1,10,0:2:0:0:
391,218,121298,1,10,0:2:0:0:
349,176,121375,1,10,0:2:0:0:
297,156,121453,1,2,1:2:0:0:
248,160,121530,1,2,1:2:0:0:
213,173,121607,1,2,1:2:0:0:
179,174,121685,1,2,1:2:0:0:
154,165,121762,1,2,1:2:0:0:
144,152,121839,1,2,1:2:0:0:
145,141,121917,1,10,0:2:0:0:
151,137,121994,6,0,P|191:136|237:121,1,73.8750028181077,2|2,1:2|0:0,0:0:0:0:
400,10,122149,2,0,P|437:23|476:51,1,73.8750028181077,2|2,0:0|0:0,0:0:0:0:
225,301,122303,5,14,0:2:0:0:
186,335,122381,1,2,0:0:0:0:
135,325,122458,1,2,1:2:0:0:
111,279,122535,1,2,0:0:0:0:
122,228,122613,1,10,0:2:0:0:
169,207,122690,1,2,0:0:0:0:
211,178,122767,1,2,1:2:0:0:
223,127,122844,1,2,0:0:0:0:
194,83,122922,5,10,0:2:0:0:
147,119,122999,1,2,0:0:0:0:
143,177,123076,1,2,1:2:0:0:
194,207,123154,1,2,0:0:0:0:
251,195,123231,1,10,0:2:0:0:
295,156,123308,1,2,0:0:0:0:
338,115,123386,1,2,1:2:0:0:
395,100,123463,1,2,0:0:0:0:
445,130,123540,6,0,P|453:168|471:199,1,73.8750028181077,10|0,0:2|0:0,0:0:0:0:
276,68,123695,2,0,P|294:35|301:0,1,73.8750028181077,2|0,1:2|0:0,0:0:0:0:
408,313,123850,5,10,0:2:0:0:
334,309,123927,1,2,0:0:0:0:
274,266,124004,1,2,1:2:0:0:
251,195,124082,1,2,0:0:0:0:
223,126,124159,1,10,0:2:0:0:
172,72,124236,1,2,0:0:0:0:
100,52,124314,1,2,1:2:0:0:
34,86,124391,1,2,0:0:0:0:
10,155,124468,6,0,P|21:189|22:236,1,73.8750028181077,10|2,0:2|0:0,0:0:0:0:
187,373,124623,2,0,P|189:337|201:302,1,73.8750028181077,2|2,1:2|0:0,0:0:0:0:
374,140,124777,6,0,P|334:134|292:124,1,73.8750028181077,10|0,0:2|0:0,0:0:0:0:
493,320,124932,2,0,P|453:326|411:336,1,73.8750028181077,2|0,1:2|0:0,0:0:0:0:
179,221,125087,5,10,0:2:0:0:
159,222,125164,1,2,0:0:0:0:
131,211,125241,1,2,1:2:0:0:
122,182,125319,1,2,0:0:0:0:
145,147,125396,1,10,0:2:0:0:
197,138,125473,1,2,0:0:0:0:
252,163,125551,1,2,1:2:0:0:
301,211,125628,1,2,0:0:0:0:
320,283,125705,6,0,P|318:316|299:363,1,73.8750028181077,10|0,0:2|0:0,0:0:0:0:
496,314,125860,2,0,P|498:281|517:234,1,73.8750028181077,8|0,0:2|0:0,0:0:0:0:
496,67,126015,5,2,1:2:0:0:
451,103,126092,1,0,1:2:0:0:
403,119,126169,1,8,0:2:0:0:
364,117,126247,1,10,0:2:0:0:
336,106,126324,1,10,0:2:0:0:
321,89,126401,1,0,1:2:0:0:
316,74,126478,1,0,1:2:0:0:
321,63,126556,1,2,0:0:0:0:
331,60,126633,6,0,P|360:91|361:129,1,73.8750028181077,0|0,1:2|0:0,0:0:0:0:
442,163,126788,2,0,P|424:201|389:216,1,73.8750028181077,0|8,1:2|0:2,0:0:0:0:
126,358,126942,6,0,P|102:322|107:285,1,73.8750028181077,4|0,1:2|0:0,0:0:0:0:
32,238,127097,2,0,P|55:202|92:193,1,73.8750028181077,0|0,1:2|0:0,0:0:0:0:
255,10,127252,5,6,1:2:0:0:
256,192,127329,12,0,132045,0:0:0:0:
158,376,132200,5,2,1:2:0:0:
143,372,132509,1,0,1:2:0:0:
128,368,132819,1,0,1:2:0:0:
113,364,133128,1,0,1:2:0:0:
412,318,133437,5,2,1:2:0:0:
408,333,133746,1,0,1:2:0:0:
42,257,134056,5,2,1:2:0:0:
459,199,134365,5,2,1:2:0:0:
219,14,134674,5,2,1:2:0:0:
223,29,134983,1,0,1:2:0:0:
227,44,135293,1,0,1:2:0:0:
231,59,135602,1,0,1:2:0:0:
456,284,135911,5,2,1:2:0:0:
471,280,136220,1,0,1:2:0:0:
486,276,136530,1,0,1:2:0:0:
501,272,136839,1,0,1:2:0:0:
403,347,137149,6,0,P|373:337|359:314,1,54.1750016532898,2|0,1:2|0:0,0:0:0:0:
281,321,137303,2,0,P|281:289|298:268,1,54.1750016532898,2|0,0:0|0:0,0:0:0:0:
378,240,137458,6,0,L|213:217,1,137.899995791626,8|2,0:2|0:0,0:0:0:0:
179,269,137690,1,2,0:0:0:0:
179,269,137767,2,0,P|149:257|139:233,1,54.1750016532898,2|0,1:2|0:0,0:0:0:0:
178,157,137922,1,0,1:2:0:0:
323,66,138076,5,2,1:2:0:0:
344,91,138154,1,0,0:0:0:0:
327,118,138231,1,2,0:0:0:0:
245,96,138386,1,0,1:2:0:0:
463,41,138540,6,0,P|485:61|486:97,1,54.1750016532898,2|0,0:0|0:0,0:0:0:0:
425,130,138695,2,0,P|389:203|375:296,1,162.52500495987,2|0,1:2|0:0,0:0:0:0:
434,351,139004,5,2,1:2:0:0:
356,366,139159,1,0,0:0:0:0:
260,170,139314,5,2,1:2:0:0:
289,301,139468,1,0,0:0:0:0:
493,189,139623,5,2,1:2:0:0:
486,182,139700,1,2,0:0:0:0:
477,184,139778,1,2,0:0:0:0:
471,177,139854,1,2,0:0:0:0:
462,179,139932,1,2,1:2:0:0:
456,172,140009,1,2,0:0:0:0:
447,174,140087,2,0,P|440:142|428:124,1,54.1750016532898,2|0,0:0|0:0,0:0:0:0:
358,71,140241,6,0,L|205:92,1,137.899995791626,2|0,1:2|0:0,0:0:0:0:
164,154,140473,1,2,0:0:0:0:
164,154,140551,5,2,1:2:0:0:
138,147,140628,1,2,0:0:0:0:
112,140,140705,1,2,0:0:0:0:
86,132,140782,1,2,0:0:0:0:
107,107,140860,5,2,1:2:0:0:
101,147,140937,1,0,0:0:0:0:
96,187,141014,1,2,0:0:0:0:
90,227,141091,1,0,0:0:0:0:
85,268,141169,6,2,B|41:279,6,27.0875008266449,2|2|2|2|2|2|2,1:2|0:0|0:0|0:0|0:0|0:0|0:0,0:0:0:0:
146,349,141478,5,2,1:2:0:0:
146,349,141556,1,2,0:0:0:0:
146,349,141633,2,0,P|167:325|172:296,1,54.1750016532898,2|0,0:0|0:0,0:0:0:0:
183,180,141788,6,0,P|216:175|250:164,1,54.1750016532898,0|0,1:2|0:0,0:0:0:0:
319,335,141942,2,0,P|352:340|386:351,1,54.1750016532898
504,116,142097,6,0,B|379:127|474:223|338:231,1,206.849993687439,2|0,1:2|0:0,0:0:0:0:
317,155,142406,6,0,P|314:141|284:104,1,54.1750016532898,8|0,0:2|0:0,0:0:0:0:
236,46,142561,2,0,P|218:66|210:92,1,54.1750016532898,2|0,0:0|0:0,0:0:0:0:
106,261,142716,5,2,1:2:0:0:
29,252,142870,1,0,0:0:0:0:
206,384,143025,5,2,1:2:0:0:
215,307,143179,1,0,0:0:0:0:
325,190,143334,6,0,P|357:184|375:163,1,54.1750016532898,2|0,1:2|0:0,0:0:0:0:
387,20,143489,5,2,0:0:0:0:
387,20,143566,1,2,0:0:0:0:
387,20,143643,2,0,B|360:62|400:123|434:88|466:139|455:196,1,206.849993687439,2|0,1:2|0:0,0:0:0:0:
440,271,143953,5,2,1:2:0:0:
241,221,144107,1,0,0:0:0:0:
256,73,144262,5,2,1:2:0:0:
306,272,144416,1,0,0:0:0:0:
81,367,144571,6,0,P|76:333|68:308,1,54.1750016532898,2|0,1:2|0:0,0:0:0:0:
168,158,144726,2,0,P|160:183|157:210,1,54.1750016532898,2|0,0:0|0:0,0:0:0:0:
234,329,144881,6,0,P|207:319|175:317,1,54.1750016532898,2|0,1:2|0:0,0:0:0:0:
1,207,145035,2,0,P|28:217|60:219,1,54.1750016532898,2|0,0:0|0:0,0:0:0:0:
269,148,145190,6,0,P|359:127|363:68,1,137.899995791626,2|0,1:2|0:0,0:0:0:0:
326,27,145422,1,2,0:0:0:0:
326,27,145499,5,2,1:2:0:0:
299,23,145576,1,2,0:0:0:0:
272,20,145653,1,2,0:0:0:0:
245,17,145730,1,2,0:0:0:0:
218,14,145808,5,2,0:3:0:0:
229,196,146118,1,2,0:3:0:0:
239,377,146427,1,2,0:3:0:0:
490,37,147045,5,6,3:2:0:0:
490,41,147122,1,0,1:2:0:0:
489,45,147199,1,0,1:2:0:0:
489,49,147276,1,0,1:2:0:0:
490,54,147354,1,0,1:2:0:0:
490,58,147431,1,0,1:2:0:0:
489,62,147508,1,0,1:2:0:0:
490,66,147586,1,0,1:2:0:0:
490,72,147663,1,0,1:2:0:0:
490,76,147740,1,0,1:2:0:0:
489,80,147818,1,0,1:2:0:0:
491,84,147895,1,0,1:2:0:0:
490,89,147972,1,8,0:2:0:0:
489,93,148050,1,0,1:2:0:0:
490,97,148127,1,0,1:2:0:0:
490,101,148204,1,0,1:2:0:0:
490,106,148282,5,10,1:2:0:0:
473,159,148360,1,8,0:2:0:0:
438,200,148437,1,0,1:2:0:0:
386,217,148515,1,0,1:2:0:0:
330,211,148592,1,0,1:2:0:0:
274,212,148669,1,0,1:2:0:0:
220,226,148747,1,0,1:2:0:0:
173,255,148824,1,0,1:2:0:0:
155,307,148901,6,0,P|155:345|168:382,1,68.9499978958131,8|8,0:2|0:2,0:0:0:0:
85,384,149056,2,0,P|75:351|76:317,1,68.9499978958131,0|0,1:2|1:2,0:0:0:0:
22,151,149210,6,0,P|12:183|12:218,1,68.9499978958131,8|0,0:2|0:0,0:0:0:0:
96,222,149365,2,0,P|95:187|105:154,1,68.9499978958131,0|0,1:2|0:0,0:0:0:0:
264,128,149520,5,6,3:2:0:0:
249,181,149597,1,0,1:2:0:0:
274,229,149674,1,0,1:2:0:0:
328,240,149752,1,0,1:2:0:0:
375,213,149829,1,0,1:2:0:0:
427,200,149906,1,0,1:2:0:0:
476,225,149984,1,0,1:2:0:0:
503,273,150061,1,0,1:2:0:0:
494,326,150138,5,2,3:2:0:0:
435,364,150216,1,0,1:2:0:0:
367,351,150293,1,0,1:2:0:0:
333,290,150370,1,0,1:2:0:0:
349,222,150448,1,0,1:2:0:0:
392,168,150525,1,0,1:2:0:0:
429,111,150602,1,0,1:2:0:0:
414,43,150680,1,0,1:2:0:0:
361,0,150757,6,0,P|329:12|289:16,1,68.9499978958131,10|8,3:2|0:2,0:0:0:0:
74,165,150911,2,0,P|42:153|2:149,1,68.9499978958131,2|0,1:2|1:2,0:0:0:0:
220,50,151066,6,0,P|243:76|275:88,1,68.9499978958131,2|0,1:2|0:0,0:0:0:0:
146,201,151221,2,0,P|123:226|91:239,1,68.9499978958131,2|0,0:0|0:0,0:0:0:0:
8,30,151375,5,2,1:2:0:0:
27,29,151453,5,0,1:2:0:0:
52,35,151530,5,0,1:2:0:0:
91,56,151607,5,0,1:2:0:0:
144,92,151685,5,10,0:2:0:0:
197,137,151762,5,0,1:2:0:0:
238,199,151839,5,0,1:2:0:0:
270,271,151917,5,0,1:2:0:0:
274,352,151994,5,6,3:2:0:0:
357,367,152149,1,0,0:0:0:0:
512,152,152303,5,8,0:2:0:0:
429,167,152458,1,0,0:0:0:0:
181,375,152613,5,2,1:2:0:0:
190,294,152767,1,0,0:0:0:0:
292,126,152922,6,0,P|274:95|231:81,1,68.9499978958131,10|0,0:2|0:0,0:0:0:0:
229,0,153076,2,0,P|193:7|167:44,1,68.9499978958131,0|0,1:2|1:2,0:0:0:0:
26,226,153231,5,6,3:2:0:0:
258,248,153386,1,0,0:0:0:0:
490,270,153540,1,8,0:2:0:0:
429,334,153695,5,2,0:0:0:0:
429,334,153772,1,2,0:0:0:0:
429,334,153850,5,2,1:2:0:0:
408,249,154004,1,0,0:0:0:0:
116,123,154159,5,10,0:2:0:0:
184,202,154314,1,2,1:2:0:0:
191,167,154391,1,2,1:2:0:0:
198,134,154468,5,6,3:2:0:0:
435,110,154623,1,0,0:0:0:0:
493,269,154777,5,8,0:2:0:0:
97,209,154932,1,2,1:2:0:0:
105,242,155009,1,2,1:2:0:0:
112,276,155087,5,6,3:2:0:0:
503,187,155241,1,0,0:0:0:0:
37,22,155396,5,8,0:2:0:0:
24,102,155551,1,0,0:0:0:0:
250,303,155705,5,10,3:2:0:0:
259,234,155782,1,8,0:2:0:0:
268,166,155859,1,2,1:2:0:0:
277,98,155936,1,0,1:2:0:0:
330,39,156015,5,10,0:2:0:0:
334,34,156092,1,2,0:0:0:0:
340,32,156169,1,2,0:0:0:0:
346,29,156246,1,2,0:0:0:0:
351,25,156324,6,0,L|419:36,1,68.9499978958131,8|0,0:2|0:0,0:0:0:0:
471,107,156478,2,0,L|460:176,1,68.9499978958131
215,34,156633,5,10,0:2:0:0:
207,30,156710,1,2,0:0:0:0:
199,26,156788,1,2,0:0:0:0:
191,22,156865,1,2,0:0:0:0:
115,28,156942,6,0,L|106:100,1,68.9499978958131,6|0,3:2|0:0,0:0:0:0:
32,54,157097,2,0,L|23:122,1,68.9499978958131,2|0,0:0|0:0,0:0:0:0:
78,248,157252,6,0,L|87:180,1,68.9499978958131,10|0,0:2|0:0,0:0:0:0:
309,166,157406,6,0,L|165:150,1,137.899995791626,2|0,0:0|1:2,0:0:0:0:
19,361,157716,5,2,0:0:0:0:
96,346,157870,1,8,0:2:0:0:
388,179,158025,6,0,P|379:223|352:236,1,68.9499978958131,2|0,0:0|0:0,0:0:0:0:
282,241,158180,1,0,1:2:0:0:
313,23,158334,6,0,L|305:-6,1,24.625,2|0,0:0|0:0,0:0:0:0:
473,151,158489,6,0,P|458:113|430:100,1,68.9499978958131,10|0,0:2|0:0,0:0:0:0:
354,94,158643,2,0,L|269:109,1,68.9499978958131,2|0,0:0|0:0,0:0:0:0:
74,12,158798,5,2,1:2:0:0:
84,89,158953,1,0,0:0:0:0:
276,237,159107,5,10,0:2:0:0:
199,247,159262,1,0,0:0:0:0:
0,124,159417,6,0,P|34:145|48:180,1,68.9499978958131,2|0,3:2|0:0,0:0:0:0:
322,180,159571,2,0,P|288:201|274:236,1,68.9499978958131,2|0,0:0|0:0,0:0:0:0:
104,383,159726,6,0,L|123:310,1,68.9499978958131,10|0,0:2|0:0,0:0:0:0:
178,111,159881,6,0,P|261:93|284:18,1,137.899995791626,2|0,0:0|1:2,0:0:0:0:
50,7,160190,5,2,0:0:0:0:
24,30,160267,1,0,0:0:0:0:
27,64,160344,1,8,0:2:0:0:
137,207,160499,6,0,L|209:199,1,68.9499978958131,2|0,0:0|0:0,0:0:0:0:
334,157,160654,5,2,1:2:0:0:
327,208,160731,1,2,0:0:0:0:
320,259,160808,1,2,0:0:0:0:
314,310,160885,1,2,0:0:0:0:
322,323,160963,5,10,0:2:0:0:
373,330,161040,1,0,0:0:0:0:
424,337,161117,1,2,0:0:0:0:
475,343,161194,1,0,0:0:0:0:
490,335,161272,6,0,L|500:264,1,68.9499978958131,2|0,1:2|0:0,0:0:0:0:
423,124,161427,2,0,L|413:192,1,68.9499978958131,2|0,0:0|0:0,0:0:0:0:
248,359,161582,5,10,0:2:0:0:
241,363,161659,1,2,0:0:0:0:
235,367,161736,1,2,0:0:0:0:
229,371,161814,1,2,0:0:0:0:
157,351,161891,6,0,P|150:311|127:266,1,68.9499978958131,6|0,3:2|0:0,0:0:0:0:
388,381,162045,2,0,P|395:341|418:296,1,68.9499978958131,2|0,0:0|0:0,0:0:0:0:
13,353,162200,6,0,P|65:345|85:322,1,68.9499978958131,10|0,0:2|0:0,0:0:0:0:
197,74,162355,6,0,P|178:155|172:232,1,137.899995791626,2|0,0:0|1:2,0:0:0:0:
411,309,162664,5,2,0:0:0:0:
490,300,162819,1,8,0:2:0:0:
273,150,162973,5,2,0:0:0:0:
258,181,163051,1,2,0:0:0:0:
281,208,163128,1,2,1:2:0:0:
490,89,163283,6,0,P|455:100|411:99,1,68.9499978958131,2|0,0:0|0:0,0:0:0:0:
292,309,163437,2,0,P|257:298|213:299,1,68.9499978958131,10|0,0:2|0:0,0:0:0:0:
369,45,163592,6,0,P|348:80|351:137,1,68.9499978958131,2|0,0:0|0:0,0:0:0:0:
423,384,163747,5,2,3:2:0:0:
503,375,163901,1,0,0:0:0:0:
110,157,164056,5,10,3:2:0:0:
113,208,164133,1,0,1:2:0:0:
117,260,164210,1,0,1:2:0:0:
120,311,164287,1,0,1:2:0:0:
124,363,164365,5,6,1:2:0:0:
206,374,164520,1,0,0:0:0:0:
309,170,164674,5,8,0:2:0:0:
292,309,164829,1,2,0:0:0:0:
292,309,164906,1,2,0:0:0:0:
292,309,164984,5,2,1:2:0:0:
373,300,165138,1,0,0:0:0:0:
179,282,165293,6,0,P|132:272|109:249,1,68.9499978958131,10|0,0:2|0:0,0:0:0:0:
29,74,165448,5,2,0:0:0:0:
29,74,165525,1,2,0:0:0:0:
29,74,165603,5,10,3:2:0:0:
48,134,165680,1,8,0:2:0:0:
104,168,165757,1,0,1:2:0:0:
170,161,165835,1,0,1:2:0:0:
202,103,165912,1,8,0:2:0:0:
246,54,165989,1,0,0:0:0:0:
310,37,166067,1,0,1:2:0:0:
365,72,166144,1,0,0:0:0:0:
388,133,166221,6,0,P|390:163|400:213,1,68.9499978958131,10|8,3:2|0:2,0:0:0:0:
183,378,166375,2,0,P|181:348|171:298,1,68.9499978958131,8|8,0:2|0:2,0:0:0:0:
113,80,166530,5,10,0:0:0:0:
110,70,166607,1,2,0:0:0:0:
103,76,166685,1,2,0:0:0:0:
117,71,166762,1,2,0:0:0:0:
160,8,166839,6,0,P|192:36|201:74,1,73.8750028181077,6|0,3:2|0:0,0:0:0:0:
293,53,166994,2,0,P|295:95|275:128,1,73.8750028181077,2|0,0:0|0:0,0:0:0:0:
0,194,167149,6,0,P|33:216|87:217,1,73.8750028181077,10|0,0:2|0:0,0:0:0:0:
329,364,167303,6,0,P|310:285|227:278,1,147.750005636215,2|0,0:0|1:2,0:0:0:0:
2,373,167613,5,2,0:0:0:0:
82,365,167767,1,8,0:2:0:0:
208,145,167922,6,0,P|181:167|174:211,1,73.8750028181077,2|0,0:0|0:0,0:0:0:0:
415,320,168076,5,0,1:2:0:0:
495,312,168230,1,2,0:0:0:0:
334,29,168386,6,0,P|335:66|348:103,1,73.8750028181077,10|0,0:2|0:0,0:0:0:0:
171,380,168540,2,0,P|169:342|156:305,1,73.8750028181077,2|0,0:0|0:0,0:0:0:0:
81,122,168695,5,2,1:2:0:0:
103,67,168772,1,2,0:0:0:0:
157,39,168849,1,2,0:0:0:0:
216,54,168926,1,2,0:0:0:0:
254,102,169004,1,10,0:2:0:0:
283,155,169081,1,2,0:0:0:0:
335,187,169158,1,2,0:0:0:0:
394,169,169236,1,2,0:0:0:0:
428,120,169314,6,0,P|464:116|502:103,1,73.8750028181077,2|0,3:2|0:0,0:0:0:0:
306,282,169468,2,0,P|342:286|380:299,1,73.8750028181077,2|0,0:0|0:0,0:0:0:0:
161,121,169623,6,0,P|155:88|140:43,1,73.8750028181077,10|0,0:2|0:0,0:0:0:0:
79,368,169777,5,2,0:0:0:0:
0,379,169932,1,0,1:2:0:0:
229,270,170087,6,0,P|238:320|271:350,1,73.8750028181077,2|0,0:0|0:0,0:0:0:0:
326,356,170241,1,8,0:2:0:0:
478,153,170396,6,0,L|504:148,1,24.625,2|0,0:0|0:0,0:0:0:0:
413,313,170551,5,2,1:2:0:0:
399,240,170628,1,2,0:0:0:0:
385,167,170705,1,2,0:0:0:0:
371,94,170783,1,2,0:0:0:0:
359,15,170860,6,2,L|404:6,6,36.9375014090539,10|2|2|2|2|2|2,0:2|0:0|0:0|0:0|0:0|0:0|0:0,0:0:0:0:
253,15,171170,5,2,1:2:0:0:
224,18,171247,1,2,0:0:0:0:
197,21,171323,1,2,0:0:0:0:
170,24,171400,1,2,0:0:0:0:
182,0,171478,5,10,0:2:0:0:
175,55,171555,1,2,0:0:0:0:
168,110,171632,1,2,0:0:0:0:
162,165,171709,1,2,0:0:0:0:
155,220,171788,6,0,P|159:262|186:295,1,73.8750028181077,6|0,3:2|0:0,0:0:0:0:
435,260,171942,2,0,P|396:242|354:249,1,73.8750028181077,2|0,0:0|0:0,0:0:0:0:
112,332,172097,6,0,P|144:358|186:363,1,73.8750028181077,10|0,0:2|0:0,0:0:0:0:
467,185,172252,5,2,0:0:0:0:
474,108,172406,1,0,1:2:0:0:
26,260,172561,5,2,0:0:0:0:
33,337,172715,1,8,0:2:0:0:
405,69,172870,6,0,P|304:62|182:27,1,221.625008454323,2|0,0:0|0:0,0:0:0:0:
109,15,173180,6,0,P|108:49|151:94,1,73.8750028181077,2|0,0:0|0:0,0:0:0:0:
53,129,173334,2,0,P|76:153|138:155,1,73.8750028181077,10|0,0:2|0:0,0:0:0:0:
457,10,173489,6,0,P|482:45|477:101,1,73.8750028181077,2|0,0:0|0:0,0:0:0:0:
171,259,173643,5,2,3:2:0:0:
255,223,173798,1,0,0:0:0:0:
0,191,173953,5,10,3:2:0:0:
445,269,174107,1,0,0:0:0:0:
172,42,174262,5,10,3:2:0:0:
241,0,174339,1,10,0:2:0:0:
315,20,174416,1,2,1:2:0:0:
352,81,174494,1,2,1:2:0:0:
358,136,174571,1,10,0:2:0:0:
373,170,174648,1,2,0:0:0:0:
389,187,174726,1,2,1:2:0:0:
405,188,174803,1,10,0:2:0:0:
414,181,174881,6,0,P|416:143|424:99,1,73.8750028181077,8|0,0:2|0:0,0:0:0:0:
255,153,175035,2,0,P|253:115|245:71,1,73.8750028181077,8|0,0:2|0:0,0:0:0:0:
380,355,175190,5,10,0:2:0:0:
387,358,175267,1,2,0:0:0:0:
394,361,175344,1,2,0:0:0:0:
401,364,175422,1,2,0:0:0:0:
401,364,175499,5,10,3:2:0:0:
366,298,175576,1,2,0:0:0:0:
304,256,175654,1,10,0:2:0:0:
231,251,175731,1,10,0:2:0:0:
162,275,175808,1,10,0:2:0:0:
88,267,175886,1,10,0:2:0:0:
22,232,175963,1,10,0:2:0:0:
0,162,176040,1,2,1:2:0:0:
16,89,176118,5,2,1:2:0:0:
24,86,176195,1,10,0:2:0:0:
34,86,176272,1,10,0:2:0:0:
43,88,176349,1,10,0:2:0:0:
51,93,176427,1,10,0:2:0:0:
58,98,176504,1,2,0:0:0:0:
63,106,176581,1,10,0:2:0:0:
67,114,176659,1,10,0:2:0:0:
69,123,176736,6,0,P|83:161|125:175,1,73.8750028181077,6|2,1:2|0:0,0:0:0:0:
449,261,176891,2,0,P|480:243|491:208,1,73.8750028181077,10|2,0:2|0:0,0:0:0:0:
192,185,177045,6,0,P|185:149|164:120,1,73.8750028181077,2|2,1:2|0:0,0:0:0:0:
396,198,177200,2,0,P|374:227|369:264,1,73.8750028181077,10|2,0:2|0:0,0:0:0:0:
12,320,177355,5,2,1:2:0:0:
81,306,177432,1,2,0:0:0:0:
139,289,177509,1,10,0:2:0:0:
186,270,177587,1,2,0:0:0:0:
226,250,177664,1,2,1:2:0:0:
263,229,177741,1,2,0:0:0:0:
283,217,177819,1,10,0:2:0:0:
293,207,177896,1,2,0:0:0:0:
299,197,177973,6,0,P|289:162|254:138,1,73.8750028181077,2|0,1:2|0:0,0:0:0:0:
278,61,178128,2,0,P|241:59|207:85,1,73.8750028181077,8|0,0:2|0:0,0:0:0:0:
309,344,178283,5,2,1:2:0:0:
343,331,178360,1,2,0:0:0:0:
377,319,178437,1,10,0:2:0:0:
413,306,178514,1,2,0:0:0:0:
406,323,178592,5,2,1:2:0:0:
355,305,178669,1,2,0:0:0:0:
307,286,178746,1,10,0:2:0:0:
257,267,178823,1,2,0:0:0:0:
182,274,178901,6,0,P|185:311|200:356,1,73.8750028181077,2|0,1:2|0:0,0:0:0:0:
117,362,179056,2,0,P|113:324|99:280,1,73.8750028181077,10|0,0:2|0:0,0:0:0:0:
23,167,179210,5,2,1:2:0:0:
20,114,179288,1,2,0:0:0:0:
53,74,179365,1,10,0:2:0:0:
103,63,179442,1,2,0:0:0:0:
151,81,179520,1,2,1:2:0:0:
200,96,179597,1,2,0:0:0:0:
251,93,179674,1,10,0:2:0:0:
300,77,179752,1,2,0:0:0:0:
337,42,179829,6,0,P|325:98|328:144,1,73.8750028181077,2|0,1:2|0:0,0:0:0:0:
476,293,179984,5,10,0:2:0:0:
425,344,180061,1,2,0:0:0:0:
371,366,180138,1,2,1:2:0:0:
330,372,180216,1,2,0:0:0:0:
301,369,180293,1,10,0:2:0:0:
283,358,180370,1,0,0:0:0:0:
275,346,180448,6,0,P|271:300|276:261,1,73.8750028181077,2|2,1:2|0:0,0:0:0:0:
422,135,180602,5,10,0:2:0:0:
430,131,180679,1,2,0:0:0:0:
425,122,180757,1,2,1:2:0:0:
433,118,180834,1,2,0:0:0:0:
384,59,180911,6,0,L|307:49,1,73.8750028181077,10|2,0:2|0:0,0:0:0:0:
168,44,181066,5,10,0:2:0:0:
175,42,181143,1,2,0:0:0:0:
182,40,181220,1,2,1:2:0:0:
189,39,181297,1,2,0:0:0:0:
211,7,181375,5,10,0:2:0:0:
203,80,181452,1,10,0:2:0:0:
196,154,181529,1,10,0:2:0:0:
188,227,181606,1,10,0:2:0:0:
181,301,181684,5,6,1:2:0:0:
98,311,181839,1,10,0:2:0:0:
15,321,181994,1,2,1:2:0:0:
386,200,182149,5,8,0:2:0:0:
386,200,182226,1,2,0:0:0:0:
386,200,182303,1,0,1:2:0:0:
376,282,182458,1,10,0:2:0:0:
366,365,182613,1,2,1:2:0:0:
64,168,182767,5,8,0:2:0:0:
52,162,182844,1,2,0:0:0:0:
40,156,182922,1,2,1:2:0:0:
193,29,183076,5,10,0:2:0:0:
182,109,183231,1,2,1:2:0:0:
464,291,183386,5,10,0:2:0:0:
384,280,183541,1,2,1:2:0:0:
66,355,183695,5,10,0:2:0:0:
81,276,183850,1,2,1:2:0:0:
135,265,183927,1,2,0:0:0:0:
189,255,184004,1,10,0:2:0:0:
244,245,184081,1,2,0:0:0:0:
298,234,184159,6,0,P|313:219|326:166,1,73.8750028181077,2|0,1:2|0:0,0:0:0:0:
255,25,184314,2,0,P|234:19|182:34,1,73.8750028181077,10|0,0:2|0:0,0:0:0:0:
414,150,184468,6,0,P|391:109|346:98,1,73.8750028181077,0|0,1:2|0:0,0:0:0:0:
269,108,184623,2,0,P|227:129|214:174,1,73.8750028181077,8|2,0:2|0:0,0:0:0:0:
398,368,184777,5,2,1:2:0:0:
416,364,184854,1,2,0:0:0:0:
434,360,184931,1,10,0:2:0:0:
452,356,185008,1,2,0:0:0:0:
470,353,185086,1,2,1:2:0:0:
512,197,185241,1,8,0:2:0:0:
445,38,185396,5,10,0:2:0:0:
383,86,185473,1,10,0:2:0:0:
346,146,185551,1,10,0:2:0:0:
329,190,185628,1,10,0:2:0:0:
328,231,185705,1,2,1:2:0:0:
332,254,185783,1,2,0:0:0:0:
345,270,185860,6,2,B|369:266|369:266|389:240,2,36.9375014090539,10|2|2,0:2|0:0|0:0,0:0:0:0:
266,345,186015,6,0,P|261:308|242:254,1,73.8750028181077,10|0,0:2|0:0,0:0:0:0:
447,210,186169,2,0,P|452:173|471:119,1,73.8750028181077,0|0,1:2|0:0,0:0:0:0:
218,141,186324,5,10,0:2:0:0:
166,118,186401,1,2,0:0:0:0:
121,87,186478,1,2,0:0:0:0:
83,47,186556,1,2,0:0:0:0:
61,2,186618,6,0,P|55:43|31:104,1,68.9499978958131,6|0,1:2|0:0,0:0:0:0:
287,76,186772,2,0,P|293:117|317:178,1,68.9499978958131,2|0,1:2|0:0,0:0:0:0:
449,316,186927,5,10,0:2:0:0:
421,285,187004,1,2,0:0:0:0:
380,276,187081,1,2,1:2:0:0:
340,288,187159,1,2,0:0:0:0:
310,316,187236,1,10,0:2:0:0:
279,336,187313,1,2,0:0:0:0:
247,337,187391,1,2,1:2:0:0:
229,328,187468,1,2,0:0:0:0:
223,320,187545,5,10,0:2:0:0:
219,304,187623,1,2,0:0:0:0:
225,285,187700,1,2,0:2:0:0:
249,257,187777,1,2,0:0:0:0:
272,227,187855,1,10,0:2:0:0:
280,158,187932,1,2,0:0:0:0:
233,97,188009,1,2,1:2:0:0:
159,71,188087,1,2,0:0:0:0:
82,101,188164,1,10,0:2:0:0:
47,169,188241,1,2,0:0:0:0:
51,241,188319,1,2,1:2:0:0:
83,298,188396,1,2,0:0:0:0:
132,319,188473,1,10,0:2:0:0:
171,322,188550,1,2,0:0:0:0:
198,315,188628,1,2,1:2:0:0:
213,302,188705,1,2,0:0:0:0:
213,289,188782,6,0,P|206:252|192:216,1,68.9499978958131,10|0,0:2|0:0,0:0:0:0:
383,68,188937,2,0,P|371:100|365:134,1,68.9499978958131,2|0,1:2|0:0,0:0:0:0:
512,298,189092,5,10,0:2:0:0:
446,257,189246,1,2,1:2:0:0:
446,257,189324,1,2,0:0:0:0:
446,257,189401,6,0,P|441:224|430:186,1,68.9499978958131,10|0,0:2|0:0,0:0:0:0:
353,215,189556,2,0,P|362:248|367:282,1,68.9499978958131,2|0,1:2|0:0,0:0:0:0:
290,305,189710,2,0,P|284:270|275:237,1,68.9499978958131,10|2,0:2|0:0,0:0:0:0:
92,147,189865,5,2,1:2:0:0:
92,147,189942,1,2,0:0:0:0:
92,147,190020,2,0,L|10:157,1,68.9499978958131,10|2,0:2|0:0,0:0:0:0:
289,0,190174,2,0,L|280:68,1,68.9499978958131,10|2,0:2|0:0,0:0:0:0:
206,255,190329,5,2,1:2:0:0:
199,203,190406,1,10,0:2:0:0:
193,152,190483,1,10,0:2:0:0:
187,100,190560,1,10,0:2:0:0:
181,49,190638,2,0,L|99:59,1,68.9499978958131,10|2,0:2|0:0,0:0:0:0:
440,123,190793,5,2,1:2:0:0:
440,123,190870,1,2,0:0:0:0:
440,123,190948,2,0,L|508:131,1,68.9499978958131,2|0,1:2|0:0,0:0:0:0:
478,275,191102,2,0,L|470:207,1,68.9499978958131,2|2,1:2|0:0,0:0:0:0:
349,74,191257,5,2,1:2:0:0:
360,158,191411,1,2,1:2:0:0:
304,384,191566,5,14,0:2:0:0:
195,371,191721,1,2,1:2:0:0:
208,369,191798,1,2,0:0:0:0:
221,367,191875,1,2,0:2:0:0:
125,351,192030,1,2,1:2:0:0:
275,37,192185,5,10,0:2:0:0:
205,117,192339,1,2,1:2:0:0:
200,82,192416,1,2,0:0:0:0:
196,48,192493,1,2,0:2:0:0:
117,66,192648,1,2,1:2:0:0:
414,194,192803,6,0,P|450:198|498:214,1,68.9499978958131,10|0,0:2|0:0,0:0:0:0:
281,35,192958,2,0,P|290:68|294:102,1,68.9499978958131,2|0,1:2|0:0,0:0:0:0:
319,292,193112,6,0,P|354:301|399:322,1,68.9499978958131,8|0,0:2|0:0,0:0:0:0:
205,117,193267,2,0,P|210:151|210:185,1,68.9499978958131,2|0,1:2|0:0,0:0:0:0:
206,359,193421,6,0,P|240:370|284:394,1,68.9499978958131,10|0,0:2|0:0,0:0:0:0:
104,176,193576,2,0,P|106:210|104:244,1,68.9499978958131,2|0,1:2|0:0,0:0:0:0:
474,350,193731,5,10,0:2:0:0:
478,340,193808,1,2,0:0:0:0:
480,330,193886,1,2,1:2:0:0:
478,320,193962,1,2,0:0:0:0:
467,302,194040,5,10,0:2:0:0:
471,292,194117,1,2,0:0:0:0:
467,282,194195,1,2,1:2:0:0:
471,272,194271,1,2,0:0:0:0:
467,262,194349,1,10,0:2:0:0:
471,252,194427,1,2,0:0:0:0:
467,242,194504,1,2,1:2:0:0:
471,232,194581,1,2,0:0:0:0:
419,181,194659,6,0,P|387:176|337:150,1,68.9499978958131,10|2,0:2|0:0,0:0:0:0:
166,47,194813,5,2,1:2:0:0:
166,47,194891,1,2,0:0:0:0:
166,47,194968,2,0,P|131:53|96:97,1,68.9499978958131,10|0,0:2|0:0,0:0:0:0:
32,37,195123,2,0,P|19:70|40:122,1,68.9499978958131,0|0,1:2|0:0,0:0:0:0:
143,327,195277,5,8,0:2:0:0:
194,321,195354,1,8,0:2:0:0:
245,315,195431,1,8,0:2:0:0:
297,310,195508,1,8,0:2:0:0:
348,304,195587,2,0,P|355:259|372:230,1,68.9499978958131,8|8,0:2|0:2,0:0:0:0:
501,84,195741,5,2,1:2:0:0:
487,85,195819,5,2,0:0:0:0:
464,88,195896,5,2,1:2:0:0:
431,96,195973,5,10,0:2:0:0:
390,110,196050,5,10,0:2:0:0:
338,130,196128,5,10,0:2:0:0:
279,155,196205,5,10,0:2:0:0:
215,186,196282,5,2,0:0:0:0:
148,222,196360,5,2,1:2:0:0:
79,262,196437,5,2,0:0:0:0:
10,310,196514,5,6,1:2:0:0:
491,148,198989,5,10,0:2:0:0:
481,204,199066,1,8,0:2:0:0:
438,230,199143,1,2,1:2:0:0:
387,225,199221,1,0,1:2:0:0:
363,180,199298,1,2,1:2:0:0:
329,142,199375,1,0,1:2:0:0:
279,129,199453,1,0,1:2:0:0:
237,156,199530,1,2,1:2:0:0:
219,203,199607,2,0,P|223:245|231:274,1,59.0999981964112,2|0,1:2|1:2,0:0:0:0:
416,117,199762,2,0,P|412:75|404:46,1,59.0999981964112,2|0,1:2|1:2,0:0:0:0:
503,364,199916,5,14,0:2:0:0:
328,19,200226,5,6,1:2:0:0:
52,359,201463,5,10,0:2:0:0:
29,321,201540,1,8,0:2:0:0:
41,278,201618,1,10,0:2:0:0:
79,254,201695,1,8,0:2:0:0:
123,253,201772,1,10,0:2:0:0:
163,276,201850,1,8,0:2:0:0:
207,285,201927,1,0,1:2:0:0:
243,260,202004,1,2,0:0:0:0:
248,216,202081,2,0,P|242:178|235:155,1,59.0999981964112,10|8,0:2|0:2,0:0:0:0:
482,251,202236,2,0,P|474:279|470:308,1,59.0999981964112,10|8,0:2|0:2,0:0:0:0:
437,51,202391,5,2,1:2:0:0:
438,41,202468,1,0,0:0:0:0:
439,31,202545,1,8,0:2:0:0:
440,21,202623,1,10,0:2:0:0:
441,11,202700,5,2,1:2:0:0:
469,31,202777,1,0,0:0:0:0:
485,62,202855,1,10,0:2:0:0:
482,97,202932,1,8,0:2:0:0:
464,127,203009,1,10,0:2:0:0:
434,146,203087,1,8,0:2:0:0:
400,155,203164,1,2,1:2:0:0:
364,157,203241,1,0,0:0:0:0:
328,163,203319,1,10,0:2:0:0:
294,173,203396,1,8,0:2:0:0:
267,196,203473,1,10,0:2:0:0:
247,225,203550,1,8,0:2:0:0:
243,260,203628,6,0,P|269:266|310:270,1,59.0999981964112,0|0,1:2|0:0,0:0:0:0:
92,363,203782,2,0,P|118:357|159:353,1,59.0999981964112,10|8,0:2|0:2,0:0:0:0:
409,367,203937,5,10,0:2:0:0:
451,303,204014,1,8,0:2:0:0:
472,243,204092,1,2,1:2:0:0:
483,194,204169,1,0,1:2:0:0:
487,144,204246,1,2,1:2:0:0:
482,106,204324,1,0,1:2:0:0:
469,80,204401,1,0,1:2:0:0:
451,65,204478,1,2,1:2:0:0:
435,60,204556,6,0,P|413:68|372:72,1,59.0999981964112,2|0,1:2|1:2,0:0:0:0:
261,179,204710,2,0,P|239:171|198:167,1,59.0999981964112,2|0,1:2|1:2,0:0:0:0:
41,5,204865,5,14,0:2:0:0:
469,356,205174,5,6,1:2:0:0:
476,279,205329,1,2,0:0:0:0:
385,191,205483,2,0,L|396:312,1,118.199996392822,10|0,0:2|0:0,0:0:0:0:
248,361,205793,5,2,1:2:0:0:
322,336,205947,1,2,0:0:0:0:
474,192,206102,5,10,0:2:0:0:
474,180,206257,1,2,0:0:0:0:
255,16,206411,6,0,B|234:74|299:136|330:84|383:137|386:209,1,236.399992785645,6|0,1:2|0:0,0:0:0:0:
