osu file format v14

[General]
AudioFilename: audio.mp3
AudioLeadIn: 0
PreviewTime: 127224
Countdown: 0
SampleSet: Soft
StackLeniency: 0.4
Mode: 0
LetterboxInBreaks: 0
WidescreenStoryboard: 1

[Editor]
Bookmarks: 97540,102488,131870,198968,201442,204844,206700
DistanceSpacing: 0.2
BeatDivisor: 4
GridSize: 4
TimelineZoom: 1.8

[Metadata]
Title:Amanita
TitleUnicode:Amanita
Artist:Marmalade butcher
ArtistUnicode:Marmalade butcher
Creator:Camo
Version:PaRaDogi's Hard
Source:
Tags:mao zelq deviouspanda asaben asa olsonn megafan paradogi nullum sonum ヌルムソヌム instrumental math rock fa featured artist o!wc owc owc2020 finals hd1
BeatmapID:3101026
BeatmapSetID:1473778

[Difficulty]
HPDrainRate:4
CircleSize:3.5
OverallDifficulty:7
ApproachRate:8
SliderMultiplier:1.3
SliderTickRate:1

[Events]
//Background and Video events
0,0,"84719437_p0.jpg",0,0
//Break Periods
2,82300,83205
2,97761,101759
2,196714,198239
//Storyboard Layer 0 (Background)
//Storyboard Layer 1 (Fail)
//Storyboard Layer 2 (Pass)
//Storyboard Layer 3 (Foreground)
//Storyboard Layer 4 (Overlay)
//Storyboard Sound Samples

[TimingPoints]
1384,309.278350515464,4,2,1,60,1,0
12518,309.278350515464,7,2,1,60,1,0
12749,-100,7,2,1,5,0,0
12827,-100,7,2,1,60,0,0
14605,-100,7,2,1,5,0,0
14682,-100,7,2,1,60,0,0
14914,-100,7,2,1,5,0,0
14992,-100,7,2,1,60,0,0
16847,309.278350515464,6,2,1,60,1,0
17078,-100,6,2,1,5,0,0
17156,-100,6,2,1,60,0,0
18702,309.278350515464,7,2,1,60,1,0
18933,-100,7,2,1,5,0,0
19011,-100,7,2,1,60,0,0
20866,309.278350515464,4,2,1,50,1,0
21175,-133.333333333333,4,2,1,50,0,0
23340,309.278350515464,6,2,1,50,1,0
23340,-133.333333333333,4,2,1,50,0,0
25195,309.278350515464,4,2,1,50,1,0
25813,-133.333333333333,4,2,1,50,0,0
27669,309.278350515464,6,2,1,50,1,0
27669,-133.333333333333,4,2,1,50,0,0
29524,309.278350515464,4,2,1,50,1,0
29524,-133.333333333333,4,2,1,50,0,0
31920,-133.333333333333,4,2,1,5,0,0
31998,309.278350515464,6,2,1,50,1,0
31998,-133.333333333333,4,2,1,50,0,0
33775,-133.333333333333,4,2,1,5,0,0
33853,309.278350515464,4,2,1,50,1,0
38801,-105.263157894737,4,2,1,50,0,0
40889,-105.263157894737,4,2,1,5,0,0
40966,-105.263157894737,4,2,1,50,0,0
41198,-105.263157894737,4,2,1,5,0,0
41275,-105.263157894737,4,2,1,50,0,0
45837,-105.263157894737,4,2,1,5,0,0
45914,-105.263157894737,4,2,1,50,0,0
46146,-105.263157894737,4,2,1,5,0,0
46224,-105.263157894737,4,2,1,50,0,0
48698,-86.9565217391306,4,2,1,80,0,0
68492,-86.9565217391306,4,2,1,70,0,0
69729,-117.64705882353,4,2,1,70,0,0
71662,-117.64705882353,4,2,1,5,0,0
71739,-117.64705882353,4,2,1,70,0,0
72435,-117.64705882353,4,2,1,5,0,0
72512,-117.64705882353,4,2,1,70,0,0
74909,-117.64705882353,4,2,1,5,0,0
74987,-117.64705882353,4,2,1,70,0,0
76610,-117.64705882353,4,2,1,5,0,0
76688,-117.64705882353,4,2,1,70,0,0
77383,-117.64705882353,4,2,1,5,0,0
77461,-117.64705882353,4,2,1,70,0,0
79626,-117.64705882353,4,2,1,50,0,0
82023,-117.64705882353,4,2,1,5,0,0
82100,-117.64705882353,4,2,1,50,0,0
83955,309.278350515464,4,2,1,50,1,0
83955,-133.333333333333,4,2,1,50,0,0
87666,-133.333333333333,4,2,1,70,0,0
88284,309.278350515464,4,2,1,70,1,0
88284,-117.64705882353,4,2,1,70,0,0
92613,309.278350515464,4,2,1,70,1,0
102509,-117.64705882353,4,2,1,70,0,0
107458,-100,4,2,2,85,0,0
127252,-100,4,2,1,70,0,0
132123,-100,4,2,1,5,0,0
132200,-133.333333333333,4,2,1,70,0,0
137149,-133.333333333333,4,2,1,60,0,0
142329,-133.333333333333,4,2,1,5,0,0
142406,-133.333333333333,4,2,1,60,0,0
143875,-133.333333333333,4,2,1,5,0,0
143953,-133.333333333333,4,2,1,60,0,0
147045,-86.9565217391304,4,2,1,90,0,0
166839,-86.9565217391304,4,2,1,95,0,0
176736,-86.9565217391304,4,2,2,95,0,0
186618,309.278350515464,4,2,2,95,1,1
186618,-86.9565217391304,4,2,2,95,0,0
196514,-86.9565217391304,4,2,1,75,0,0
198989,-100,4,2,1,75,0,0
206721,-100,4,2,1,5,0,0

[Colours]
Combo1 : 255,128,128
Combo2 : 245,162,99
Combo3 : 198,147,253
Combo4 : 0,115,230

[HitObjects]
24,61,1384,6,0,L|70:50,3,32.5,10|8|10|8,0:2|0:2|0:2|0:2,0:0:0:0:
90,34,1693,2,0,L|136:45,3,32.5,10|8|10|8,0:2|0:2|0:2|0:2,0:0:0:0:
157,73,2002,2,0,L|203:62,3,32.5,10|8|10|8,0:2|0:2|0:2|0:2,0:0:0:0:
223,37,2311,2,0,L|269:48,3,32.5,10|10|10|10,0:2|0:2|0:2|0:2,0:0:0:0:
297,72,2621,6,0,P|318:104|276:177,1,130,6|10,1:2|0:2,0:0:0:0:
217,228,3085,1,2,1:2:0:0:
217,228,3239,2,0,B|229:286|229:286|224:299|224:299|241:377,2,130,2|2|2,1:2|1:2|1:2,0:0:0:0:
137,122,4167,6,0,P|88:134|74:162,1,65,10|2,0:2|0:0,0:0:0:0:
23,199,4476,2,0,P|37:230|66:324,1,130,2|10,1:2|0:2,0:0:0:0:
192,373,5095,6,0,L|257:357,1,65,6|2,1:2|0:0,0:0:0:0:
312,300,5404,2,0,L|376:319,1,65,10|2,0:2|1:2,0:0:0:0:
446,285,5713,2,0,P|461:238|412:180,1,130,10|2,0:2|1:2,0:0:0:0:
333,73,6332,6,0,P|300:90|257:108,1,65,2|2,1:2|1:2,0:0:0:0:
225,163,6641,2,0,P|186:147|150:138,1,65,10|2,0:2|0:0,0:0:0:0:
88,161,6951,2,0,L|80:200,3,32.5,10|8|10|8,0:2|0:2|0:2|0:2,0:0:0:0:
63,230,7260,2,0,L|71:269,3,32.5,10|10|10|10,0:2|0:2|0:2|0:2,0:0:0:0:
56,306,7569,6,0,B|77:336|77:336|177:317,1,130,6|10,1:2|0:2,0:0:0:0:
217,257,8033,1,2,1:2:0:0:
217,257,8188,2,0,B|258:243|258:243|348:294,2,130,2|2|2,1:2|1:2|1:2,0:0:0:0:
142,151,9115,6,0,P|143:108|172:86,1,65,10|2,0:2|1:2,0:0:0:0:
179,18,9425,2,0,L|256:28,1,65,2|2,1:2|1:2,0:0:0:0:
319,2,9734,1,10,0:2:0:0:
443,63,10043,6,0,P|451:102|438:135,1,65,4|2,1:2|0:0,0:0:0:0:
391,185,10353,2,0,P|377:219|380:253,1,65,10|2,0:2|1:2,0:0:0:0:
335,312,10662,2,0,P|280:344|204:320,1,130,10|2,0:2|1:2,0:0:0:0:
146,363,11126,1,14,0:2:0:0:
146,363,11280,6,0,P|88:329|159:240,1,195
159,161,11899,2,0,L|198:169,3,32.5,8|8|8|8,0:2|0:2|0:2|0:2,0:0:0:0:
230,146,12208,2,0,L|269:138,3,32.5,8|8|8|8,0:2|0:2|0:2|0:2,0:0:0:0:
302,116,12518,6,0,P|336:136|406:88,2,130,6|10|2,1:2|0:2|1:2,0:0:0:0:
288,40,13291,1,2,0:0:0:0:
288,40,13445,2,0,B|253:19|253:19|148:50,1,130,10|2,0:2|1:2,0:0:0:0:
54,117,14064,2,0,P|41:159|58:199,1,65,10|2,0:2|0:0,0:0:0:0:
94,241,14373,1,14,0:2:0:0:
41,368,14682,5,6,1:2:0:0:
174,372,14992,2,0,P|203:349|234:343,1,65,10|0,0:2|0:0,0:0:0:0:
266,272,15301,2,0,P|297:286|343:284,1,65,2|2,1:2|0:0,0:0:0:0:
394,243,15610,2,0,L|414:110,1,130,10|2,0:2|1:2,0:0:0:0:
323,15,16229,2,0,P|289:8|255:19,1,65,10|2,0:2|1:2,0:0:0:0:
195,61,16538,1,10,0:2:0:0:
189,64,16615,1,8,0:2:0:0:
183,67,16693,1,8,0:2:0:0:
177,70,16770,1,8,0:2:0:0:
169,74,16847,6,0,P|136:101|137:131,1,65,6|0,1:2|0:0,0:0:0:0:
77,179,17156,2,0,P|109:221|103:244,1,65,10|0,0:2|0:0,0:0:0:0:
134,303,17465,2,0,B|166:315|166:315|261:285,1,130,2|10,1:2|0:2,0:0:0:0:
357,195,18084,2,0,L|423:215,1,65,2|10,1:2|0:2,0:0:0:0:
489,176,18393,2,0,P|495:138|459:98,1,65,10|10,0:2|0:2,0:0:0:0:
429,56,18702,6,0,B|399:38|399:38|295:56,1,130,6|10,1:2|0:2,0:0:0:0:
219,154,19320,2,0,L|149:135,1,65,2|2,1:2|1:2,0:0:0:0:
82,167,19629,2,0,P|59:144|54:105,1,65,10|2,0:2|0:0,0:0:0:0:
61,34,19939,2,0,L|108:20,3,32.5,10|8|10|8,0:2|0:2|0:2|0:2,0:0:0:0:
140,34,20248,2,0,L|185:37,3,32.5,10|8|10|8,0:2|0:2|0:2|0:2,0:0:0:0:
216,15,20557,1,10,0:2:0:0:
317,95,20866,5,6,1:2:0:0:
234,198,21175,2,0,L|248:253,1,48.750001859665,8|2,0:2|1:2,0:0:0:0:
214,318,21484,1,2,0:0:0:0:
334,383,21793,1,8,0:2:0:0:
334,383,21948,6,0,P|369:362|379:296,1,97.50000371933,2|0,1:2|0:0,0:0:0:0:
447,262,22412,2,0,P|432:222|439:206,1,48.750001859665,8|2,1:2|1:2,0:0:0:0:
471,149,22721,1,2,1:2:0:0:
390,51,23030,1,10,0:2:0:0:
290,141,23340,6,0,L|184:121,1,97.50000371933,2|8,1:2|0:2,0:0:0:0:
120,153,23803,1,2,1:2:0:0:
120,153,23958,2,0,P|92:182|106:235,1,97.50000371933,2|8,0:0|0:2,0:0:0:0:
132,309,24422,2,0,L|196:297,1,48.750001859665,2|2,1:2|1:2,0:0:0:0:
241,250,24731,1,0,0:0:0:0:
241,250,24886,2,0,L|291:264,1,48.750001859665,10|0,0:2|1:2,0:0:0:0:
356,219,25195,5,6,1:2:0:0:
459,309,25504,1,8,0:2:0:0:
507,246,25658,1,2,1:2:0:0:
507,246,25813,2,0,B|519:215|519:215|493:133,1,97.50000371933,2|8,0:0|0:2,0:0:0:0:
490,74,26277,1,2,0:0:0:0:
490,74,26432,6,0,P|455:42|387:48,2,97.50000371933,2|10|2,1:2|0:2|1:2,0:0:0:0:
366,118,27359,1,10,0:2:0:0:
259,40,27669,6,0,P|201:44|183:80,1,97.50000371933,2|8,1:2|0:2,0:0:0:0:
112,104,28132,1,2,1:2:0:0:
112,104,28287,2,0,B|94:126|94:126|115:198,1,97.50000371933,2|8,0:0|0:2,0:0:0:0:
141,274,28751,1,2,1:2:0:0:
141,274,28906,2,0,L|130:325,1,48.750001859665,2|0,1:2|0:0,0:0:0:0:
81,384,29215,1,10,0:2:0:0:
76,383,29292,1,8,0:2:0:0:
71,381,29370,1,8,0:2:0:0:
66,378,29447,1,8,0:2:0:0:
60,375,29524,6,0,P|31:360|41:292,1,97.50000371933,6|8,1:2|0:2,0:0:0:0:
19,225,29987,1,2,1:2:0:0:
19,225,30142,2,0,B|42:189|42:189|21:124,1,97.50000371933,2|8,0:0|0:2,0:0:0:0:
66,69,30606,1,2,1:2:0:0:
66,69,30761,6,0,P|106:52|162:77,1,97.50000371933,2|8,1:2|0:2,0:0:0:0:
222,117,31225,1,2,1:2:0:0:
222,117,31379,2,0,L|282:104,1,48.750001859665,2|0,0:0|1:2,0:0:0:0:
331,55,31688,2,0,L|385:68,1,48.750001859665,10|0,0:2|1:2,0:0:0:0:
434,126,31998,6,0,B|412:151|412:151|428:216,1,97.50000371933,2|8,0:0|0:2,0:0:0:0:
489,266,32461,1,2,1:2:0:0:
489,266,32616,2,0,P|465:335|429:348,1,97.50000371933,2|8,1:2|0:2,0:0:0:0:
376,378,33080,1,2,1:2:0:0:
376,378,33235,2,0,P|341:360|317:354,1,48.750001859665,2|0,1:2|0:0,0:0:0:0:
285,293,33544,2,0,P|251:306|217:313,1,48.750001859665,10|0,0:2|1:2,0:0:0:0:
178,362,33853,6,0,P|142:348|146:252,1,130,6|8,1:2|0:2,0:0:0:0:
108,191,34316,1,2,1:2:0:0:
108,191,34471,2,0,B|138:164|138:164|112:78,1,130,2|8,0:0|0:2,0:0:0:0:
34,62,34935,1,2,1:2:0:0:
34,62,35090,6,0,P|8:82|9:118,1,65,2|0,1:2|0:0,0:0:0:0:
10,191,35399,2,0,P|28:231|19:258,1,65,10|0,0:2|1:2,0:0:0:0:
1,326,35708,1,2,1:2:0:0:
1,326,35863,1,0,1:2:0:0:
60,376,36017,2,0,L|130:359,1,65,10|0,0:2|1:2,0:0:0:0:
178,298,36327,6,0,L|301:342,1,130,2|8,0:0|1:2,0:0:0:0:
368,299,36791,1,2,1:2:0:0:
368,299,36945,2,0,P|382:258|317:198,1,130,2|8,0:0|0:2,0:0:0:0:
279,137,37409,1,2,1:2:0:0:
279,137,37564,6,0,B|299:77|299:77|296:71|296:71|315:13,2,130,6|10|10,1:2|0:2|0:2,0:0:0:0:
221,192,38337,1,8,0:2:0:0:
214,190,38414,1,8,0:2:0:0:
207,187,38492,2,0,L|166:178,3,32.5,8|8|8|8,0:2|0:2|0:2|0:2,0:0:0:0:
142,148,38801,6,0,P|93:160|88:233,1,123.499996702194,6|10,1:2|0:2,0:0:0:0:
19,267,39265,1,2,1:2:0:0:
19,267,39420,2,0,L|29:328,1,61.7499983510972,2|0,1:2|0:0,0:0:0:0:
95,373,39729,2,0,P|135:368|159:348,1,61.7499983510972,10|2,0:2|0:0,0:0:0:0:
210,299,40038,6,0,P|252:294|279:304,1,61.7499983510972,0|2,1:2|0:0,0:0:0:0:
326,358,40347,2,0,L|369:346,3,30.8749991755486,10|8|10|8,0:2|0:2|0:2|0:2,0:0:0:0:
406,361,40657,1,10,0:2:0:0:
494,264,40966,2,0,L|477:165,1,92.6249975266457,2|0,0:0|0:0,0:0:0:0:
445,146,41275,6,0,P|409:141|377:155,1,61.7499983510972,6|2,1:2|0:0,0:0:0:0:
323,196,41584,2,0,P|294:205|250:198,1,61.7499983510972,10|2,0:2|1:2,0:0:0:0:
188,176,41894,2,0,L|159:50,1,123.499996702194,2|10,1:2|0:2,0:0:0:0:
217,0,42358,1,2,0:0:0:0:
334,55,42667,5,2,0:0:0:0:
334,55,42822,2,0,L|395:39,1,61.7499983510972,10|2,0:2|1:2,0:0:0:0:
472,54,43131,2,0,P|498:88|480:165,1,123.499996702194,2|2,1:2|1:2,0:0:0:0:
426,280,43749,6,0,L|355:271,1,61.7499983510972,6|2,1:2|0:0,0:0:0:0:
301,229,44059,2,0,L|239:245,1,61.7499983510972,10|2,0:2|1:2,0:0:0:0:
191,306,44368,2,0,P|152:321|74:284,1,123.499996702194,2|10,1:2|0:2,0:0:0:0:
14,251,44832,1,2,1:2:0:0:
14,251,44987,6,0,L|3:189,1,61.7499983510972,8|2,0:2|0:0,0:0:0:0:
41,122,45296,2,0,L|55:46,1,61.7499983510972,10|2,0:2|1:2,0:0:0:0:
112,10,45605,1,2,1:2:0:0:
227,73,45914,1,2,0:0:0:0:
348,17,46224,6,0,P|383:35|390:118,1,123.499996702194,6|10,1:2|0:2,0:0:0:0:
327,153,46688,1,2,1:2:0:0:
327,153,46842,2,0,B|308:182|308:182|332:279,1,123.499996702194,10|2,0:2|1:2,0:0:0:0:
392,318,47306,1,10,0:2:0:0:
506,244,47615,5,2,0:0:0:0:
506,244,47770,2,0,L|492:179,1,61.7499983510972,2|2,0:0|0:0,0:0:0:0:
439,126,48079,2,0,L|452:60,1,61.7499983510972,2|0,0:0|1:2,0:0:0:0:
402,5,48389,1,8,0:2:0:0:
297,97,48698,6,0,P|249:124|170:73,1,149.500002851486,6|10,3:2|0:2,0:0:0:0:
103,15,49162,1,2,0:2:0:0:
15,36,49316,2,0,B|-3:74|-3:74|16:119,1,74.7500014257431,2|2,0:2|0:2,0:0:0:0:
85,163,49626,1,10,0:2:0:0:
14,233,49780,1,2,0:0:0:0:
13,325,49935,6,0,P|38:354|82:354,1,74.7500014257431,2|0,3:2|0:0,0:0:0:0:
149,295,50244,2,0,P|194:283|225:297,1,74.7500014257431,10|0,0:2|0:0,0:0:0:0:
296,359,50554,2,0,P|338:377|350:284,1,149.500002851486,2|10,1:2|0:2,0:0:0:0:
383,202,51017,1,0,0:0:0:0:
290,152,51172,6,0,B|221:168|221:168|209:166|209:166|139:180,2,149.500002851486,2|8|2,3:2|0:2|1:2,0:0:0:0:
383,202,51945,1,2,0:0:0:0:
460,138,52100,2,0,L|467:95,3,37.3750007128716,10|0|0|0,0:2|0:0|0:0|0:0,0:0:0:0:
452,54,52409,6,0,P|410:29|375:37,1,74.7500014257431,2|2,3:2|0:0,0:0:0:0:
293,2,52718,2,0,P|255:29|206:23,1,74.7500014257431,10|2,0:0|0:2,0:0:0:0:
134,6,53028,1,2,3:2:0:0:
117,102,53182,1,0,0:0:0:0:
21,129,53337,2,0,L|41:208,1,74.7500014257431,10|0,0:2|1:2,0:0:0:0:
125,261,53646,6,0,P|169:271|241:194,1,149.500002851486,6|8,3:2|0:2,0:0:0:0:
289,120,54110,1,0,0:0:0:0:
386,142,54265,2,0,B|402:177|402:177|386:217,1,74.7500014257431,2|0,1:2|0:0,0:0:0:0:
332,289,54574,2,0,B|314:321|314:321|328:363,1,74.7500014257431,10|0,0:2|1:2,0:0:0:0:
430,377,54883,2,0,P|478:357|473:250,1,149.500002851486,6|8,3:2|0:2,0:0:0:0:
503,100,55502,6,0,P|465:64|433:64,1,74.7500014257431,2|0,1:2|0:0,0:0:0:0:
361,8,55811,2,0,P|320:34|279:27,1,74.7500014257431,10|0,0:2|1:2,0:0:0:0:
212,89,56121,6,0,B|178:62|142:57|138:82|99:86|60:55,2,149.500002851486,6|8|6,3:2|0:2|3:2,0:0:0:0:
305,136,56894,1,0,0:0:0:0:
243,215,57048,2,0,P|257:256|260:300,1,74.7500014257431,8|0,0:2|0:0,0:0:0:0:
202,366,57358,1,10,3:2:0:0:
195,362,57435,1,8,0:2:0:0:
187,359,57512,1,2,1:2:0:0:
84,374,57667,6,0,P|54:338|56:296,1,74.7500014257431,8|2,0:2|0:0,0:0:0:0:
10,221,57976,2,0,P|32:186|32:142,1,74.7500014257431,0|0,1:2|0:0,0:0:0:0:
68,61,58285,2,0,L|115:43,3,37.3750007128716,10|2|2|2,0:2|0:0|0:0|0:0,0:0:0:0:
138,15,58595,6,0,P|173:26|212:49,1,74.7500014257431,6|2,3:2|0:0,0:0:0:0:
274,116,58904,2,0,P|310:138|365:57,1,149.500002851486,10|0,0:2|1:2,0:0:0:0:
452,12,59368,2,0,B|486:29|486:29|492:75,1,74.7500014257431,2|8,0:0|0:2,0:0:0:0:
435,153,59677,6,0,B|410:184|410:184|446:310,1,149.500002851486,2|2,0:0|0:0,0:0:0:0:
366,357,60141,1,10,0:2:0:0:
279,315,60296,1,2,0:0:0:0:
197,375,60450,2,0,P|159:358|147:314,1,74.7500014257431,2|0,1:2|0:0,0:0:0:0:
74,266,60760,2,0,P|88:213|86:186,1,74.7500014257431,10|0,1:2|1:2,0:0:0:0:
29,115,61069,6,0,B|48:77|48:77|163:100,1,149.500002851486,2|10,3:2|0:2,0:0:0:0:
225,173,61533,2,0,L|308:151,1,74.7500014257431,2|0,0:0|1:2,0:0:0:0:
350,71,61842,2,0,L|433:96,1,74.7500014257431,2|8,0:0|0:2,0:0:0:0:
485,169,62151,1,2,0:0:0:0:
415,241,62306,6,0,B|448:371|448:371|484:382,2,149.500002851486,2|10|2,1:2|0:2|1:2,0:0:0:0:
335,182,63079,1,2,1:2:0:0:
269,252,63234,2,0,P|223:241|189:254,1,74.7500014257431,10|2,0:2|0:0,0:0:0:0:
109,289,63543,6,0,B|120:340|120:340|162:383|222:349,1,149.500002851486,6|10,3:2|0:2,0:0:0:0:
312,372,64007,2,0,L|397:356,1,74.7500014257431,2|0,0:0|1:2,0:0:0:0:
468,302,64316,2,0,P|471:253|435:221,1,74.7500014257431,2|10,0:0|0:2,0:0:0:0:
379,172,64626,6,0,B|356:142|356:142|376:27,1,149.500002851486,2|2,0:0|0:0,0:0:0:0:
278,4,65090,2,0,B|250:31|250:31|255:69,1,74.7500014257431,10|2,0:2|0:0,0:0:0:0:
202,148,65399,2,0,B|221:184|221:184|206:215,1,74.7500014257431,2|0,3:2|0:0,0:0:0:0:
132,278,65708,1,10,3:2:0:0:
43,231,65863,1,0,0:0:0:0:
49,137,66017,6,0,B|55:91|94:76|94:76|71:46|79:5,2,149.500002851486,2|8|0,0:2|0:2|1:2,0:0:0:0:
43,231,66791,1,0,0:0:0:0:
132,278,66945,2,0,P|177:281|204:258,1,74.7500014257431,10|0,0:2|0:0,0:0:0:0:
252,183,67255,5,14,0:2:0:0:
258,185,67332,1,8,0:2:0:0:
265,187,67409,1,2,1:2:0:0:
343,255,67564,2,0,L|419:243,1,74.7500014257431,10|10,0:2|1:2,0:0:0:0:
506,200,67873,2,0,P|514:157|490:124,1,74.7500014257431,2|0,1:2|1:2,0:0:0:0:
499,35,68182,1,10,0:2:0:0:
327,4,68492,5,2,1:2:0:0:
42,44,69729,6,0,P|25:101|32:110,1,55.2500010538101,6|0,1:2|0:0,0:0:0:0:
76,150,70038,2,0,P|98:182|86:211,1,55.2500010538101,10|2,0:2|1:2,0:0:0:0:
145,262,70347,2,0,P|114:278|41:257,2,110.50000210762,0|2|0,1:2|1:2|1:2,0:0:0:0:
216,308,71121,5,2,1:2:0:0:
216,308,71275,2,0,L|287:299,1,55.2500010538101,10|2,0:2|1:2,0:0:0:0:
333,251,71584,2,0,L|392:268,1,55.2500010538101,0|2,1:2|1:2,0:0:0:0:
438,324,71894,1,10,0:2:0:0:
508,211,72203,6,0,P|519:164|478:113,1,110.50000210762,6|10,1:2|0:2,0:0:0:0:
448,45,72667,2,0,L|378:57,1,55.2500010538101,2|8,1:2|0:2,0:0:0:0:
331,101,72976,2,0,L|270:85,1,55.2500010538101,2|2,1:2|1:2,0:0:0:0:
207,66,73285,1,10,0:2:0:0:
207,66,73440,6,0,B|159:81|159:81|149:81|149:81|94:97,1,110.50000210762,0|8,1:2|0:2,0:0:0:0:
21,208,74059,2,0,L|26:241,3,27.6250005269051,8|8|10|8,0:2|0:2|0:2|0:2,0:0:0:0:
45,269,74368,2,0,L|40:302,3,27.6250005269051,10|10|10|10,0:2|0:2|0:2|0:2,0:0:0:0:
52,337,74677,6,0,L|128:353,1,55.2500010538101,6|0,1:2|0:0,0:0:0:0:
178,382,74987,2,0,L|249:369,1,55.2500010538101,10|2,0:2|1:2,0:0:0:0:
285,313,75296,2,0,P|334:312|364:366,2,110.50000210762,0|0|0,1:2|1:2|1:2,0:0:0:0:
224,264,76069,2,0,L|211:200,1,55.2500010538101,2|10,1:2|0:2,0:0:0:0:
157,161,76378,1,2,1:2:0:0:
157,161,76533,2,0,L|164:95,1,55.2500010538101,0|2,1:2|1:2,0:0:0:0:
179,30,76842,2,0,L|216:22,3,27.6250005269051
235,13,77151,6,0,B|289:19|289:19|294:24|294:24|361:28,1,110.50000210762,6|10,1:2|0:2,0:0:0:0:
409,74,77615,1,2,1:2:0:0:
409,74,77770,2,0,P|422:117|407:143,1,55.2500010538101,8|2,0:2|0:0,0:0:0:0:
373,188,78079,2,0,P|359:223|370:242,1,55.2500010538101,2|10,1:2|0:2,0:0:0:0:
400,308,78389,6,0,L|459:314,2,55.2500010538101,0|2|10,1:2|1:2|0:2,0:0:0:0:
319,314,78853,1,2,0:0:0:0:
281,380,79007,2,0,L|226:369,1,55.2500010538101,2|2,1:2|1:2,0:0:0:0:
150,378,79316,1,10,0:2:0:0:
80,266,79626,5,6,1:2:0:0:
256,192,79703,12,2,82100,0:0:0:0:
255,119,83955,6,0,B|326:119|326:119|325:199,1,146.250005578995,6|2,1:2|0:0,0:0:0:0:
327,271,84573,2,0,B|327:346|327:346|256:346,1,146.250005578995,2|2,0:0|0:0,0:0:0:0:
177,342,85192,6,0,L|180:237,2,97.50000371933,2|10|2,1:2|0:2|0:0,0:0:0:0:
184,166,86119,2,0,L|184:98,1,48.750001859665,10|0,0:2|0:0,0:0:0:0:
188,38,86429,6,0,B|297:38|297:38|297:78,1,146.250005578995,2|2,1:2|0:0,0:0:0:0:
293,154,87047,2,0,B|184:154|184:154|184:114,1,146.250005578995,2|2,0:0|0:0,0:0:0:0:
106,124,87666,1,10,0:2:0:0:
106,119,87743,1,8,0:2:0:0:
106,114,87820,1,0,1:2:0:0:
26,111,87975,2,0,L|26:143,3,24.3750009298325,10|8|8|8,0:2|0:2|0:2|0:2,0:0:0:0:
4,176,88284,6,0,L|0:296,1,110.50000210762,6|10,1:2|0:2,0:0:0:0:
4,368,88747,1,2,1:2:0:0:
4,368,88902,2,0,L|132:368,1,110.50000210762,2|10,1:2|0:2,0:0:0:0:
196,372,89366,1,2,0:0:0:0:
196,372,89521,6,0,L|324:372,1,110.50000210762,2|10,1:2|0:2,0:0:0:0:
388,376,89985,1,2,1:2:0:0:
388,376,90139,2,0,L|464:376,1,55.2500010538101,2|0,1:2|1:2,0:0:0:0:
444,296,90448,2,0,L|444:212,1,82.8750015807152,10|0,0:2|0:0,0:0:0:0:
444,168,90758,6,0,L|316:168,1,110.50000210762,2|10,1:2|0:2,0:0:0:0:
256,168,91222,1,2,1:2:0:0:
256,168,91376,2,0,L|124:168,1,110.50000210762,2|8,1:2|0:2,0:0:0:0:
68,168,91840,1,2,1:2:0:0:
68,168,91995,6,0,L|68:88,1,55.2500010538101,2|0,1:2|0:0,0:0:0:0:
72,32,92304,2,0,L|164:32,1,82.8750015807152,10|0,0:2|1:2,0:0:0:0:
200,32,92613,6,0,L|336:32,1,130,6|10,1:2|0:2,0:0:0:0:
412,36,93076,1,2,1:2:0:0:
412,36,93231,2,0,L|408:168,1,130,2|10,1:2|0:2,0:0:0:0:
408,248,93695,1,2,1:2:0:0:
408,248,93850,6,0,L|264:248,2,130,2|10|2,1:2|0:2|1:2,0:0:0:0:
412,332,94623,1,0,1:2:0:0:
412,332,94777,2,0,L|300:332,1,97.5,10|0,0:2|0:0,0:0:0:0:
276,332,95087,6,0,L|136:332,1,130,2|10,1:2|0:2,0:0:0:0:
68,332,95551,1,2,1:2:0:0:
68,332,95705,2,0,L|72:196,1,130,2|10,1:2|0:2,0:0:0:0:
76,124,96169,1,2,0:0:0:0:
76,124,96324,6,0,L|152:124,1,65,2|0,1:2|0:0,0:0:0:0:
220,124,96633,2,0,L|288:124,1,65,10|0,0:2|0:0,0:0:0:0:
364,124,96942,2,0,L|364:160,3,32.5,10|8|8|8,0:2|0:2|0:2|0:2,0:0:0:0:
364,184,97252,2,0,L|364:220,3,32.5,8|8|8|8,0:2|0:2|0:2|0:2,0:0:0:0:
364,248,97561,5,6,1:2:0:0:
19,92,102509,6,0,P|52:79|82:87,1,55.2500010538101,6|2,1:2|0:0,0:0:0:0:
137,126,102819,1,10,0:2:0:0:
232,33,103128,2,0,P|259:42|270:73,1,55.2500010538101,2|2,1:2|1:2,0:0:0:0:
320,128,103437,2,0,P|357:144|381:139,1,55.2500010538101,10|0,0:2|1:2,0:0:0:0:
434,191,103747,6,0,B|454:216|454:216|432:291,1,110.50000210762,2|10,1:2|0:2,0:0:0:0:
321,369,104365,2,0,L|205:353,1,110.50000210762,2|10,1:2|0:2,0:0:0:0:
99,284,104984,6,0,P|88:239|100:220,1,55.2500010538101,2|2,1:2|0:0,0:0:0:0:
148,178,105293,1,10,0:2:0:0:
61,81,105602,2,0,P|93:48|118:49,1,55.2500010538101,2|2,1:2|1:2,0:0:0:0:
166,1,105911,2,0,P|203:20|228:17,1,55.2500010538101,10|0,0:2|1:2,0:0:0:0:
263,80,106221,6,0,B|303:69|303:69|314:73|314:73|378:60,1,110.50000210762,2|10,1:2|0:2,0:0:0:0:
499,103,106839,2,0,L|489:158,1,55.2500010538101,2|2,1:2|0:0,0:0:0:0:
476,235,107149,1,2,0:0:0:0:
354,330,107458,6,0,B|381:358|381:358|473:347,2,130,6|10|2,1:2|0:2|1:2,0:0:0:0:
334,253,108231,1,2,0:0:0:0:
334,253,108386,2,0,L|267:265,1,65,10|2,0:2|0:0,0:0:0:0:
217,323,108695,6,0,L|141:312,1,65,2|2,1:2|0:0,0:0:0:0:
79,344,109004,2,0,B|39:317|39:317|59:226,1,130,10|2,0:2|1:2,0:0:0:0:
26,165,109468,2,0,L|19:97,1,65,2|10,0:0|0:2,0:0:0:0:
38,22,109777,1,2,0:0:0:0:
118,10,109932,6,0,P|163:8|190:27,1,65,0|0,1:2|0:0,0:0:0:0:
235,72,110241,2,0,P|280:80|301:67,1,65,8|2,0:2|0:0,0:0:0:0:
363,31,110551,2,0,B|403:11|403:11|481:51,1,130,2|10,1:2|0:2,0:0:0:0:
508,122,111015,1,2,1:2:0:0:
490,200,111169,6,0,P|456:211|423:200,1,65,2|2,1:2|0:0,0:0:0:0:
366,155,111478,2,0,P|323:163|306:213,1,97.5,10|2,0:2|0:0,0:0:0:0:
289,248,111788,2,0,P|260:267|225:265,1,65,2|2,1:2|0:0,0:0:0:0:
177,327,112097,2,0,P|139:308|110:316,1,65,10|2,0:2|0:0,0:0:0:0:
57,364,112406,6,0,P|37:327|41:294,1,65,6|2,1:2|0:0,0:0:0:0:
79,235,112716,1,10,0:2:0:0:
11,196,112870,1,2,0:0:0:0:
21,118,113025,2,0,B|78:102|78:102|86:106|86:106|152:89,1,130,2|10,1:2|0:2,0:0:0:0:
192,25,113489,1,2,0:0:0:0:
192,25,113643,6,0,L|265:33,1,65,2|2,1:2|0:0,0:0:0:0:
294,103,113953,2,0,L|363:90,1,65,10|2,0:2|0:0,0:0:0:0:
252,178,114262,2,0,L|323:198,1,65,2|2,1:2|0:0,0:0:0:0:
347,269,114571,2,0,L|419:264,1,65,10|2,0:2|0:0,0:0:0:0:
401,348,114881,6,0,L|246:357,1,130,2|10,1:2|0:2,0:0:0:0:
192,373,115344,1,0,0:0:0:0:
146,308,115499,2,0,P|133:272|147:247,1,65,0|0,1:2|0:0,0:0:0:0:
211,207,115808,2,0,P|232:168|223:140,1,65,8|8,0:2|0:2,0:0:0:0:
186,84,116118,6,0,L|135:78,3,32.5,10|10|2|2,0:2|0:2|1:2|1:2,0:0:0:0:
122,48,116427,6,0,L|89:53,5,21.6666666666667,10|0|0|2|0|2,0:2|0:0|0:0|0:0|0:0|0:0,0:0:0:0:
64,71,116736,2,0,B|39:93|39:93|67:189,1,130,2|10,1:2|0:2,0:0:0:0:
19,250,117200,1,2,0:0:0:0:
18,256,117277,1,2,0:0:0:0:
14,261,117355,6,0,L|61:265,3,32.5,2|2|2|2,1:2|0:0|1:2|0:0,0:0:0:0:
76,304,117664,2,0,L|123:300,3,32.5,10|2|2|2,0:2|0:0|1:2|0:0,0:0:0:0:
126,326,117973,2,0,L|196:337,1,65,10|2,0:2|1:2,0:0:0:0:
259,379,118283,2,0,L|329:363,1,65,10|2,0:2|1:2,0:0:0:0:
368,297,118592,6,0,B|405:285|405:285|492:325,2,130,10|10|10,0:2|0:2|0:2,0:0:0:0:
305,248,119365,2,0,L|311:181,1,65,2|10,1:2|0:2,0:0:0:0:
316,106,119674,1,2,1:2:0:0:
244,65,119829,6,0,L|240:31,2,32.5,10|2|2,0:2|0:0|1:2,0:0:0:0:
203,135,120138,2,0,B|180:158|180:158|75:140,1,130,10|10,0:2|0:2,0:0:0:0:
40,79,120602,1,2,1:2:0:0:
40,79,120757,1,10,0:2:0:0:
3,146,120911,1,0,1:2:0:0:
4,223,121066,6,0,L|11:257,3,32.5,2|10|10|10,1:2|0:2|0:2|0:2,0:0:0:0:
26,290,121375,2,0,L|19:324,3,32.5,10|2|2|2,0:2|1:2|1:2|1:2,0:0:0:0:
39,357,121685,2,0,L|181:373,1,130,2|2,1:2|1:2,0:0:0:0:
243,341,122149,1,2,0:0:0:0:
244,334,122226,1,2,0:0:0:0:
245,326,122303,6,0,L|285:322,3,32.5,14|2|2|2,0:2|0:0|1:2|0:0,0:0:0:0:
322,331,122613,2,0,L|357:335,3,32.5,10|2|2|2,0:2|0:0|1:2|0:0,0:0:0:0:
399,323,122922,2,0,P|438:279|395:221,1,130,10|10,0:2|0:2,0:0:0:0:
459,161,123386,1,2,1:2:0:0:
496,88,123540,6,0,L|421:73,1,65,10|2,0:2|1:2,0:0:0:0:
377,17,123850,2,0,L|339:24,3,32.5,10|2|2|2,0:2|0:0|1:2|0:0,0:0:0:0:
310,46,124159,2,0,L|259:39,3,32.5,10|2|2|2,0:2|0:0|1:2|0:0,0:0:0:0:
241,11,124468,2,0,L|173:21,1,65,10|2,0:2|1:2,0:0:0:0:
108,58,124777,6,0,L|99:124,1,65,10|2,0:2|1:2,0:0:0:0:
46,182,125087,2,0,L|54:228,3,32.5,10|2|2|2,0:2|0:0|1:2|0:0,0:0:0:0:
78,243,125396,2,0,L|70:289,3,32.5,10|2|2|2,0:2|0:0|1:2|0:0,0:0:0:0:
54,315,125705,2,0,P|112:344|123:340,1,65,10|8,0:2|0:2,0:0:0:0:
177,377,126015,6,0,B|202:340|202:340|360:379,1,195,2|0,1:2|1:2,0:0:0:0:
420,341,126633,2,0,B|430:307|430:307|406:273,1,65,0|0,1:2|1:2,0:0:0:0:
351,235,126942,2,0,B|336:204|336:204|354:173,1,65,4|0,1:2|1:2,0:0:0:0:
415,129,127252,5,6,1:2:0:0:
256,192,127329,12,0,131582,0:0:0:0:
20,37,132200,5,2,1:2:0:0:
20,37,133437,5,2,1:2:0:0:
20,37,134056,5,2,1:2:0:0:
75,119,134365,1,2,1:2:0:0:
31,206,134674,5,2,1:2:0:0:
31,206,135911,5,2,1:2:0:0:
31,206,137149,6,0,L|140:213,1,97.50000371933,2|8,1:2|0:2,0:0:0:0:
188,269,137613,1,2,0:0:0:0:
188,269,137767,1,2,1:2:0:0:
266,164,138076,2,0,L|318:173,1,48.750001859665,2|2,1:2|0:0,0:0:0:0:
392,277,138540,6,0,L|446:269,1,48.750001859665,2|2,0:0|1:2,0:0:0:0:
509,149,139004,2,0,L|460:138,2,48.750001859665,2|0|2,1:2|0:0|1:2,0:0:0:0:
412,61,139623,6,0,B|389:46|389:46|318:70,1,97.50000371933,2|2,1:2|1:2,0:0:0:0:
271,131,140087,1,2,0:0:0:0:
271,131,140241,2,0,L|214:122,2,48.750001859665,2|0|2,1:2|0:0|1:2,0:0:0:0:
288,257,140860,1,2,1:2:0:0:
416,275,141169,6,0,L|406:304,6,16.2500006198883,2|0|0|2|0|0|2,1:2|0:0|0:0|0:0|0:0|0:0|1:2,0:0:0:0:
383,206,141633,2,0,L|377:157,1,48.750001859665,2|0,0:0|1:2,0:0:0:0:
308,44,142097,6,0,P|270:18|207:35,1,97.50000371933,2|8,1:2|0:2,0:0:0:0:
176,89,142561,2,0,P|142:115|85:98,1,97.50000371933,2|0,0:0|0:0,0:0:0:0:
19,138,143025,2,0,P|3:169|14:198,1,48.750001859665,2|0,1:2|0:0,0:0:0:0:
39,253,143334,5,2,1:2:0:0:
116,367,143643,1,2,1:2:0:0:
228,300,143953,2,0,L|289:313,1,48.750001859665,2|0,1:2|0:0,0:0:0:0:
332,366,144262,2,0,L|383:357,1,48.750001859665,2|0,1:2|0:0,0:0:0:0:
437,298,144571,6,0,P|444:268|437:244,1,48.750001859665,2|2,1:2|0:0,0:0:0:0:
390,190,144881,2,0,P|382:160|396:138,1,48.750001859665,2|2,1:2|0:0,0:0:0:0:
443,86,145190,1,2,1:2:0:0:
345,0,145499,2,0,L|284:8,1,48.750001859665,2|2,1:2|0:0,0:0:0:0:
230,47,145808,6,0,B|206:48|183:59|183:59|173:35|146:18,2,97.50000371933,2|2|2,0:3|0:3|0:3,0:0:0:0:
36,192,147045,6,0,B|26:129|26:129|30:120|30:120|19:27,2,149.500002851486,6|0|0,3:2|1:2|1:2,0:0:0:0:
105,275,147819,1,0,1:2:0:0:
195,235,147973,2,0,B|213:199|213:199|187:160,1,74.7500014257431,8|0,0:2|1:2,0:0:0:0:
117,110,148283,6,0,P|145:84|203:79,1,74.7500014257431,10|0,1:2|1:2,0:0:0:0:
250,5,148592,2,0,P|283:37|316:38,1,74.7500014257431,0|0,1:2|1:2,0:0:0:0:
376,115,148901,2,0,B|406:140|406:140|525:115,1,149.500002851486,8|8,0:2|0:2,0:0:0:0:
504,217,149365,1,0,1:2:0:0:
448,295,149520,6,0,L|364:276,1,74.7500014257431,6|0,3:2|1:2,0:0:0:0:
324,188,149829,2,0,L|245:213,1,74.7500014257431,0|0,1:2|1:2,0:0:0:0:
183,283,150138,2,0,P|120:283|93:197,1,149.500002851486,2|0,3:2|1:2,0:0:0:0:
16,145,150602,1,0,1:2:0:0:
34,47,150757,5,10,3:2:0:0:
129,27,150911,1,2,1:2:0:0:
169,108,151066,2,0,P|213:124|241:108,1,74.7500014257431,2|2,1:2|0:0,0:0:0:0:
306,40,151375,2,0,P|356:25|408:98,1,149.500002851486,2|10,1:2|0:2,0:0:0:0:
500,137,151839,1,0,1:2:0:0:
457,231,151994,6,0,L|422:379,2,149.500002851486,6|8|2,3:2|0:2|1:2,0:0:0:0:
362,247,152767,1,0,0:0:0:0:
282,191,152922,2,0,B|270:155|270:155|288:113,1,74.7500014257431,10|0,0:2|1:2,0:0:0:0:
219,48,153231,6,0,B|185:23|185:23|77:49,1,149.500002851486,6|8,3:2|0:2,0:0:0:0:
107,143,153695,1,2,0:0:0:0:
7,161,153850,2,0,L|19:243,1,74.7500014257431,2|0,1:2|0:0,0:0:0:0:
64,327,154159,2,0,P|111:344|140:331,1,74.7500014257431,10|2,0:2|1:2,0:0:0:0:
214,278,154468,6,0,B|242:255|242:255|350:301,2,149.500002851486,6|8|6,3:2|0:2|3:2,0:0:0:0:
121,257,155241,1,0,0:0:0:0:
112,163,155396,2,0,P|112:112|132:84,1,74.7500014257431,8|0,0:2|0:0,0:0:0:0:
194,22,155705,6,0,L|272:17,1,74.7500014257431,10|2,3:2|1:2,0:0:0:0:
345,73,156015,2,0,L|392:79,3,37.3750007128716,10|0|0|2,0:2|0:0|0:0|0:0,0:0:0:0:
412,81,156324,1,8,0:2:0:0:
506,172,156633,1,10,0:2:0:0:
505,179,156710,1,2,0:0:0:0:
504,186,156788,1,2,0:0:0:0:
503,193,156865,1,2,0:0:0:0:
502,200,156942,6,0,B|488:261|488:261|495:272|495:272|477:355,1,149.500002851486,6|10,3:2|0:2,0:0:0:0:
384,371,157406,2,0,P|345:365|323:326,1,74.7500014257431,2|0,0:0|1:2,0:0:0:0:
256,259,157716,2,0,P|204:248|176:260,1,74.7500014257431,2|8,0:0|0:2,0:0:0:0:
100,308,158025,6,0,P|48:302|47:218,1,149.500002851486,2|2,0:0|0:0,0:0:0:0:
117,146,158489,1,10,0:2:0:0:
63,64,158643,1,2,0:0:0:0:
141,2,158798,2,0,L|220:10,1,74.7500014257431,2|0,1:2|0:0,0:0:0:0:
298,71,159107,2,0,L|377:54,1,74.7500014257431,10|0,0:2|0:0,0:0:0:0:
463,100,159417,6,0,B|493:131|493:131|466:239,1,149.500002851486,2|10,3:2|0:2,0:0:0:0:
403,313,159881,1,2,0:0:0:0:
309,281,160035,2,0,B|287:246|287:246|305:209,1,74.7500014257431,0|2,1:2|0:0,0:0:0:0:
241,137,160344,1,8,0:2:0:0:
289,50,160499,1,2,0:0:0:0:
207,0,160654,6,0,L|125:4,1,74.7500014257431,2|2,1:2|0:0,0:0:0:0:
39,40,160963,2,0,L|43:78,3,37.3750007128716,10|0|0|2,0:2|0:0|0:0|0:0,0:0:0:0:
45,94,161272,2,0,L|52:171,1,74.7500014257431,2|2,1:2|0:0,0:0:0:0:
125,241,161582,2,0,L|109:318,1,74.7500014257431,10|2,0:2|0:0,0:0:0:0:
191,366,161891,6,0,P|244:368|269:282,1,149.500002851486,6|10,3:2|0:2,0:0:0:0:
213,209,162355,2,0,B|203:169|203:169|226:143,1,74.7500014257431,2|0,0:0|1:2,0:0:0:0:
205,48,162664,2,0,B|242:28|242:28|287:40,1,74.7500014257431,2|8,0:0|0:2,0:0:0:0:
374,1,162973,6,0,B|404:23|404:23|380:135,1,149.500002851486,2|2,0:0|0:0,0:0:0:0:
312,210,163437,1,10,0:2:0:0:
370,290,163592,1,2,0:0:0:0:
309,371,163747,2,0,L|154:360,1,149.500002851486,2|10,3:2|3:2,0:0:0:0:
67,382,164210,1,0,1:2:0:0:
40,295,164365,6,0,P|37:247|57:224,1,74.7500014257431,6|0,1:2|0:0,0:0:0:0:
112,153,164674,2,0,L|100:69,1,74.7500014257431,8|2,0:2|0:0,0:0:0:0:
161,2,164984,2,0,L|255:-5,1,74.7500014257431,2|0,1:2|0:0,0:0:0:0:
332,28,165293,2,0,L|412:23,1,74.7500014257431,10|2,0:2|0:0,0:0:0:0:
471,90,165602,6,0,L|459:129,2,37.3750007128716,10|8|0,3:2|0:2|1:2,0:0:0:0:
378,127,165911,2,0,L|357:208,1,74.7500014257431,8|0,0:2|1:2,0:0:0:0:
257,197,166221,2,0,L|269:271,1,74.7500014257431,10|8,3:2|0:2,0:0:0:0:
235,347,166530,1,10,0:0:0:0:
243,350,166607,1,2,0:0:0:0:
251,354,166684,1,2,0:0:0:0:
260,358,166761,1,2,0:0:0:0:
268,362,166839,6,0,B|333:366|333:366|340:373|340:373|424:378,1,149.500002851486,6|10,3:2|0:2,0:0:0:0:
494,318,167303,2,0,P|510:277|500:247,1,74.7500014257431,2|0,0:0|1:2,0:0:0:0:
428,183,167613,2,0,P|417:144|441:109,1,74.7500014257431,2|8,0:0|0:2,0:0:0:0:
379,27,167922,6,0,B|353:0|353:0|238:29,1,149.500002851486,2|2,0:0|0:0,0:0:0:0:
168,98,168386,1,10,0:2:0:0:
80,53,168540,1,2,0:0:0:0:
15,129,168695,2,0,B|28:199|28:199|19:209|19:209|34:279,1,149.500002851486,2|10,1:2|0:2,0:0:0:0:
18,370,169159,1,2,0:0:0:0:
116,375,169314,6,0,P|165:379|186:286,1,149.500002851486,2|10,3:2|0:2,0:0:0:0:
126,226,169777,2,0,P|114:189|140:156,1,74.7500014257431,2|0,0:0|1:2,0:0:0:0:
115,60,170087,2,0,P|152:40|194:58,1,74.7500014257431,2|8,0:0|0:2,0:0:0:0:
279,5,170396,6,0,P|329:29|310:113,1,149.500002851486,2|2,0:0|0:0,0:0:0:0:
233,173,170860,2,0,L|234:210,3,37.3750007128716,10|2|2|2,0:2|0:0|0:0|0:0,0:0:0:0:
249,226,171169,2,0,L|254:302,1,74.7500014257431,2|2,1:2|0:0,0:0:0:0:
325,373,171478,2,0,P|372:365|397:331,1,74.7500014257431,10|2,0:2|0:0,0:0:0:0:
477,289,171788,6,0,B|508:244|508:244|491:142,1,149.500002851486,6|10,3:2|0:2,0:0:0:0:
437,67,172252,2,0,P|389:39|359:57,1,74.7500014257431,2|0,0:0|1:2,0:0:0:0:
304,115,172561,2,0,P|263:134|226:118,1,74.7500014257431,2|8,0:0|0:2,0:0:0:0:
181,46,172870,6,0,B|156:16|156:16|52:57,1,149.500002851486,2|2,0:0|0:0,0:0:0:0:
1,142,173334,2,0,P|-5:180|16:219,1,74.7500014257431,10|2,0:2|0:0,0:0:0:0:
98,268,173643,2,0,P|107:302|84:345,1,74.7500014257431,2|0,3:2|0:0,0:0:0:0:
5,375,173953,1,10,3:2:0:0:
177,327,174262,5,10,3:2:0:0:
190,332,174339,1,10,0:2:0:0:
201,336,174417,1,2,1:2:0:0:
289,382,174571,2,0,P|325:366|334:331,1,74.7500014257431,10|2,0:2|1:2,0:0:0:0:
281,255,174881,2,0,P|248:217|259:189,1,74.7500014257431,8|8,0:2|0:2,0:0:0:0:
209,108,175190,2,0,B|237:83|237:83|317:103,1,112.125002138615,10|2,0:2|0:0,0:0:0:0:
334,136,175499,6,0,L|419:124,1,74.7500014257431,10|10,3:2|0:2,0:0:0:0:
507,176,175808,2,0,L|495:212,3,37.3750007128716,10|10|10|2,0:2|0:2|0:2|1:2,0:0:0:0:
483,230,176118,2,0,L|461:311,1,74.7500014257431,2|10,1:2|0:2,0:0:0:0:
389,371,176427,2,0,P|345:373|310:345,1,74.7500014257431,10|10,0:2|0:2,0:0:0:0:
257,287,176736,6,0,P|221:260|138:320,1,149.500002851486,6|2,1:2|1:2,0:0:0:0:
65,371,177200,1,10,0:2:0:0:
0,294,177355,2,0,L|2:251,3,37.3750007128716,2|2|10|2,1:2|0:0|0:2|0:0,0:0:0:0:
31,224,177664,2,0,L|29:181,3,37.3750007128716,2|2|10|2,1:2|0:0|0:2|0:0,0:0:0:0:
48,140,177973,6,0,B|77:106|77:106|180:142,1,149.500002851486,2|2,1:2|1:2,0:0:0:0:
228,224,178437,2,0,B|258:253|258:253|375:222,1,149.500002851486,10|10,0:2|0:2,0:0:0:0:
443,166,178901,2,0,B|465:126|465:126|443:94,1,74.7500014257431,2|10,1:2|0:2,0:0:0:0:
377,33,179210,6,0,B|332:35|332:35|313:66,1,74.7500014257431,2|10,1:2|0:2,0:0:0:0:
246,128,179520,2,0,L|195:120,3,37.3750007128716,2|2|10|2,1:2|0:0|0:2|0:0,0:0:0:0:
180,100,179829,2,0,L|129:108,3,37.3750007128716,2|0|10|2,1:2|0:0|0:2|0:0,0:0:0:0:
101,129,180138,2,0,P|68:175|130:229,1,149.500002851486,2|2,1:2|1:2,0:0:0:0:
200,299,180602,5,10,0:2:0:0:
275,240,180757,1,2,1:2:0:0:
356,297,180911,1,10,0:2:0:0:
440,244,181066,2,0,P|452:208|436:170,1,74.7500014257431,10|2,0:2|1:2,0:0:0:0:
357,87,181375,1,10,0:2:0:0:
356,77,181452,1,10,0:2:0:0:
356,68,181529,1,10,0:2:0:0:
356,58,181606,1,10,0:2:0:0:
356,49,181685,6,0,P|320:28|274:37,1,74.7500014257431,6|10,1:2|0:2,0:0:0:0:
219,104,181994,2,0,P|168:124|132:100,1,74.7500014257431,2|8,1:2|0:2,0:0:0:0:
54,120,182303,2,0,L|46:197,1,74.7500014257431,0|10,1:2|0:2,0:0:0:0:
12,285,182613,2,0,L|30:372,1,74.7500014257431,2|8,1:2|0:2,0:0:0:0:
122,384,182922,6,0,P|161:378|182:346,1,74.7500014257431,2|10,1:2|0:2,0:0:0:0:
224,265,183231,2,0,P|273:255|304:274,1,74.7500014257431,2|10,1:2|0:2,0:0:0:0:
348,343,183540,2,0,P|389:358|423:347,1,74.7500014257431,2|10,1:2|0:2,0:0:0:0:
474,271,183850,2,0,L|489:191,1,74.7500014257431,2|10,1:2|0:2,0:0:0:0:
512,104,184159,6,0,L|501:26,1,74.7500014257431,2|10,1:2|0:2,0:0:0:0:
407,6,184468,2,0,L|358:-2,3,37.3750007128716,0|0|8|2,1:2|0:0|0:2|0:0,0:0:0:0:
340,19,184777,2,0,L|295:27,3,37.3750007128716,2|2|10|2,1:2|0:0|0:2|0:0,0:0:0:0:
280,64,185087,2,0,L|202:52,1,74.7500014257431,2|8,1:2|0:2,0:0:0:0:
124,0,185396,6,0,P|108:39|110:47,4,37.3750007128716,10|10|10|10|2,0:2|0:2|0:2|0:2|1:2,0:0:0:0:
66,99,185860,2,0,P|82:138|80:146,4,37.3750007128716,10|2|10|0|0,0:2|0:0|0:2|0:0|1:2,0:0:0:0:
164,186,186324,2,0,P|150:221|168:256,1,74.7500014257431,10|2,0:2|0:0,0:0:0:0:
245,316,186618,6,0,L|235:366,3,37.3750007128716,6|0|2|0,1:2|0:0|1:2|0:0,0:0:0:0:
189,371,186927,2,0,P|150:377|114:358,1,74.7500014257431,10|2,0:2|1:2,0:0:0:0:
20,357,187236,2,0,L|9:283,1,74.7500014257431,10|2,0:2|1:2,0:0:0:0:
49,196,187545,2,0,L|56:113,1,74.7500014257431,10|2,0:2|0:2,0:0:0:0:
111,37,187855,6,0,L|158:28,3,37.3750007128716,10|2|2|2,0:2|0:0|1:2|0:0,0:0:0:0:
176,51,188164,2,0,L|223:60,3,37.3750007128716,10|2|2|2,0:2|0:0|1:2|0:0,0:0:0:0:
250,31,188473,2,0,L|338:19,1,74.7500014257431,10|2,0:2|1:2,0:0:0:0:
418,57,188782,2,0,P|439:96|424:135,1,74.7500014257431,10|2,0:2|1:2,0:0:0:0:
363,195,189092,6,0,P|343:228|364:278,1,74.7500014257431,10|2,0:2|1:2,0:0:0:0:
314,358,189401,2,0,L|228:367,1,74.7500014257431,10|2,0:2|1:2,0:0:0:0:
154,318,189710,2,0,L|75:308,1,74.7500014257431,10|2,0:2|1:2,0:0:0:0:
5,238,190020,2,0,P|1:192|30:165,1,74.7500014257431,10|10,0:2|0:2,0:0:0:0:
52,75,190329,6,0,L|99:82,3,37.3750007128716,2|10|10|10,1:2|0:2|0:2|0:2,0:0:0:0:
113,97,190638,2,0,L|160:90,3,37.3750007128716,10|2|2|2,0:2|0:0|1:2|0:0,0:0:0:0:
177,58,190947,2,0,L|260:68,1,74.7500014257431,2|2,1:2|1:2,0:0:0:0:
330,6,191257,2,0,L|411:0,1,74.7500014257431,2|2,1:2|1:2,0:0:0:0:
486,78,191566,6,0,L|337:91,2,149.500002851486,14|2|10,0:2|0:2|0:2,0:0:0:0:
431,170,192339,1,2,1:2:0:0:
495,247,192494,2,0,B|507:282|507:282|474:318,1,74.7500014257431,2|2,0:2|1:2,0:0:0:0:
396,371,192803,6,0,L|317:364,1,74.7500014257431,10|2,0:2|1:2,0:0:0:0:
241,303,193112,2,0,L|162:310,1,74.7500014257431,8|2,0:2|1:2,0:0:0:0:
88,369,193422,1,10,0:2:0:0:
24,293,193576,1,2,1:2:0:0:
86,218,193731,2,0,L|76:175,3,37.3750007128716,10|2|2|2,0:2|0:0|1:2|0:0,0:0:0:0:
52,142,194040,6,0,L|62:99,3,37.3750007128716,10|2|2|2,0:2|0:0|1:2|0:0,0:0:0:0:
94,69,194349,2,0,L|86:31,3,37.3750007128716,10|2|2|2,0:2|0:0|1:2|0:0,0:0:0:0:
120,0,194659,2,0,L|210:8,1,74.7500014257431,10|2,0:2|1:2,0:0:0:0:
274,71,194968,2,0,L|348:53,1,74.7500014257431,10|0,0:2|1:2,0:0:0:0:
445,83,195277,6,0,L|446:128,3,37.3750007128716,8|8|8|8,0:2|0:2|0:2|0:2,0:0:0:0:
459,130,195587,2,0,L|448:170,3,37.3750007128716,8|8|2|2,0:2|0:2|1:2|0:0,0:0:0:0:
428,181,195896,2,0,L|435:258,1,74.7500014257431,2|10,1:2|0:2,0:0:0:0:
385,341,196205,2,0,P|338:353|321:347,3,37.3750007128716,10|2|2|2,0:2|0:0|1:2|0:0,0:0:0:0:
312,354,196514,5,6,1:2:0:0:
461,20,198989,6,0,L|454:64,3,32.5,10|8|2|0,0:2|0:2|1:2|1:2,0:0:0:0:
428,84,199298,2,0,L|435:128,3,32.5,2|0|0|2,1:2|1:2|1:2|1:2,0:0:0:0:
465,150,199607,2,0,L|454:217,1,65,2|2,1:2|1:2,0:0:0:0:
495,283,199916,1,14,0:2:0:0:
401,375,200226,5,6,1:2:0:0:
10,367,201463,6,0,L|-3:321,3,32.5,10|8|10|8,0:2|0:2|0:2|0:2,0:0:0:0:
19,301,201772,2,0,L|32:255,3,32.5,10|8|0|2,0:2|0:2|1:2|0:0,0:0:0:0:
8,233,202081,2,0,L|-5:187,3,32.5,10|8|10|8,0:2|0:2|0:2|0:2,0:0:0:0:
22,175,202391,2,0,L|35:129,3,32.5,2|0|8|10,1:2|0:0|0:2|0:2,0:0:0:0:
12,98,202700,6,0,L|89:88,1,65,2|10,1:2|0:2,0:0:0:0:
137,37,203009,2,0,L|206:52,1,65,10|2,0:2|1:2,0:0:0:0:
248,113,203319,2,0,L|325:101,1,65,10|10,0:2|0:2,0:0:0:0:
366,45,203628,1,0,1:2:0:0:
512,12,203937,6,0,L|505:51,3,32.5,10|8|2|0,0:2|0:2|1:2|1:2,0:0:0:0:
483,63,204246,2,0,L|490:102,3,32.5,2|0|0|2,1:2|1:2|1:2|1:2,0:0:0:0:
501,126,204556,2,0,L|494:165,3,32.5,2|0|2|0,1:2|1:2|1:2|1:2,0:0:0:0:
477,189,204865,5,14,0:2:0:0:
424,313,205174,6,0,L|352:302,1,65,6|2,1:2|0:0,0:0:0:0:
301,252,205483,2,0,L|230:264,1,65,10|0,0:2|0:0,0:0:0:0:
177,313,205793,1,2,1:2:0:0:
177,313,205947,1,2,0:0:0:0:
102,269,206102,2,0,L|89:194,1,65,10|2,0:2|0:0,0:0:0:0:
129,133,206411,6,0,B|165:137|190:120|184:99|208:84|263:88,1,130,6|0,1:2|0:0,0:0:0:0:
