osu file format v14

[General]
AudioFilename: audio.mp3
AudioLeadIn: 0
PreviewTime: 127224
Countdown: 0
SampleSet: Soft
StackLeniency: 0.4
Mode: 0
LetterboxInBreaks: 0
WidescreenStoryboard: 1

[Editor]
Bookmarks: 97540,102488,131870,198968,201442,204844,206700
DistanceSpacing: 1
BeatDivisor: 2
GridSize: 4
TimelineZoom: 1.8

[Metadata]
Title:Amanita
TitleUnicode:Amanita
Artist:Marmalade butcher
ArtistUnicode:Marmalade butcher
Creator:Camo
Version:Normal
Source:
Tags:mao zelq deviouspanda asaben asa olsonn megafan paradogi nullum sonum ヌルムソヌム instrumental math rock fa featured artist o!wc owc owc2020 finals hd1
BeatmapID:3101078
BeatmapSetID:1473778

[Difficulty]
HPDrainRate:4
CircleSize:3.2
OverallDifficulty:5
ApproachRate:6
SliderMultiplier:1.1
SliderTickRate:1

[Events]
//Background and Video events
0,0,"84719437_p0.jpg",0,0
//Break Periods
2,97761,101459
//Storyboard Layer 0 (Background)
//Storyboard Layer 1 (Fail)
//Storyboard Layer 2 (Pass)
//Storyboard Layer 3 (Foreground)
//Storyboard Layer 4 (Overlay)
//Storyboard Sound Samples

[TimingPoints]
1384,309.278350515464,4,2,1,60,1,0
12518,309.278350515464,7,2,1,60,1,0
12749,-100,7,2,1,5,0,0
12827,-100,7,2,1,60,0,0
14605,-100,7,2,1,5,0,0
14682,-100,7,2,1,60,0,0
14914,-100,7,2,1,5,0,0
14992,-100,7,2,1,60,0,0
16847,309.278350515464,6,2,1,60,1,0
17078,-100,6,2,1,5,0,0
17156,-100,6,2,1,60,0,0
18702,309.278350515464,7,2,1,60,1,0
18933,-100,7,2,1,5,0,0
19011,-100,7,2,1,60,0,0
20866,309.278350515464,4,2,1,50,1,0
23340,309.278350515464,6,2,1,50,1,0
25195,309.278350515464,4,2,1,50,1,0
27669,309.278350515464,6,2,1,50,1,0
29524,309.278350515464,4,2,1,50,1,0
31920,-100,4,2,1,5,0,0
31998,309.278350515464,6,2,1,50,1,0
33775,-100,6,2,1,5,0,0
33853,309.278350515464,4,2,1,50,1,0
40889,-100,4,2,1,5,0,0
40966,-100,4,2,1,50,0,0
41198,-100,4,2,1,5,0,0
41275,-100,4,2,1,50,0,0
45837,-100,4,2,1,5,0,0
45914,-100,4,2,1,50,0,0
46146,-100,4,2,1,5,0,0
46224,-100,4,2,1,50,0,0
48698,-100,4,2,1,80,0,1
68492,-100,4,2,1,70,0,0
71662,-100,4,2,1,5,0,0
71739,-100,4,2,1,70,0,0
72435,-100,4,2,1,5,0,0
72512,-100,4,2,1,70,0,0
74909,-100,4,2,1,5,0,0
74987,-100,4,2,1,70,0,0
76610,-100,4,2,1,5,0,0
76688,-100,4,2,1,70,0,0
77383,-100,4,2,1,5,0,0
77461,-100,4,2,1,70,0,0
79626,-100,4,2,1,50,0,0
82023,-100,4,2,1,5,0,0
82100,-100,4,2,1,50,0,0
83955,309.278350515464,4,2,1,50,1,0
87666,-100,4,2,1,70,0,0
88284,309.278350515464,4,2,1,70,1,0
92613,309.278350515464,4,2,1,70,1,0
107458,-100,4,2,2,85,0,0
127252,-100,4,2,1,70,0,0
132123,-100,4,2,1,5,0,0
132200,-100,4,2,1,70,0,0
137149,-100,4,2,1,60,0,0
142329,-100,4,2,1,5,0,0
142406,-100,4,2,1,60,0,0
143875,-100,4,2,1,5,0,0
143953,-100,4,2,1,60,0,0
147045,-100,4,2,1,90,0,0
151994,-100,4,2,1,90,0,1
166839,-100,4,2,1,95,0,1
176736,-100,4,2,2,95,0,0
186618,309.278350515464,4,2,2,95,1,1
196514,-100,4,2,1,75,0,0
206721,-100,4,2,1,5,0,0

[Colours]
Combo1 : 255,128,128
Combo2 : 245,162,99
Combo3 : 198,147,253
Combo4 : 0,115,230

[HitObjects]
486,116,1384,6,0,L|369:130,1,110,10|10,0:2|0:2,0:0:0:0:
328,155,1847,1,10,0:2:0:0:
282,124,2002,2,0,L|153:105,1,110,10|10,0:2|0:2,0:0:0:0:
72,62,2621,6,0,L|56:4,2,55,6|2|10,1:2|0:0|0:2,0:0:0:0:
79,120,3085,1,2,1:2:0:0:
79,120,3239,2,0,L|56:229,1,110,2|2,1:2|1:2,0:0:0:0:
80,335,3858,2,0,L|152:322,1,55,2|2,1:2|1:2,0:0:0:0:
183,300,4167,1,10,0:2:0:0:
281,360,4476,1,2,1:2:0:0:
281,360,4631,2,0,L|294:289,2,55,2|10|2,1:2|0:2|0:0,0:0:0:0:
333,376,5095,6,0,L|447:359,1,110,6|10,1:2|0:2,0:0:0:0:
480,320,5559,1,2,1:2:0:0:
497,268,5713,2,0,L|482:157,1,110,10|2,0:2|1:2,0:0:0:0:
372,152,6332,2,0,L|315:137,1,55,2|2,1:2|1:2,0:0:0:0:
264,145,6641,1,10,0:2:0:0:
263,258,6951,2,0,P|228:264|199:281,1,55,10|10,0:2|0:2,0:0:0:0:
176,314,7260,2,0,P|132:304|112:292,1,55,10|10,0:2|0:2,0:0:0:0:
74,274,7569,6,0,P|67:226|52:157,1,110,6|10,1:2|0:2,0:0:0:0:
21,121,8033,1,2,1:2:0:0:
51,75,8188,2,0,L|118:61,1,55,2|0,1:2|1:2,0:0:0:0:
159,68,8497,1,2,1:2:0:0:
268,59,8806,2,0,P|285:16|300:1,2,55,2|2|10,1:2|1:2|0:2,0:0:0:0:
284,111,9270,1,2,1:2:0:0:
313,157,9425,2,0,L|432:142,1,110,2|10,1:2|0:2,0:0:0:0:
459,246,10043,5,4,1:2:0:0:
459,246,10198,2,0,L|390:257,1,55,2|10,0:0|0:2,0:0:0:0:
373,300,10507,2,0,L|311:290,1,55,2|10,1:2|0:2,0:0:0:0:
235,363,10971,1,2,1:2:0:0:
235,363,11126,1,14,0:2:0:0:
428,168,11899,6,0,L|441:105,1,55,8|8,0:2|0:2,0:0:0:0:
397,77,12208,2,0,L|384:14,1,55,8|8,0:2|0:2,0:0:0:0:
333,4,12518,5,6,1:2:0:0:
260,86,12827,2,0,P|273:133|287:203,1,110,10|2,0:2|1:2,0:0:0:0:
315,239,13291,1,2,0:0:0:0:
348,281,13445,2,0,P|418:270|470:258,1,110,10|2,0:2|1:2,0:0:0:0:
459,371,14064,2,0,P|423:365|386:359,1,55,10|2,0:2|0:0,0:0:0:0:
352,378,14373,1,14,0:2:0:0:
244,355,14682,5,6,1:2:0:0:
147,301,14992,2,0,P|165:248|181:184,1,110,10|2,0:2|1:2,0:0:0:0:
166,141,15456,1,2,0:0:0:0:
190,92,15610,2,0,L|298:65,1,110,10|2,0:2|1:2,0:0:0:0:
399,105,16229,2,0,P|408:71|425:36,1,55,10|2,0:2|1:2,0:0:0:0:
458,18,16538,1,10,0:2:0:0:
500,119,16847,5,6,1:2:0:0:
439,210,17156,2,0,P|387:193|314:173,1,110,10|2,0:2|1:2,0:0:0:0:
289,211,17620,1,2,1:2:0:0:
245,244,17774,2,0,P|196:231|135:207,1,110,10|2,0:2|1:2,0:0:0:0:
97,108,18393,2,0,L|89:50,1,55,10|10,0:2|0:2,0:0:0:0:
125,11,18702,5,6,1:2:0:0:
213,76,19011,2,0,P|271:86|336:108,1,110,10|2,0:2|1:2,0:0:0:0:
351,146,19475,1,2,1:2:0:0:
388,186,19629,2,0,P|424:183|457:157,1,55,10|2,0:2|0:0,0:0:0:0:
472,128,19939,5,10,0:2:0:0:
496,235,20248,1,10,0:2:0:0:
471,342,20557,1,10,0:2:0:0:
363,363,20866,6,0,P|326:345|253:326,1,110,6|8,1:2|0:2,0:0:0:0:
226,283,21329,2,0,P|241:252|260:213,2,55,2|2|0,1:2|0:0|1:2,0:0:0:0:
152,364,21948,1,2,1:2:0:0:
152,364,22103,1,2,1:2:0:0:
15,280,22567,1,2,1:2:0:0:
15,280,22721,2,0,P|31:237|67:172,1,110,2|10,1:2|0:2,0:0:0:0:
157,126,23340,6,0,L|271:106,1,110,2|8,1:2|0:2,0:0:0:0:
300,148,23803,2,0,L|363:161,2,55,2|2|0,1:2|0:0|1:2,0:0:0:0:
357,55,24422,1,2,1:2:0:0:
357,55,24577,1,2,1:2:0:0:
450,112,24886,1,10,0:2:0:0:
460,221,25195,6,0,P|400:234|313:280,1,110,6|8,1:2|0:2,0:0:0:0:
331,302,25658,2,0,P|336:333|354:359,2,55,2|2|0,1:2|0:0|1:2,0:0:0:0:
247,229,26277,1,2,0:0:0:0:
247,229,26432,1,2,1:2:0:0:
315,142,26741,2,0,B|340:152|340:152|441:124,2,110,10|2|10,0:2|1:2|0:2,0:0:0:0:
245,56,27669,6,0,L|128:34,1,110,2|8,1:2|0:2,0:0:0:0:
86,14,28132,2,0,L|6:37,2,55,2|2|0,1:2|0:0|1:2,0:0:0:0:
83,124,28751,1,2,1:2:0:0:
83,124,28906,2,0,P|146:139|203:158,1,110,2|10,1:2|0:2,0:0:0:0:
286,202,29524,6,0,P|355:188|424:162,1,110,6|8,1:2|0:2,0:0:0:0:
434,140,29987,2,0,L|446:80,2,55,2|2|0,1:2|0:0|1:2,0:0:0:0:
489,235,30606,1,2,1:2:0:0:
489,235,30761,2,0,P|471:295|465:357,1,110,2|8,1:2|0:2,0:0:0:0:
415,364,31225,2,0,P|385:357|354:353,1,55,2|2,1:2|0:0,0:0:0:0:
255,382,31688,1,10,0:2:0:0:
276,273,31998,6,0,P|297:214|352:216,1,110,2|8,0:0|0:2,0:0:0:0:
383,239,32461,2,0,P|405:250|437:249,2,55,2|2|0,1:2|1:2|1:2,0:0:0:0:
435,141,33080,1,2,1:2:0:0:
435,141,33235,2,0,P|423:78|389:24,1,110,2|10,1:2|0:2,0:0:0:0:
306,94,33853,6,0,P|239:81|159:49,1,110,6|8,1:2|0:2,0:0:0:0:
155,34,34316,2,0,P|127:19|99:12,2,55,2|2|0,1:2|0:0|1:2,0:0:0:0:
103,131,34935,1,2,1:2:0:0:
103,131,35090,2,0,P|114:199|128:268,2,110,2|10|2,1:2|0:2|1:2,0:0:0:0:
207,165,36017,1,10,0:2:0:0:
311,199,36327,6,0,P|376:172|443:151,1,110,2|8,0:0|1:2,0:0:0:0:
460,131,36791,2,0,L|475:64,2,55,2|2|0,1:2|0:0|1:2,0:0:0:0:
474,244,37409,1,2,1:2:0:0:
474,244,37564,2,0,L|482:298,1,55,6|0,1:2|0:0,0:0:0:0:
467,351,37873,1,10,0:2:0:0:
360,325,38182,2,0,L|286:309,1,55,10|8,0:2|0:2,0:0:0:0:
261,346,38492,1,8,0:2:0:0:
229,240,38801,6,0,P|223:200|212:147,1,55,6|2,1:2|0:0,0:0:0:0:
258,146,39110,2,0,P|264:106|275:53,1,55,10|2,0:2|1:2,0:0:0:0:
302,49,39420,1,2,1:2:0:0:
410,68,39729,2,0,L|417:13,2,55,10|2|0,0:2|0:0|1:2,0:0:0:0:
434,117,40193,1,2,0:0:0:0:
434,117,40347,2,0,L|444:197,1,55,10|10,0:2|0:2,0:0:0:0:
470,218,40657,1,10,0:2:0:0:
297,361,41275,6,0,P|268:355|239:342,1,55,6|2,1:2|0:0,0:0:0:0:
219,295,41584,2,0,P|190:301|161:314,1,55,10|2,0:2|1:2,0:0:0:0:
133,355,41894,1,2,1:2:0:0:
59,273,42203,2,0,P|22:262|-6:258,2,55,10|2|0,0:2|0:0|1:2,0:0:0:0:
107,244,42667,1,2,0:0:0:0:
107,244,42822,2,0,P|149:231|171:217,1,55,10|2,0:2|1:2,0:0:0:0:
195,185,43131,1,2,1:2:0:0:
232,81,43440,1,2,1:2:0:0:
332,35,43749,6,0,L|397:25,1,55,6|2,1:2|0:0,0:0:0:0:
423,68,44059,2,0,L|488:78,1,55,10|2,0:2|1:2,0:0:0:0:
509,115,44368,1,2,1:2:0:0:
487,222,44677,2,0,P|497:250|501:280,2,55,10|2|8,0:2|1:2|0:2,0:0:0:0:
441,191,45141,1,2,0:0:0:0:
390,212,45296,2,0,L|271:191,1,110,10|2,0:2|1:2,0:0:0:0:
135,28,46224,6,0,P|151:85|167:170,1,110,6|10,1:2|0:2,0:0:0:0:
141,185,46688,1,2,1:2:0:0:
113,232,46842,2,0,P|150:276|205:291,1,110,10|2,0:2|1:2,0:0:0:0:
295,344,47461,2,0,P|325:328|357:319,1,55,2|2,1:2|0:0,0:0:0:0:
391,351,47770,2,0,P|421:367|453:376,1,55,2|2,0:0|0:0,0:0:0:0:
491,351,48079,1,2,0:0:0:0:
509,242,48389,1,8,0:2:0:0:
460,143,48698,6,0,L|513:117,2,55,6|2|10,3:2|0:0|0:2,0:0:0:0:
417,178,49162,2,0,L|291:143,1,110,2|2,0:2|0:2,0:0:0:0:
267,182,49626,1,10,0:2:0:0:
199,95,49935,2,0,P|121:95|76:63,1,110,2|10,3:2|0:2,0:0:0:0:
16,157,50554,1,2,1:2:0:0:
106,219,50863,1,10,0:2:0:0:
192,281,51172,6,0,L|324:265,1,110,2|8,3:2|0:2,0:0:0:0:
344,301,51636,1,0,0:0:0:0:
386,336,51791,2,0,P|453:316|457:265,1,110,2|10,1:2|0:2,0:0:0:0:
457,173,52409,6,0,L|392:153,1,55,2|2,3:2|0:0,0:0:0:0:
366,116,52718,2,0,L|301:136,1,55,10|2,0:0|0:2,0:0:0:0:
271,168,53028,1,2,3:2:0:0:
233,64,53337,1,10,0:2:0:0:
129,69,53646,6,0,L|107:213,1,110,6|8,3:2|0:2,0:0:0:0:
155,271,54265,2,0,L|234:261,1,55,2|0,1:2|0:0,0:0:0:0:
259,287,54574,1,10,0:2:0:0:
335,366,54883,2,0,P|343:311|352:257,1,110,6|8,3:2|0:2,0:0:0:0:
429,180,55502,2,0,L|420:118,1,55,2|0,1:2|0:0,0:0:0:0:
451,79,55811,1,10,0:2:0:0:
359,17,56121,6,0,P|289:43|216:74,1,110,6|8,3:2|0:2,0:0:0:0:
236,159,56739,2,0,P|244:186|262:223,1,55,6|0,3:2|0:0,0:0:0:0:
300,241,57048,1,8,0:2:0:0:
229,326,57358,5,10,3:2:0:0:
229,326,57512,2,0,L|101:306,1,110,2|2,1:2|0:0,0:0:0:0:
67,325,57976,1,0,1:2:0:0:
10,230,58285,2,0,L|23:164,1,55,10|2,0:2|0:0,0:0:0:0:
62,139,58595,6,0,L|126:132,1,55,6|2,3:2|0:0,0:0:0:0:
167,153,58904,1,10,0:2:0:0:
204,193,59059,2,0,L|332:173,1,110,2|2,0:0|0:0,0:0:0:0:
421,189,59677,2,0,L|441:303,1,110,2|2,0:0|0:0,0:0:0:0:
447,351,60141,1,10,0:2:0:0:
402,383,60296,2,0,L|330:369,1,55,2|2,0:0|1:2,0:0:0:0:
237,375,60760,1,10,1:2:0:0:
176,283,61069,6,0,P|171:253|163:223,1,55,2|2,3:2|0:0,0:0:0:0:
134,183,61378,1,10,0:2:0:0:
95,143,61533,2,0,P|153:126|220:83,1,110,2|2,0:0|0:0,0:0:0:0:
301,63,62151,1,2,0:0:0:0:
301,63,62306,2,0,P|290:123|281:191,1,110,2|10,1:2|0:2,0:0:0:0:
343,260,62925,2,0,L|407:245,2,55,2|2|10,1:2|1:2|0:2,0:0:0:0:
302,362,63543,6,0,L|386:377,1,55,6|2,3:2|0:0,0:0:0:0:
411,369,63853,1,10,0:2:0:0:
463,347,64007,2,0,L|486:215,1,110,2|2,0:0|0:0,0:0:0:0:
472,128,64626,2,0,P|416:105|367:63,1,110,2|2,0:0|0:0,0:0:0:0:
360,22,65090,2,0,P|328:9|297:5,1,55,10|2,0:2|0:0,0:0:0:0:
260,32,65399,1,2,3:2:0:0:
155,64,65708,1,10,3:2:0:0:
49,31,66017,6,0,P|63:94|76:173,1,110,2|8,0:2|0:2,0:0:0:0:
142,220,66636,2,0,P|181:210|231:202,1,55,0|0,1:2|0:0,0:0:0:0:
248,221,66945,1,10,0:2:0:0:
344,167,67255,2,0,L|337:105,2,55,14|2|10,0:2|1:2|0:2,0:0:0:0:
357,219,67718,1,10,1:2:0:0:
374,270,67873,2,0,L|506:246,1,110,2|10,1:2|0:2,0:0:0:0:
445,354,68492,5,2,1:2:0:0:
337,375,68801,2,0,L|260:364,1,55,2|2,0:0|0:0,0:0:0:0:
237,335,69110,1,2,0:0:0:0:
250,225,69420,2,0,L|262:150,1,55,6|2,0:0|0:0,0:0:0:0:
285,122,69729,5,6,1:2:0:0:
368,50,70038,1,10,0:2:0:0:
368,50,70193,2,0,P|383:91|395:112,1,55,2|0,1:2|1:2,0:0:0:0:
418,147,70502,1,2,1:2:0:0:
508,209,70811,1,2,1:2:0:0:
461,308,71121,1,2,1:2:0:0:
368,248,71430,2,0,L|232:268,1,110,2|2,1:2|1:2,0:0:0:0:
213,295,71894,1,10,0:2:0:0:
132,370,72203,5,6,1:2:0:0:
26,339,72512,1,10,0:2:0:0:
26,339,72667,2,0,P|20:298|14:276,1,55,2|8,1:2|0:2,0:0:0:0:
37,233,72976,1,2,1:2:0:0:
103,145,73285,1,10,0:2:0:0:
50,48,73595,1,2,1:2:0:0:
154,12,73904,2,0,L|297:33,1,110,2|10,0:0|0:2,0:0:0:0:
307,60,74368,2,0,L|388:47,1,55,10|10,0:2|0:2,0:0:0:0:
413,67,74677,5,6,1:2:0:0:
497,137,74987,1,10,0:2:0:0:
497,137,75141,2,0,P|463:146|437:162,1,55,2|0,1:2|1:2,0:0:0:0:
424,206,75450,1,2,1:2:0:0:
315,184,75760,1,2,1:2:0:0:
331,292,76069,1,2,1:2:0:0:
228,252,76378,2,0,P|143:269|87:286,1,110,2|2,1:2|1:2,0:0:0:0:
78,239,76842,2,0,P|46:229|22:220,1,55,10|2,0:2|0:0,0:0:0:0:
10,168,77151,5,6,1:2:0:0:
78,81,77461,1,10,0:2:0:0:
78,81,77615,2,0,P|111:69|148:61,1,55,2|8,1:2|0:2,0:0:0:0:
178,93,77925,1,2,0:0:0:0:
272,37,78234,1,10,0:2:0:0:
274,146,78543,5,2,1:2:0:0:
274,146,78698,2,0,L|293:265,2,110,10|2|10,0:2|1:2|0:2,0:0:0:0:
368,89,79626,1,6,1:2:0:0:
256,192,79780,12,2,82100,0:0:0:0:
458,45,83337,5,2,0:0:0:0:
435,152,83646,1,2,0:0:0:0:
352,79,83955,2,0,P|272:54|132:20,1,220,6|2,1:2|0:0,0:0:0:0:
40,69,84882,2,0,P|53:95|62:127,1,55,8|2,0:2|0:0,0:0:0:0:
52,174,85192,5,2,1:2:0:0:
77,280,85501,2,0,P|131:261|212:239,2,110,10|2|10,0:2|0:0|0:2,0:0:0:0:
170,339,86429,6,0,P|265:358|375:381,1,165,2|2,1:2|0:0,0:0:0:0:
384,355,87047,2,0,L|456:340,1,55,2|0,0:0|0:0,0:0:0:0:
503,255,87511,1,2,0:0:0:0:
503,255,87666,2,0,L|491:180,1,55,10|0,0:2|1:2,0:0:0:0:
452,165,87975,1,10,0:2:0:0:
441,58,88284,6,0,P|382:66|300:90,1,110,6|10,1:2|0:2,0:0:0:0:
294,117,88747,1,2,1:2:0:0:
255,156,88902,1,2,1:2:0:0:
124,64,89366,1,2,0:0:0:0:
124,64,89521,2,0,P|65:80|42:148,1,110,2|10,1:2|0:2,0:0:0:0:
48,174,89985,2,0,L|60:241,1,55,2|2,1:2|1:2,0:0:0:0:
81,335,90448,1,10,0:2:0:0:
167,266,90758,6,0,P|234:246|318:232,1,110,2|10,1:2|0:2,0:0:0:0:
327,247,91222,1,2,1:2:0:0:
369,280,91376,1,2,1:2:0:0:
455,143,91840,1,2,1:2:0:0:
455,143,91995,2,0,L|376:126,1,55,2|0,1:2|0:0,0:0:0:0:
360,93,92304,1,10,0:2:0:0:
257,54,92613,6,0,P|178:41|108:21,1,110,6|10,1:2|0:2,0:0:0:0:
97,16,93076,1,2,1:2:0:0:
43,2,93231,1,2,1:2:0:0:
99,162,93695,1,2,1:2:0:0:
99,162,93850,2,0,P|123:168|166:171,1,55,2|2,1:2|0:0,0:0:0:0:
204,151,94159,2,0,P|264:137|345:127,2,110,10|2|10,0:2|1:2|0:2,0:0:0:0:
190,258,95087,6,0,P|248:275|308:295,1,110,2|10,1:2|0:2,0:0:0:0:
336,326,95551,1,2,1:2:0:0:
383,353,95705,1,2,1:2:0:0:
505,251,96169,1,2,0:0:0:0:
505,251,96324,2,0,P|485:212|484:192,1,55,2|0,1:2|0:0,0:0:0:0:
504,150,96633,1,10,0:2:0:0:
440,66,96942,2,0,L|294:36,1,110,10|8,0:2|0:2,0:0:0:0:
222,57,97561,1,6,1:2:0:0:
72,343,102509,6,0,P|60:312|44:283,2,55,6|2|10,1:2|0:0|0:2,0:0:0:0:
178,369,103128,1,2,1:2:0:0:
178,369,103283,2,0,P|184:339|216:268,1,55,2|10,1:2|0:2,0:0:0:0:
271,244,103747,2,0,L|405:265,1,110,2|10,1:2|0:2,0:0:0:0:
479,215,104365,2,0,P|490:236|502:273,2,55,2|2|10,1:2|1:2|0:2,0:0:0:0:
445,109,104984,6,0,P|371:94|298:72,1,110,2|10,1:2|0:2,0:0:0:0:
243,31,105602,2,0,L|176:46,1,55,2|2,1:2|1:2,0:0:0:0:
145,76,105911,1,10,0:2:0:0:
35,85,106221,2,0,P|51:144|63:221,1,110,2|10,1:2|0:2,0:0:0:0:
110,289,106839,2,0,P|141:276|175:267,2,55,2|2|2,1:2|0:0|0:0,0:0:0:0:
199,353,107458,6,0,P|276:343|342:339,1,110,6|10,1:2|0:2,0:0:0:0:
412,341,108076,2,0,L|425:270,1,55,2|2,1:2|0:0,0:0:0:0:
447,237,108386,1,10,0:2:0:0:
359,170,108695,2,0,P|302:153|271:103,1,110,2|10,1:2|0:2,0:0:0:0:
203,28,109314,2,0,L|109:8,1,55,2|2,1:2|0:0,0:0:0:0:
97,34,109623,2,0,L|36:44,1,55,10|2,0:2|0:0,0:0:0:0:
12,89,109932,6,0,L|25:204,1,110,0|8,1:2|0:2,0:0:0:0:
53,245,110396,1,2,0:0:0:0:
103,266,110551,1,2,1:2:0:0:
197,220,110860,1,10,0:2:0:0:
239,321,111169,2,0,L|303:334,1,55,2|2,1:2|0:0,0:0:0:0:
342,356,111478,1,10,0:2:0:0:
427,285,111788,1,2,1:2:0:0:
427,285,111942,2,0,L|443:196,1,55,2|10,0:0|0:2,0:0:0:0:
475,191,112252,1,2,0:0:0:0:
464,137,112406,6,0,L|353:108,1,110,6|10,1:2|0:2,0:0:0:0:
269,48,113025,2,0,L|177:61,1,55,2|2,1:2|0:0,0:0:0:0:
171,90,113334,1,10,0:2:0:0:
62,106,113643,2,0,L|72:183,1,55,2|2,1:2|0:0,0:0:0:0:
55,214,113953,1,10,0:2:0:0:
159,249,114262,2,0,L|149:326,1,55,2|2,1:2|0:0,0:0:0:0:
127,353,114572,1,10,0:2:0:0:
236,350,114881,5,2,1:2:0:0:
345,345,115190,2,0,L|361:220,1,110,10|0,0:2|1:2,0:0:0:0:
352,181,115654,1,0,0:0:0:0:
310,145,115808,2,0,L|255:139,1,55,8|8,0:2|0:2,0:0:0:0:
203,158,116118,5,10,0:2:0:0:
138,69,116427,2,0,L|77:78,1,55,10|2,0:2|0:0,0:0:0:0:
31,95,116736,1,2,1:2:0:0:
13,203,117045,2,0,L|24:274,1,55,10|2,0:2|0:0,0:0:0:0:
59,297,117355,6,0,L|200:279,1,110,2|10,1:2|0:2,0:0:0:0:
271,321,117973,2,0,L|344:309,1,55,10|2,0:2|1:2,0:0:0:0:
379,339,118283,1,10,0:2:0:0:
379,339,118437,2,0,P|391:260|403:188,1,110,2|2,1:2|1:2,0:0:0:0:
434,190,118901,1,10,0:2:0:0:
408,83,119210,2,0,P|374:73|351:63,1,55,10|2,0:2|1:2,0:0:0:0:
308,36,119520,2,0,P|274:46|251:56,1,55,10|2,0:2|1:2,0:0:0:0:
239,106,119829,6,0,L|265:353,1,220,10|10,0:2|0:2,0:0:0:0:
359,376,120757,1,10,0:2:0:0:
450,315,121066,2,0,P|463:232|477:165,2,110,2|10|2,1:2|0:2|1:2,0:0:0:0:
348,271,121994,2,0,P|316:262|283:253,1,55,2|2,1:2|0:0,0:0:0:0:
242,273,122303,5,14,0:2:0:0:
242,273,122458,2,0,P|188:280|111:298,1,110,2|2,1:2|1:2,0:0:0:0:
81,278,122922,2,0,P|70:258|50:229,2,55,10|2|10,0:2|1:2|0:2,0:0:0:0:
115,173,123540,2,0,P|181:153|238:119,1,110,10|10,0:2|0:2,0:0:0:0:
239,83,124004,1,2,1:2:0:0:
294,79,124159,2,0,L|380:94,1,55,10|2,0:2|1:2,0:0:0:0:
385,128,124468,1,10,0:2:0:0:
428,228,124777,6,0,P|389:238|365:248,1,55,10|2,0:2|1:2,0:0:0:0:
326,270,125087,2,0,P|267:267|191:234,1,110,10|10,0:2|0:2,0:0:0:0:
175,217,125551,2,0,P|134:230|107:246,1,55,2|10,1:2|0:2,0:0:0:0:
51,318,126015,2,0,P|101:328|198:350,1,110,2|10,1:2|0:2,0:0:0:0:
258,353,126633,2,0,L|382:329,1,110,0|4,1:2|1:2,0:0:0:0:
472,360,127252,1,6,1:2:0:0:
256,192,127406,12,0,131582,0:0:0:0:
483,55,132200,6,0,P|420:42|360:33,1,110,2|0,1:2|1:2,0:0:0:0:
299,115,132819,2,0,P|236:120|176:133,1,110,0|0,1:2|1:2,0:0:0:0:
101,189,133437,1,2,1:2:0:0:
199,239,133747,1,0,1:2:0:0:
305,210,134056,2,0,P|344:228|351:309,1,110,2|2,1:2|1:2,0:0:0:0:
306,379,134674,5,2,1:2:0:0:
200,347,134984,2,0,P|122:320|70:309,2,110,0|0|0,1:2|1:2|1:2,0:0:0:0:
286,279,135911,1,2,1:2:0:0:
235,179,136221,2,0,P|255:112|282:62,1,110,0|0,1:2|1:2,0:0:0:0:
362,12,136839,1,0,1:2:0:0:
446,83,137149,5,2,1:2:0:0:
446,83,137303,2,0,L|425:219,1,110,2|2,0:0|0:0,0:0:0:0:
437,246,137767,1,2,1:2:0:0:
381,341,138076,1,2,1:2:0:0:
381,341,138231,2,0,L|264:320,1,110,2|2,0:0|0:0,0:0:0:0:
229,286,138695,1,2,1:2:0:0:
139,350,139004,2,0,P|123:282|95:206,1,110,2|2,1:2|1:2,0:0:0:0:
155,143,139623,6,0,P|245:122|310:112,1,110,2|2,1:2|1:2,0:0:0:0:
309,146,140087,1,2,0:0:0:0:
363,149,140241,2,0,P|427:124|448:57,1,110,2|2,1:2|1:2,0:0:0:0:
372,7,140860,1,2,1:2:0:0:
265,34,141169,2,0,P|175:17|108:7,1,110,2|2,1:2|1:2,0:0:0:0:
116,51,141633,2,0,P|80:55|51:64,1,55,2|0,0:0|1:2,0:0:0:0:
121,152,142097,6,0,P|202:161|270:185,1,110,2|8,1:2|0:2,0:0:0:0:
264,210,142561,1,2,0:0:0:0:
310,239,142716,2,0,P|398:226|419:167,1,110,2|2,1:2|1:2,0:0:0:0:
443,110,143334,1,2,1:2:0:0:
366,31,143643,1,2,1:2:0:0:
278,98,143953,2,0,P|220:77|161:56,1,110,2|2,1:2|1:2,0:0:0:0:
67,87,144571,6,0,L|57:149,1,55,2|2,1:2|0:0,0:0:0:0:
17,178,144881,2,0,L|27:240,1,55,2|2,1:2|0:0,0:0:0:0:
27,287,145190,1,2,1:2:0:0:
135,303,145499,1,2,1:2:0:0:
244,313,145808,2,0,B|264:261|264:261|326:249,2,110,2|2|2,0:3|0:3|0:3,0:0:0:0:
32,373,147045,6,0,P|42:322|64:220,1,110,6|0,3:2|1:2,0:0:0:0:
122,178,147664,2,0,L|111:110,1,55,0|0,1:2|1:2,0:0:0:0:
86,75,147973,1,8,0:2:0:0:
188,34,148283,2,0,P|260:48|333:64,1,110,10|0,1:2|1:2,0:0:0:0:
381,116,148901,2,0,L|458:99,1,55,8|0,0:2|1:2,0:0:0:0:
478,70,149210,1,8,0:2:0:0:
504,177,149520,6,0,P|443:206|388:247,1,110,6|0,3:2|1:2,0:0:0:0:
355,324,150138,2,0,P|284:308|225:276,1,110,2|0,3:2|1:2,0:0:0:0:
168,218,150757,2,0,L|184:154,2,55,10|2|2,3:2|1:2|1:2,0:0:0:0:
139,265,151221,1,2,0:0:0:0:
92,293,151375,1,2,1:2:0:0:
48,191,151685,1,10,0:2:0:0:
78,85,151994,6,0,P|137:72|227:56,1,110,6|8,3:2|0:2,0:0:0:0:
275,120,152613,2,0,L|361:98,1,55,2|0,1:2|0:0,0:0:0:0:
371,72,152922,1,10,0:2:0:0:
458,138,153231,2,0,P|445:198|438:269,1,110,6|8,3:2|0:2,0:0:0:0:
437,351,153850,2,0,P|401:347|370:337,1,55,2|0,1:2|0:0,0:0:0:0:
335,314,154159,1,10,0:2:0:0:
234,357,154468,6,0,P|166:338|155:287,1,110,6|8,3:2|0:2,0:0:0:0:
140,203,155087,2,0,P|183:197|227:179,1,55,6|0,3:2|0:0,0:0:0:0:
239,162,155396,1,8,0:2:0:0:
163,82,155705,1,10,3:2:0:0:
163,82,155860,2,0,P|88:63|44:30,1,110,2|2,1:2|0:0,0:0:0:0:
23,5,156324,1,8,0:2:0:0:
1,112,156633,1,10,0:2:0:0:
40,214,156942,6,0,L|118:228,1,55,6|2,3:2|0:0,0:0:0:0:
131,264,157252,1,10,0:2:0:0:
168,304,157406,2,0,L|287:281,1,110,2|2,0:0|0:0,0:0:0:0:
374,331,158025,2,0,P|383:266|406:219,1,110,2|2,0:0|0:0,0:0:0:0:
448,197,158489,2,0,P|446:166|428:132,1,55,10|2,0:2|0:0,0:0:0:0:
394,108,158798,1,2,1:2:0:0:
299,163,159107,1,10,0:2:0:0:
222,83,159417,6,0,L|156:64,1,55,2|2,3:2|0:0,0:0:0:0:
118,46,159726,1,10,0:2:0:0:
66,64,159881,2,0,L|76:190,1,110,2|2,0:0|0:0,0:0:0:0:
127,270,160499,1,2,0:0:0:0:
127,270,160654,2,0,L|252:246,1,110,2|10,1:2|0:2,0:0:0:0:
343,234,161272,2,0,L|332:287,2,55,2|2|10,1:2|0:0|0:2,0:0:0:0:
344,123,161891,6,0,L|269:108,1,55,6|2,3:2|0:0,0:0:0:0:
252,71,162200,1,10,0:2:0:0:
207,38,162355,2,0,L|83:12,1,110,2|2,0:0|0:0,0:0:0:0:
11,81,162973,2,0,L|28:201,1,110,2|2,0:0|0:0,0:0:0:0:
58,234,163437,2,0,L|45:302,1,55,10|2,0:2|0:0,0:0:0:0:
56,342,163747,1,2,3:2:0:0:
164,325,164056,1,10,3:2:0:0:
265,368,164365,6,0,L|393:348,1,110,6|8,1:2|0:2,0:0:0:0:
420,321,164829,1,2,0:0:0:0:
460,284,164984,2,0,L|475:207,1,55,2|0,1:2|0:0,0:0:0:0:
498,182,165293,1,10,0:2:0:0:
388,179,165602,2,0,P|316:161|299:108,1,110,10|8,3:2|0:2,0:0:0:0:
251,38,166221,2,0,P|190:19|122:2,1,110,10|10,3:2|0:0,0:0:0:0:
64,81,166839,6,0,L|75:171,1,55,6|2,3:2|0:0,0:0:0:0:
83,189,167149,1,10,0:2:0:0:
118,230,167303,2,0,P|182:213|267:206,1,110,2|2,0:0|0:0,0:0:0:0:
297,290,167922,2,0,P|357:266|366:216,1,110,2|2,0:0|0:0,0:0:0:0:
352,173,168386,2,0,P|323:160|306:142,1,55,10|2,0:2|0:0,0:0:0:0:
293,89,168695,1,2,1:2:0:0:
389,36,169004,1,10,0:2:0:0:
464,116,169314,6,0,L|472:191,1,55,2|2,3:2|0:0,0:0:0:0:
460,224,169623,1,10,0:2:0:0:
440,275,169777,2,0,L|322:296,1,110,2|2,0:0|0:0,0:0:0:0:
240,353,170396,1,2,0:0:0:0:
240,353,170551,2,0,L|225:239,1,110,2|10,1:2|0:2,0:0:0:0:
317,183,171169,2,0,L|373:198,2,55,2|2|10,1:2|0:0|0:2,0:0:0:0:
334,74,171788,6,0,L|281:60,1,55,6|2,3:2|0:0,0:0:0:0:
226,69,172097,1,10,0:2:0:0:
173,86,172252,2,0,L|44:102,1,110,2|2,0:0|0:0,0:0:0:0:
9,195,172870,2,0,P|33:251|40:315,1,110,2|2,0:0|0:0,0:0:0:0:
46,353,173334,2,0,P|61:369|90:384,1,55,10|2,0:2|0:0,0:0:0:0:
142,365,173643,1,2,3:2:0:0:
226,293,173953,1,10,3:2:0:0:
315,357,174262,6,0,P|334:286|366:218,1,110,10|10,3:2|0:2,0:0:0:0:
385,212,174726,1,2,1:2:0:0:
416,167,174881,2,0,P|409:123|391:75,1,55,8|8,0:2|0:2,0:0:0:0:
373,68,175190,1,10,0:2:0:0:
268,33,175499,2,0,P|203:54|152:99,1,110,10|10,3:2|0:2,0:0:0:0:
135,121,175963,1,10,0:2:0:0:
132,176,176118,2,0,L|153:311,1,110,2|10,1:2|0:2,0:0:0:0:
100,383,176736,6,0,L|224:365,1,110,6|2,1:2|1:2,0:0:0:0:
251,332,177200,1,10,0:2:0:0:
302,311,177355,2,0,L|423:335,1,110,2|2,1:2|1:2,0:0:0:0:
487,255,177973,1,2,1:2:0:0:
487,255,178128,2,0,L|415:242,1,55,8|2,0:2|1:2,0:0:0:0:
378,233,178437,1,10,0:2:0:0:
320,138,178747,2,0,L|192:158,1,110,10|10,0:2|0:2,0:0:0:0:
185,203,179210,6,0,L|171:281,1,55,2|10,1:2|0:2,0:0:0:0:
188,310,179520,1,2,1:2:0:0:
281,367,179829,2,0,L|367:352,1,55,2|10,1:2|0:2,0:0:0:0:
368,313,180138,2,0,L|384:189,1,110,2|2,1:2|1:2,0:0:0:0:
405,153,180602,1,10,0:2:0:0:
358,60,180911,1,10,0:2:0:0:
358,60,181066,2,0,L|267:46,1,55,10|2,0:2|1:2,0:0:0:0:
251,68,181375,1,10,0:2:0:0:
142,48,181685,6,0,P|127:21|109:1,2,55,6|10|2,1:2|0:2|1:2,0:0:0:0:
180,150,182303,2,0,L|186:221,1,55,0|10,1:2|0:2,0:0:0:0:
168,257,182613,1,2,1:2:0:0:
112,351,182922,1,2,1:2:0:0:
112,351,183076,2,0,P|72:281|37:224,1,110,10|10,0:2|0:2,0:0:0:0:
44,202,183540,2,0,L|60:131,1,55,2|10,1:2|0:2,0:0:0:0:
49,93,183850,1,2,1:2:0:0:
147,45,184159,6,0,L|206:24,2,55,2|10|0,1:2|0:2|1:2,0:0:0:0:
186,147,184777,2,0,L|253:166,1,55,2|10,1:2|0:2,0:0:0:0:
289,139,185087,1,2,1:2:0:0:
394,148,185396,1,10,0:2:0:0:
426,192,185551,2,0,L|404:324,1,110,10|10,0:2|0:2,0:0:0:0:
384,350,186015,1,10,0:2:0:0:
276,373,186324,1,10,0:2:0:0:
238,275,186618,6,0,L|324:261,2,55,6|2|10,1:2|1:2|0:2,0:0:0:0:
181,180,187236,1,10,0:2:0:0:
72,160,187545,2,0,L|78:233,1,55,10|2,0:2|0:2,0:0:0:0:
40,256,187855,2,0,L|53:378,1,110,10|10,0:2|0:2,0:0:0:0:
160,377,188473,2,0,L|230:361,1,55,10|2,0:2|1:2,0:0:0:0:
253,327,188782,2,0,L|321:343,1,55,10|2,0:2|1:2,0:0:0:0:
353,375,189092,5,10,0:2:0:0:
435,305,189401,2,0,L|468:174,1,110,10|10,0:2|0:2,0:0:0:0:
415,101,190020,2,0,L|343:77,1,55,10|10,0:2|0:2,0:0:0:0:
324,123,190329,2,0,L|242:138,1,55,2|10,1:2|0:2,0:0:0:0:
220,108,190638,1,10,0:2:0:0:
120,60,190947,2,0,L|139:178,1,110,2|2,1:2|1:2,0:0:0:0:
85,266,191566,6,0,L|95:334,1,55,14|2,0:2|1:2,0:0:0:0:
136,354,191875,1,2,0:2:0:0:
244,372,192185,2,0,L|313:354,1,55,10|2,0:2|1:2,0:0:0:0:
342,326,192494,2,0,L|353:255,1,55,2|2,0:2|1:2,0:0:0:0:
385,229,192803,6,0,L|462:213,1,55,10|2,0:2|1:2,0:0:0:0:
493,208,193112,1,8,0:2:0:0:
439,111,193422,2,0,L|372:98,1,55,10|2,0:2|1:2,0:0:0:0:
331,114,193731,1,10,0:2:0:0:
237,158,194040,6,0,P|163:132|154:67,1,110,10|10,0:2|0:2,0:0:0:0:
137,54,194504,1,2,1:2:0:0:
88,28,194659,2,0,P|54:30|32:40,1,55,10|2,0:2|1:2,0:0:0:0:
13,89,194968,1,10,0:2:0:0:
54,190,195277,2,0,L|69:312,1,110,8|8,0:2|0:2,0:0:0:0:
99,344,195741,2,0,P|127:330|223:309,1,110,2|10,1:2|0:2,0:0:0:0:
254,330,196205,2,0,P|277:348|324:346,1,55,10|2,0:2|1:2,0:0:0:0:
355,340,196514,1,6,1:2:0:0:
496,118,198989,6,0,L|366:94,1,110,10|2,0:2|1:2,0:0:0:0:
347,60,199453,1,0,1:2:0:0:
292,54,199607,2,0,L|215:62,1,55,2|2,1:2|1:2,0:0:0:0:
192,91,199916,1,14,0:2:0:0:
86,57,200226,1,6,1:2:0:0:
46,295,201463,6,0,P|97:281|175:273,1,110,10|10,0:2|0:2,0:0:0:0:
203,296,201927,1,0,1:2:0:0:
256,306,202081,2,0,P|288:301|313:286,1,55,10|10,0:2|0:2,0:0:0:0:
342,247,202391,1,2,1:2:0:0:
443,289,202700,2,0,P|491:236|491:190,1,110,2|10,1:2|0:2,0:0:0:0:
458,157,203164,1,2,1:2:0:0:
409,129,203319,2,0,P|389:105|378:77,2,55,10|10|0,0:2|0:2|1:2,0:0:0:0:
301,150,203937,6,0,P|221:132|177:119,1,110,10|2,0:2|1:2,0:0:0:0:
142,144,204401,1,0,1:2:0:0:
93,170,204556,2,0,P|57:165|21:115,1,55,2|2,1:2|1:2,0:0:0:0:
15,106,204865,1,14,0:2:0:0:
104,41,205174,2,0,L|224:24,1,110,6|10,1:2|0:2,0:0:0:0:
259,54,205638,1,0,0:0:0:0:
295,95,205793,2,0,P|321:102|354:118,1,55,2|2,1:2|0:0,0:0:0:0:
397,94,206102,1,10,0:2:0:0:
505,75,206411,1,6,1:2:0:0:
