osu file format v14

[General]
AudioFilename: audio.mp3
AudioLeadIn: 0
PreviewTime:127224
Countdown: 0
SampleSet: Soft
StackLeniency: 0.3
Mode: 0
LetterboxInBreaks: 0
WidescreenStoryboard: 1

[Editor]
DistanceSpacing: 0.3
BeatDivisor: 4
GridSize: 32
TimelineZoom: 2.1

[Metadata]
Title:Amanita
TitleUnicode:Amanita
Artist:Marmalade butcher
ArtistUnicode:Marmalade butcher
Creator:Camo
Version:Collab Insane
Source:
Tags:mao zelq deviouspanda asaben asa olsonn megafan paradogi nullum sonum ヌルムソヌム instrumental math rock fa featured artist o!wc owc owc2020 finals hd1
BeatmapID:3314594
BeatmapSetID:1473778

[Difficulty]
HPDrainRate:4
CircleSize:3.8
OverallDifficulty:8
ApproachRate:9
SliderMultiplier:1.7
SliderTickRate:1

[Events]
//Background and Video events
0,0,"84719437_p0.jpg",0,0
//Break Periods
2,79826,82737
2,97761,101909
2,196714,198389
//Storyboard Layer 0 (Background)
//Storyboard Layer 1 (Fail)
//Storyboard Layer 2 (Pass)
//Storyboard Layer 3 (Foreground)
//Storyboard Layer 4 (Overlay)
//Storyboard Sound Samples

[TimingPoints]
1384,309.278350515464,4,2,1,60,1,0
1384,-200,4,2,1,60,0,0
1693,-100,4,2,1,60,0,0
2002,-200,4,2,1,60,0,0
2621,-83.3333333333333,4,2,1,60,0,0
3085,-100,4,2,1,60,0,0
3858,-66.6666666666667,4,2,1,60,0,0
4167,-83.3333333333333,4,2,1,60,0,0
6332,-66.6666666666667,4,2,1,60,0,0
6951,-200,4,2,1,60,0,0
7569,-83.3333333333333,4,2,1,60,0,0
8806,-66.6666666666667,4,2,1,60,0,0
9115,-83.3333333333333,4,2,1,60,0,0
11899,-200,4,2,1,60,0,0
12518,309.278350515464,7,2,1,60,1,0
12518,-90.9090909090909,7,2,1,60,0,0
16847,309.278350515464,6,2,1,60,1,0
18702,309.278350515464,7,2,1,60,1,0
20866,309.278350515464,4,2,1,50,1,0
20866,-133.333333333333,4,2,1,50,0,0
23340,309.278350515464,6,2,1,50,1,0
23340,-133.333333333333,6,2,1,50,0,0
25195,309.278350515464,4,2,1,50,1,0
25195,-133.333333333333,4,2,1,50,0,0
27669,309.278350515464,6,2,1,50,1,0
27669,-133.333333333333,6,2,1,50,0,0
29524,309.278350515464,4,2,1,50,1,0
29524,-117.647058823529,4,2,1,50,0,0
31998,309.278350515464,6,2,1,50,1,0
31998,-117.647058823529,6,2,1,50,0,0
33853,309.278350515464,4,2,1,50,1,0
33853,-117.647058823529,4,2,1,50,0,0
38801,-100,4,2,1,50,0,0
45605,-133.333333333333,4,2,1,50,0,0
46224,-100,4,2,1,50,0,0
47461,-200,4,2,1,50,0,0
48698,-86.9565217391304,4,2,1,80,0,1
68492,-125,4,2,1,70,0,0
69729,-100,4,2,1,70,0,0
79626,-100,4,2,1,50,0,0
83955,309.278350515464,4,2,1,50,1,0
83955,-125,4,2,1,50,0,0
87666,-100,4,2,1,70,0,0
88284,309.278350515464,4,2,1,70,1,0
88284,-90.9090909090909,4,2,1,70,0,0
92613,309.278350515464,4,2,1,70,1,0
92613,-90.9090909090909,4,2,1,70,0,0
107458,-76.9230769230769,4,2,2,85,0,0
113102,-76.9230769230769,4,2,2,70,0,0
113179,-76.9230769230769,4,2,2,85,0,0
117355,-71.4285714285714,4,2,2,85,0,1
119829,-100,4,2,2,85,0,1
120448,-71.4285714285714,4,2,2,85,0,1
127252,-625,4,2,1,70,0,0
132045,-625,4,2,1,5,0,0
132200,-111.111111111111,4,2,1,70,0,0
137149,-100,4,2,1,60,0,0
143798,-100,4,2,1,70,0,0
143953,-100,4,2,1,60,0,0
147045,-76.9230769230769,4,2,1,90,0,0
151994,-71.4285714285714,4,2,1,90,0,1
166839,-66.6666666666667,4,2,1,95,0,1
167767,-66.6666666666667,4,2,1,95,0,1
176736,-66.6666666666667,4,2,2,95,0,1
186618,309.278350515464,4,2,2,95,1,1
186618,-66.6666666666667,4,2,2,95,0,1
196514,-100,4,2,1,75,0,0
198989,-83.3333333333333,4,2,1,75,0,0
206720,-83.3333333333333,4,2,1,5,0,0

[Colours]
Combo1 : 255,128,128
Combo2 : 245,162,99
Combo3 : 198,147,253
Combo4 : 0,115,230

[HitObjects]
395,57,1384,6,0,L|399:77,3,21.25,10|8|10|8,0:2|0:2|0:2|0:2,0:0:0:0:
304,54,1693,6,0,B|306:69|306:69|305:76|305:76|309:95,1,42.5,10|8,0:2|0:2,0:0:0:0:
312,59,1847,2,0,B|315:75|315:75|314:81|314:81|318:101,1,42.5,10|8,0:2|0:2,0:0:0:0:
405,57,2002,6,0,L|410:78,3,21.25,10|8|10|8,0:2|0:2|0:2|0:2,0:0:0:0:
426,163,2311,5,10,0:2:0:0:
434,164,2389,1,10,0:2:0:0:
435,172,2466,1,10,0:2:0:0:
426,171,2543,1,10,0:2:0:0:
430,169,2621,6,0,B|372:147|343:210|355:215|368:221|329:306|230:242,1,203.999993774414,6|10,1:2|0:2,0:0:0:0:
196,123,3085,1,2,1:2:0:0:
99,138,3239,2,0,P|57:144|15:154,1,85,2|0,1:2|1:2,0:0:0:0:
95,319,3548,2,0,P|136:310|178:304,1,85,2|2,1:2|1:2,0:0:0:0:
311,384,3858,6,0,B|320:327|320:327|318:323|318:323|330:258,1,127.500004863739,2|2,1:2|1:2,0:0:0:0:
372,190,4090,1,0,0:0:0:0:
377,182,4167,2,0,P|334:158|281:209,1,101.999996887207,10|2,0:2|0:0,0:0:0:0:
429,282,4476,6,0,P|470:256|472:207,1,101.999996887207,2|2,1:2|1:2,0:0:0:0:
442,107,4786,1,10,0:2:0:0:
442,107,4940,1,2,0:0:0:0:
329,258,5095,6,0,P|229:236|128:223,1,203.999993774414,6|10,1:2|0:2,0:0:0:0:
24,330,5559,1,2,1:2:0:0:
92,381,5713,2,0,P|137:362|151:315,1,101.999996887207,10|0,0:2|1:2,0:0:0:0:
15,164,6023,2,0,P|8:212|42:248,1,101.999996887207,2|10,1:2|0:2,0:0:0:0:
230,247,6332,6,0,B|242:184|242:184|240:177|240:177|250:122,1,127.500004863739,2|2,1:2|1:2,0:0:0:0:
251,109,6564,1,2,0:0:0:0:
252,97,6641,1,10,0:2:0:0:
330,128,6796,1,2,0:0:0:0:
167,75,6951,6,0,L|172:42,3,21.25,10|8|10|8,0:2|0:2|0:2|0:2,0:0:0:0:
78,148,7260,5,10,0:2:0:0:
70,149,7338,1,10,0:2:0:0:
69,157,7415,1,10,0:2:0:0:
78,156,7492,1,10,0:2:0:0:
74,154,7570,6,0,B|132:132|161:195|149:200|136:206|175:291|274:227,1,203.999993774414,6|10,1:2|0:2,0:0:0:0:
426,211,8033,1,2,1:2:0:0:
451,133,8188,2,0,P|434:86|387:73,1,101.999996887207,2|0,1:2|1:2,0:0:0:0:
229,153,8497,2,0,P|245:104|252:54,1,101.999996887207,2|2,1:2|1:2,0:0:0:0:
323,205,8806,6,0,B|334:268|334:268|338:273|338:273|347:329|347:329,1,127.500004863739,2|2,1:2|1:2,0:0:0:0:
430,384,9038,1,2,0:0:0:0:
429,383,9115,2,0,P|460:345|446:298,1,101.999996887207,10|2,0:2|1:2,0:0:0:0:
229,325,9425,6,0,P|176:314|124:306,1,101.999996887207,2|2,1:2|1:2,0:0:0:0:
25,288,9735,1,10,0:2:0:0:
180,114,9889,1,2,0:0:0:0:
117,40,10043,6,0,P|14:50|34:127,1,203.999993774414,4|10,1:2|0:2,0:0:0:0:
106,174,10507,1,2,1:2:0:0:
250,59,10662,1,10,0:2:0:0:
200,210,10816,1,0,1:2:0:0:
200,220,10894,1,2,0:0:0:0:
193,227,10971,1,2,1:2:0:0:
98,269,11126,6,0,P|108:328|113:376,1,101.999996887207,14|0,0:2|0:0,0:0:0:0:
196,322,11899,6,0,L|200:342,3,21.25,8|8|8|8,0:2|0:2|0:2|0:2,0:0:0:0:
279,301,12208,2,0,L|283:321,3,21.25,8|8|8|8,0:2|0:2|0:2|0:2,0:0:0:0:
345,230,12518,6,0,B|347:282|406:287|409:278|412:268|469:265|483:326,2,187.000005706787,6|10|2,1:2|0:2|1:2,0:0:0:0:
381,147,13291,1,2,0:0:0:0:
512,58,13445,1,10,0:2:0:0:
491,144,13600,2,0,P|398:129|307:110,1,187.000005706787,2|2,0:0|0:0,0:0:0:0:
318,8,14064,2,0,P|366:17|414:30,1,93.5000028533936,10|2,0:2|0:0,0:0:0:0:
448,225,14373,1,14,0:2:0:0:
178,357,14682,6,0,P|92:339|89:253,2,187.000005706787,6|10|2,1:2|0:2|1:2,0:0:0:0:
260,309,15456,1,2,0:0:0:0:
140,172,15610,1,10,0:2:0:0:
152,82,15765,2,0,P|164:174|181:266,1,187.000005706787,2|2,0:0|0:0,0:0:0:0:
21,194,16229,2,0,P|34:149|42:103,1,93.5000028533936,10|2,0:2|1:2,0:0:0:0:
186,1,16538,5,10,0:2:0:0:
177,0,16616,1,8,0:2:0:0:
175,8,16693,1,8,0:2:0:0:
184,8,16770,1,8,0:2:0:0:
180,6,16848,6,0,B|233:-13|264:33|256:38|248:40|266:95|333:86,2,170,6|10|2,1:2|0:2|1:2,0:0:0:0:
116,81,17620,1,2,1:2:0:0:
224,208,17774,1,10,0:2:0:0:
127,251,17929,2,0,P|133:202|148:144,1,85,2|2,0:0|1:2,0:0:0:0:
313,178,18238,5,10,0:2:0:0:
390,348,18393,1,10,0:2:0:0:
436,263,18548,1,10,0:2:0:0:
437,259,18625,1,8,0:2:0:0:
438,255,18702,6,0,B|365:267|365:267|355:267|355:267|270:282,2,170,6|10|2,1:2|0:2|1:2,0:0:0:0:
491,172,19475,1,2,1:2:0:0:
319,64,19629,2,0,P|294:97|302:138,1,85,10|2,0:2|0:0,0:0:0:0:
501,160,19939,6,0,P|495:139|480:122,3,42.5,10|8|10|8,0:2|0:2|0:2|0:2,0:0:0:0:
448,43,20248,2,0,P|427:48|410:63,3,42.5,10|8|10|8,0:2|0:2|0:2|0:2,0:0:0:0:
319,77,20557,1,10,0:2:0:0:
319,77,20866,6,0,B|315:97|299:110|268:105|268:105|184:90,1,127.500004863739,6|8,1:2|0:2,0:0:0:0:
38,134,21329,1,2,1:2:0:0:
38,134,21484,2,0,B|26:98|53:62|91:69|91:69|123:74,1,127.500004863739,2|8,0:0|0:2,0:0:0:0:
224,249,21948,1,2,1:2:0:0:
224,249,22103,2,0,L|379:221,1,127.500004863739,2|8,1:2|1:2,0:0:0:0:
440,209,22567,1,2,1:2:0:0:
440,209,22721,2,0,L|452:281,1,63.7500024318696,2|0,1:2|1:2,0:0:0:0:
422,126,23030,2,0,L|410:63,1,63.7500024318696,10|0,0:2|0:0,0:0:0:0:
230,39,23340,6,0,B|259:15|302:29|309:66|309:66|314:99,1,127.500004863739,2|8,1:2|0:2,0:0:0:0:
158,171,23803,1,2,1:2:0:0:
158,171,23958,2,0,B|137:174|124:190|129:221|129:221|144:305,1,127.500004863739,2|8,0:0|0:2,0:0:0:0:
79,357,24422,1,2,1:2:0:0:
79,357,24577,2,0,B|63:354|63:354|54:352|45:344|47:332|47:332|51:309,1,63.7500024318696,2|0,1:2|0:0,0:0:0:0:
228,253,24886,2,0,B|243:255|243:255|252:257|261:265|259:277|259:277|255:300,1,63.7500024318696,10|0,0:2|1:2,0:0:0:0:
384,367,25195,6,0,L|516:344,1,127.500004863739,6|8,1:2|0:2,0:0:0:0:
446,161,25658,1,2,1:2:0:0:
446,161,25813,2,0,B|426:165|413:181|418:212|418:212|433:296,1,127.500004863739,2|8,0:0|0:2,0:0:0:0:
471,61,26277,1,2,0:0:0:0:
471,61,26432,6,0,B|487:58|487:58|496:57|507:61|509:73|509:73|513:96,1,63.7500024318696,2|0,1:2|0:0,0:0:0:0:
361,44,26741,2,0,B|358:27|358:27|357:18|361:7|373:5|373:5|396:1,1,63.7500024318696,10|0,0:2|1:2,0:0:0:0:
333,139,27050,2,0,L|270:127,1,63.7500024318696,2|0,1:2|1:2,0:0:0:0:
168,103,27359,2,0,L|105:91,1,63.7500024318696,10|0,0:2|1:2,0:0:0:0:
19,260,27669,6,0,B|54:272|90:244|84:207|84:207|77:174,1,127.500004863739,2|8,1:2|0:2,0:0:0:0:
34,26,28132,1,2,1:2:0:0:
34,26,28287,2,0,B|38:6|54:-7|85:-2|85:-2|169:13,1,127.500004863739,2|8,0:0|0:2,0:0:0:0:
254,29,28751,1,2,1:2:0:0:
254,29,28906,2,0,B|270:31|270:31|279:33|288:42|286:54|286:54|282:77,1,63.7500024318696,2|0,1:2|0:0,0:0:0:0:
214,195,29215,5,10,0:2:0:0:
206,189,29292,1,8,0:2:0:0:
197,183,29370,1,8,0:2:0:0:
189,177,29447,1,8,0:2:0:0:
178,170,29524,6,0,L|203:312,1,144.500002756119,6|8,1:2|0:2,0:0:0:0:
332,343,29987,1,2,1:2:0:0:
332,343,30065,1,0,1:2:0:0:
332,343,30142,2,0,B|335:323|335:323|337:309|327:300|317:298|317:298|298:294,2,72.2500013780594,2|0|8,0:0|1:2|0:2,0:0:0:0:
123,362,30606,1,2,1:2:0:0:
123,362,30761,2,0,B|102:365|85:354|79:323|79:323|63:235,1,144.500002756119,2|8,1:2|0:2,0:0:0:0:
49,146,31225,1,2,1:2:0:0:
49,146,31302,1,0,1:2:0:0:
49,146,31379,2,0,L|120:133,1,72.2500013780594,2|0,0:0|1:2,0:0:0:0:
237,9,31688,2,0,L|165:21,1,72.2500013780594,10|0,0:2|0:0,0:0:0:0:
179,213,31998,6,0,B|214:225|250:197|244:160|244:160|236:114,1,144.500002756119,2|8,0:0|0:2,0:0:0:0:
345,43,32461,1,2,1:2:0:0:
345,43,32539,1,0,1:2:0:0:
345,43,32616,2,0,B|365:40|365:40|379:38|388:48|390:58|390:58|394:77,2,72.2500013780594,2|0|8,1:2|1:2|0:2,0:0:0:0:
370,192,33080,1,2,1:2:0:0:
370,192,33235,2,0,L|512:166,1,144.500002756119,2|10,1:2|0:2,0:0:0:0:
496,361,33699,1,2,0:0:0:0:
496,361,33776,1,0,1:2:0:0:
496,361,33853,6,0,B|503:312|503:312|507:290|500:279|475:275|475:275|435:267,1,144.500002756119,6|8,1:2|0:2,0:0:0:0:
293,326,34316,1,2,1:2:0:0:
293,326,34394,1,0,1:2:0:0:
293,326,34471,2,0,B|288:346|272:358|241:354|241:354|153:338,1,144.500002756119,2|8,0:0|0:2,0:0:0:0:
78,159,34935,1,2,1:2:0:0:
78,159,35090,6,0,L|7:146,1,72.2500013780594,2|0,1:2|0:0,0:0:0:0:
175,108,35399,2,0,L|188:37,1,72.2500013780594,10|0,0:2|1:2,0:0:0:0:
250,200,35708,2,0,B|252:188|252:188|254:172|269:167|281:168|281:168|302:172,1,72.2500013780594,2|0,1:2|1:2,0:0:0:0:
407,111,36017,2,0,B|417:112|417:112|433:115|438:129|437:141|437:141|433:164,1,72.2500013780594,10|0,0:2|1:2,0:0:0:0:
328,30,36327,6,0,L|300:181,1,144.500002756119,2|8,0:0|1:2,0:0:0:0:
181,250,36791,1,2,1:2:0:0:
181,250,36869,1,0,1:2:0:0:
181,250,36946,2,0,B|161:245|149:229|153:198|153:198|169:110,1,144.500002756119,2|8,0:0|0:2,0:0:0:0:
193,28,37409,1,2,1:2:0:0:
24,88,37564,6,0,B|29:120|29:120|27:123|27:123|33:158,1,72.2500013780594,6|0,1:2|0:0,0:0:0:0:
181,250,37873,2,0,B|187:215|187:215|184:212|184:212|190:179,1,72.2500013780594,10|0,0:2|0:0,0:0:0:0:
53,247,38182,2,0,L|59:282,3,36.1250006890297,10|8|8|8,0:2|0:2|0:2|0:2,0:0:0:0:
85,376,38492,5,8,0:2:0:0:
77,375,38570,1,8,0:2:0:0:
76,367,38647,1,8,0:2:0:0:
85,368,38724,1,8,0:2:0:0:
81,370,38802,6,0,B|135:387|161:340|151:335|141:329|168:268|249:295,1,170,6|10,1:2|0:2,0:0:0:0:
312,257,39265,1,2,1:2:0:0:
321,260,39420,2,0,P|366:269|425:271,1,85,2|0,1:2|0:0,0:0:0:0:
278,373,39729,2,0,P|257:367|236:368,2,42.5,10|2|2,0:2|0:0|0:0,0:0:0:0:
489,269,40038,5,0,1:2:0:0:
498,274,40193,1,2,0:0:0:0:
499,133,40347,6,0,P|510:151|510:173,1,42.5,10|8,0:2|0:2,0:0:0:0:
410,148,40502,2,0,P|411:169|422:188,1,42.5,10|8,0:2|0:2,0:0:0:0:
441,75,40657,2,0,P|390:142|315:182,1,170,10|2,0:2|0:0,0:0:0:0:
49,0,41275,6,0,P|33:39|25:81,1,85,6|2,1:2|0:0,0:0:0:0:
166,167,41584,2,0,P|157:125|142:85,1,85,10|2,0:2|1:2,0:0:0:0:
0,190,41894,2,0,P|79:199|94:277,1,170,2|10,1:2|0:2,0:0:0:0:
85,286,42280,1,2,0:0:0:0:
73,291,42358,1,2,0:0:0:0:
185,383,42512,5,0,1:2:0:0:
190,372,42667,1,2,0:0:0:0:
182,249,42822,5,10,0:2:0:0:
281,296,42976,1,2,1:2:0:0:
341,238,43131,2,0,B|390:225|428:271|389:288|419:336|497:319,1,170,2|2,1:2|1:2,0:0:0:0:
511,60,43749,6,0,P|419:81|321:99,1,170,6|10,1:2|0:2,0:0:0:0:
171,88,44213,1,2,1:2:0:0:
164,77,44368,2,0,P|182:39|222:28,1,85,2|0,1:2|0:0,0:0:0:0:
268,139,44677,2,0,P|269:160|263:180,2,42.5,10|2|2,0:2|0:0|1:2,0:0:0:0:
65,101,44987,5,8,0:2:0:0:
62,88,45064,1,8,0:2:0:0:
67,76,45141,1,2,0:0:0:0:
144,179,45296,6,0,P|139:203|135:232,1,42.5,10|0,0:2|0:0,0:0:0:0:
134,235,45450,1,2,1:2:0:0:
23,307,45605,2,0,P|16:243|0:183,1,127.500004863739,2|2,1:2|0:0,0:0:0:0:
364,366,46224,6,0,L|377:282,1,85,6|2,1:2|0:0,0:0:0:0:
303,151,46533,2,0,P|265:189|281:234,1,85,10|2,0:2|1:2,0:0:0:0:
465,120,46842,2,0,P|427:82|382:98,1,85,10|0,0:2|1:2,0:0:0:0:
496,247,47151,2,0,P|507:230|511:209,2,42.5,2|2|10,1:2|0:0|0:2,0:0:0:0:
270,320,47461,6,0,P|266:337|263:374,2,42.5,2|2|2,1:2|0:0|0:0,0:0:0:0:
280,238,47925,1,2,0:0:0:0:
280,238,48079,1,2,0:0:0:0:
178,336,48234,5,0,1:2:0:0:
355,292,48389,1,8,0:2:0:0:
213,182,48543,1,0,1:2:0:0:
433,354,48698,6,0,B|467:312|467:312|452:270,1,97.7500018644333,6|2,3:2|0:0,0:0:0:0:
280,238,49007,1,10,0:2:0:0:
339,379,49162,2,0,B|355:283|355:283|358:277|358:277|375:184,1,195.500003728867,2|2,0:2|0:2,0:0:0:0:
163,321,49626,2,0,P|123:328|61:343,1,97.7500018644333,10|2,0:2|0:0,0:0:0:0:
0,279,49858,5,2,0:0:0:0:
1,270,49935,2,0,P|28:231|75:231,1,97.7500018644333,2|0,3:2|0:0,0:0:0:0:
259,356,50244,2,0,P|306:355|333:317,1,97.7500018644333,10|0,0:2|0:0,0:0:0:0:
118,99,50554,6,0,P|73:84|18:72,1,97.7500018644333,2|0,1:2|0:0,0:0:0:0:
216,43,50863,2,0,P|263:53|310:69,1,97.7500018644333,10|0,0:2|0:0,0:0:0:0:
169,203,51172,1,2,3:2:0:0:
354,153,51327,1,2,0:0:0:0:
354,153,51404,1,2,0:0:0:0:
354,153,51481,2,0,P|394:132|386:70,1,97.7500018644333,8|0,0:2|0:0,0:0:0:0:
216,43,51791,2,0,P|193:82|234:130,1,97.7500018644333,2|2,1:2|0:0,0:0:0:0:
393,287,52100,6,0,B|421:290|442:274|442:274|452:301|484:312,1,97.7500018644333,10|0,0:2|0:0,0:0:0:0:
319,350,52409,1,2,3:2:0:0:
223,221,52564,1,2,0:0:0:0:
72,358,52718,1,10,0:0:0:0:
17,289,52873,1,2,0:2:0:0:
216,365,53028,6,0,P|261:348|309:338,1,97.7500018644333,2|0,3:2|0:0,0:0:0:0:
142,161,53337,2,0,P|104:189|109:236,1,97.7500018644333,10|0,0:2|1:2,0:0:0:0:
269,54,53646,6,0,L|235:254,1,195.500003728867,6|8,3:2|0:2,0:0:0:0:
236,246,54110,1,0,0:0:0:0:
343,108,54265,2,0,L|457:75,1,97.7500018644333,2|0,1:2|0:0,0:0:0:0:
169,152,54574,1,10,0:2:0:0:
169,152,54729,1,0,1:2:0:0:
369,195,54883,6,0,P|461:214|477:331,1,195.500003728867,6|8,3:2|0:2,0:0:0:0:
488,302,55347,1,2,0:0:0:0:
298,329,55502,2,0,P|350:299|414:291,1,97.7500018644333,2|0,1:2|0:0,0:0:0:0:
213,345,55811,1,10,0:2:0:0:
213,345,55966,1,0,1:2:0:0:
21,330,56121,6,0,P|125:316|127:217,1,195.500003728867,6|8,3:2|0:2,0:0:0:0:
139,240,56584,1,0,1:2:0:0:
295,136,56739,2,0,B|248:151|275:180|200:197,2,97.7500018644333,6|0|8,3:2|0:0|0:2,0:0:0:0:
295,136,57203,1,0,0:0:0:0:
100,176,57358,5,10,3:2:0:0:
93,169,57435,1,8,0:2:0:0:
84,165,57512,2,0,P|38:174|4:230,1,97.7500018644333,2|8,1:2|0:2,0:0:0:0:
7,212,57822,1,2,0:0:0:0:
106,86,57976,2,0,P|132:94|156:109,3,48.8750009322167,0|0|0|0,1:2|0:0|0:0|0:0,0:0:0:0:
145,11,58285,1,10,0:2:0:0:
157,10,58362,1,2,0:0:0:0:
169,10,58439,1,2,0:0:0:0:
181,8,58516,1,2,0:0:0:0:
188,5,58595,6,0,P|231:17|293:23,1,97.7500018644333,6|2,3:2|0:0,0:0:0:0:
283,22,58904,1,10,0:2:0:0:
311,189,59059,2,0,P|323:146|329:84,1,97.7500018644333,2|0,0:0|1:2,0:0:0:0:
241,128,59368,1,2,0:0:0:0:
404,152,59523,1,8,0:2:0:0:
208,216,59677,6,0,P|146:180|-7:153,1,195.500003728867,2|2,0:0|0:0,0:0:0:0:
161,94,60141,1,10,0:2:0:0:
241,128,60296,1,2,0:0:0:0:
170,310,60450,2,0,P|198:271|211:224,1,97.7500018644333,2|0,1:2|0:0,0:0:0:0:
391,245,60760,2,0,P|324:204|282:200,1,97.7500018644333,10|0,1:2|1:2,0:0:0:0:
512,84,61069,6,0,P|463:94|453:160,1,97.7500018644333,2|2,3:2|0:0,0:0:0:0:
445,134,61378,1,10,0:2:0:0:
380,65,61533,2,0,P|319:49|271:17,1,97.7500018644333,2|0,0:0|1:2,0:0:0:0:
507,204,61842,1,2,0:0:0:0:
499,211,61920,1,2,0:0:0:0:
488,215,61997,1,8,0:2:0:0:
358,153,62151,1,2,0:0:0:0:
369,306,62306,6,0,B|353:205|263:266|266:119,1,195.500003728867,2|10,1:2|0:2,0:0:0:0:
267,149,62770,1,0,1:2:0:0:
188,323,62925,2,0,P|254:315|300:299,1,97.7500018644333,2|2,1:2|1:2,0:0:0:0:
439,338,63234,1,10,0:2:0:0:
436,349,63311,1,2,0:0:0:0:
433,360,63389,1,2,0:0:0:0:
184,328,63543,6,0,P|148:294|174:220,1,97.7500018644333,6|2,3:2|0:0,0:0:0:0:
148,248,63853,1,10,0:2:0:0:
288,169,64007,2,0,P|276:217|199:231,1,97.7500018644333,2|0,0:0|1:2,0:0:0:0:
93,183,64316,1,2,0:0:0:0:
184,174,64471,1,10,0:2:0:0:
369,265,64626,6,0,L|403:62,1,195.500003728867,2|2,0:0|0:0,0:0:0:0:
310,98,65090,1,10,0:2:0:0:
464,183,65244,1,2,0:0:0:0:
363,272,65399,2,0,L|256:255,1,97.7500018644333,2|0,3:2|0:0,0:0:0:0:
505,8,65708,2,0,L|488:115,1,97.7500018644333,10|0,3:2|0:0,0:0:0:0:
249,177,66017,6,0,P|164:150|171:33,1,195.500003728867,2|8,0:2|0:2,0:0:0:0:
154,54,66481,1,0,0:0:0:0:
43,159,66636,1,0,1:2:0:0:
95,241,66791,1,0,0:0:0:0:
245,91,66945,2,0,P|307:82|367:63,1,97.7500018644333,10|0,0:2|0:0,0:0:0:0:
488,141,67255,5,14,0:2:0:0:
478,130,67332,1,8,0:2:0:0:
464,124,67409,2,0,P|432:132|405:150,1,48.8750009322167,2|0,1:2|1:2,0:0:0:0:
377,210,67564,1,10,0:2:0:0:
409,286,67718,1,10,1:2:0:0:
266,283,67873,6,0,L|218:272,3,48.8750009322167,10|2|0|0,0:2|1:2|1:2|1:2,0:0:0:0:
175,348,68182,2,0,L|236:361,3,48.8750009322167,10|0|2|0,0:2|1:2|1:2|1:2,0:0:0:0:
94,359,68492,5,2,1:2:0:0:
94,359,68646,1,0,0:0:0:0:
119,280,68801,2,0,L|109:238,1,34,2|0,0:0|0:0,0:0:0:0:
89,176,68956,2,0,L|79:134,1,34,2|0,0:0|0:0,0:0:0:0:
16,93,69110,1,2,0:0:0:0:
16,93,69264,1,2,0:0:0:0:
169,124,69420,2,0,L|202:116,3,34,6|2|2|2,0:0|0:0|0:0|0:0,0:0:0:0:
150,47,69729,6,0,L|327:11,1,170,6|10,1:2|0:2,0:0:0:0:
407,68,70193,2,0,B|433:32|433:32|405:-4,1,85,2|0,1:2|1:2,0:0:0:0:
315,97,70502,1,2,1:2:0:0:
312,107,70579,1,2,0:0:0:0:
309,117,70656,1,2,1:2:0:0:
405,237,70811,2,0,L|386:143,1,85,2|0,1:2|1:2,0:0:0:0:
243,177,71121,2,0,L|224:271,1,85,2|10,1:2|0:2,0:0:0:0:
285,352,71430,2,0,P|213:299|126:281,1,170,2|2,1:2|1:2,0:0:0:0:
44,307,71894,1,10,0:2:0:0:
41,318,72048,1,2,0:0:0:0:
135,281,72203,6,0,P|186:231|185:113,1,170,6|10,1:2|0:2,0:0:0:0:
39,137,72667,2,0,P|62:176|113:180,1,85,2|8,1:2|0:2,0:0:0:0:
253,58,72976,2,0,P|230:19|179:15,1,85,2|2,1:2|1:2,0:0:0:0:
295,140,73285,2,0,P|340:139|369:97,1,85,10|0,0:2|1:2,0:0:0:0:
114,59,73595,1,2,1:2:0:0:
107,68,73672,1,2,0:0:0:0:
110,77,73749,1,8,0:2:0:0:
337,28,73904,5,2,0:0:0:0:
458,89,74059,1,8,0:2:0:0:
453,109,74136,1,8,0:2:0:0:
449,130,74213,1,10,0:2:0:0:
444,151,74290,1,8,0:2:0:0:
440,172,74368,2,0,L|492:158,3,42.5,10|10|10|10,0:2|0:2|0:2|0:2,0:0:0:0:
375,223,74677,6,0,L|195:188,1,170,6|10,1:2|0:2,0:0:0:0:
114,150,75141,2,0,L|134:252,1,85,2|0,1:2|1:2,0:0:0:0:
234,109,75450,1,2,1:2:0:0:
236,98,75527,1,2,0:0:0:0:
238,88,75604,1,0,1:2:0:0:
58,47,75760,2,0,L|176:69,1,85,2|0,1:2|1:2,0:0:0:0:
329,96,76069,1,2,1:2:0:0:
342,16,76224,1,10,0:2:0:0:
399,203,76378,6,0,B|458:141|458:141|406:54,1,170,2|2,1:2|1:2,0:0:0:0:
282,231,76842,1,10,0:2:0:0:
363,305,76997,1,2,0:0:0:0:
254,343,77151,6,0,L|77:315,1,170,6|10,1:2|0:2,0:0:0:0:
13,177,77615,2,0,L|30:269,1,85,2|8,1:2|0:2,0:0:0:0:
113,238,77925,1,2,0:0:0:0:
121,231,78002,1,2,0:0:0:0:
129,224,78079,1,2,1:2:0:0:
6,345,78234,1,10,0:2:0:0:
216,258,78389,5,0,1:2:0:0:
216,258,78543,2,0,L|302:236,2,85,2|10|2,1:2|0:2|0:0,0:0:0:0:
193,180,79007,1,2,1:2:0:0:
177,103,79162,1,2,1:2:0:0:
94,102,79316,1,10,0:2:0:0:
78,25,79471,1,2,1:2:0:0:
259,102,79626,5,6,1:2:0:0:
426,108,83337,5,2,0:0:0:0:
428,117,83646,1,2,0:0:0:0:
246,9,83955,6,0,B|274:29|274:29|252:151,1,136,6|8,1:2|0:2,0:0:0:0:
384,35,84418,1,2,0:0:0:0:
384,35,84573,2,0,B|350:44|350:44|327:166,1,136,2|8,0:0|0:2,0:0:0:0:
172,85,85037,5,2,0:0:0:0:
172,85,85192,2,0,P|141:60|95:55,1,68,2|0,1:2|0:0,0:0:0:0:
44,119,85501,2,0,P|100:134|164:184,2,136,10|2|10,0:2|0:0|0:2,0:0:0:0:
231,308,86429,6,0,L|252:158,1,136,2|8,1:2|0:2,0:0:0:0:
320,332,86893,1,2,0:0:0:0:
320,332,87047,2,0,L|341:182,1,136,2|8,0:0|0:2,0:0:0:0:
429,355,87511,1,2,0:0:0:0:
493,185,87666,5,10,0:2:0:0:
502,203,87743,1,8,0:2:0:0:
511,221,87820,2,0,L|455:187,1,42.5,0|0,1:2|1:2,0:0:0:0:
401,106,87975,5,10,0:2:0:0:
419,97,88052,1,8,0:2:0:0:
437,88,88129,2,0,L|403:144,1,42.5,8|8,0:2|0:2,0:0:0:0:
337,192,88284,6,0,L|210:168,1,93.5000028533936,6|2,1:2|0:0,0:0:0:0:
173,143,88515,1,2,0:0:0:0:
173,143,88593,2,0,L|159:88,1,46.7500014266968,10|2,0:2|0:0,0:0:0:0:
220,38,88747,1,2,1:2:0:0:
0,136,88902,2,0,L|127:160,1,93.5000028533936,2|0,1:2|1:2,0:0:0:0:
91,153,89211,1,10,0:2:0:0:
275,98,89366,1,2,0:0:0:0:
168,227,89521,6,0,L|190:347,1,93.5000028533936,2|2,1:2|0:0,0:0:0:0:
260,357,89753,1,2,0:0:0:0:
260,357,89830,2,0,L|321:367,1,46.7500014266968,10|0,0:2|0:0,0:0:0:0:
384,381,89985,1,2,1:2:0:0:
180,325,90139,2,0,L|75:348,1,93.5000028533936,2|0,1:2|1:2,0:0:0:0:
291,173,90448,1,10,0:2:0:0:
96,159,90603,1,0,1:2:0:0:
236,22,90758,6,0,P|280:35|290:101,1,93.5000028533936,2|2,1:2|0:0,0:0:0:0:
217,128,90990,1,2,0:0:0:0:
217,128,91067,2,0,L|150:117,1,46.7500014266968,10|0,0:2|0:0,0:0:0:0:
299,166,91222,1,2,1:2:0:0:
444,59,91376,2,0,P|400:72|390:138,1,93.5000028533936,2|0,1:2|1:2,0:0:0:0:
444,183,91686,2,0,L|474:188,2,23.3750007133484,8|0|0,0:2|0:0|0:0,0:0:0:0:
396,250,91840,2,0,L|366:245,2,23.3750007133484,2|0|0,1:2|0:0|0:0,0:0:0:0:
483,313,91995,6,0,P|424:331|392:361,1,93.5000028533936,2|2,1:2|0:0,0:0:0:0:
328,378,92227,1,2,0:0:0:0:
328,378,92304,2,0,P|299:353|259:347,1,46.7500014266968,10|0,0:2|0:0,0:0:0:0:
250,282,92459,1,0,1:2:0:0:
124,372,92613,6,0,P|198:358|232:312,1,93.5000028533936,6|2,1:2|0:0,0:0:0:0:
212,210,92844,1,2,0:0:0:0:
212,210,92922,2,0,P|184:190|154:187,1,46.7500014266968,10|0,0:2|0:0,0:0:0:0:
102,223,93076,1,2,1:2:0:0:
289,184,93231,2,0,P|312:131|353:120,1,93.5000028533936,2|0,1:2|1:2,0:0:0:0:
342,119,93540,1,10,0:2:0:0:
499,191,93695,1,2,1:2:0:0:
418,285,93850,6,0,L|400:172,1,93.5000028533936,2|2,1:2|0:0,0:0:0:0:
263,0,94159,2,0,P|230:15|227:68,1,93.5000028533936,10|0,0:2|1:2,0:0:0:0:
341,40,94391,1,0,1:2:0:0:
341,40,94468,2,0,L|396:27,1,46.7500014266968,2|0,1:2|0:0,0:0:0:0:
391,111,94623,2,0,L|345:121,1,46.7500014266968,0|0,1:2|0:0,0:0:0:0:
226,67,94777,2,0,L|66:32,1,140.25000428009,10|0,0:2|0:0,0:0:0:0:
85,41,95087,6,0,L|102:149,1,93.5000028533936,2|2,1:2|0:0,0:0:0:0:
171,185,95319,1,2,0:0:0:0:
171,185,95396,2,0,L|188:120,1,46.7500014266968,10|0,0:2|0:0,0:0:0:0:
84,215,95551,1,2,1:2:0:0:
241,281,95705,2,0,L|133:259,1,93.5000028533936,2|0,1:2|1:2,0:0:0:0:
326,263,96015,1,10,0:2:0:0:
305,339,96169,1,2,0:0:0:0:
486,324,96324,6,0,P|437:306|432:247,1,93.5000028533936,2|0,1:2|0:0,0:0:0:0:
229,181,96633,2,0,P|278:163|283:104,1,93.5000028533936,10|0,0:2|0:0,0:0:0:0:
483,132,96942,2,0,L|493:83,3,46.7500014266968,10|8|8|8,0:2|0:2|0:2|0:2,0:0:0:0:
398,126,97252,2,0,L|408:175,3,46.7500014266968,8|8|8|8,0:2|0:2|0:2|0:2,0:0:0:0:
340,64,97561,5,6,1:2:0:0:
373,27,102509,5,6,1:2:0:0:
400,108,102664,1,2,0:0:0:0:
330,150,102819,2,0,L|204:161,1,93.5000028533936,10|0,0:2|1:2,0:0:0:0:
157,192,103051,1,2,1:2:0:0:
157,192,103128,2,0,L|146:256,1,46.7500014266968,2|0,1:2|0:0,0:0:0:0:
166,102,103283,1,2,1:2:0:0:
40,69,103437,2,0,P|62:125|113:125,1,93.5000028533936,10|0,0:2|1:2,0:0:0:0:
307,17,103747,5,2,1:2:0:0:
386,69,103901,1,2,0:0:0:0:
302,25,104056,5,10,0:2:0:0:
299,116,104210,1,2,1:2:0:0:
459,141,104365,5,2,1:2:0:0:
470,138,104442,1,0,0:0:0:0:
481,135,104519,1,2,1:2:0:0:
380,159,104674,1,10,0:2:0:0:
380,159,104829,1,2,1:2:0:0:
330,229,104984,5,2,1:2:0:0:
388,289,105138,1,2,0:0:0:0:
337,353,105293,2,0,L|224:329,1,93.5000028533936,10|0,0:2|1:2,0:0:0:0:
174,285,105525,1,2,1:2:0:0:
174,285,105602,2,0,L|162:224,1,46.7500014266968,2|0,1:2|0:0,0:0:0:0:
92,283,105757,1,2,1:2:0:0:
244,241,105911,2,0,P|282:198|272:133,1,93.5000028533936,10|0,0:2|1:2,0:0:0:0:
119,15,106221,5,2,1:2:0:0:
94,97,106375,1,2,0:0:0:0:
173,122,106530,5,10,0:2:0:0:
198,40,106684,1,2,0:0:0:0:
344,117,106839,5,2,1:2:0:0:
355,120,106994,1,2,0:0:0:0:
366,123,107149,1,2,0:0:0:0:
25,189,107458,5,6,1:2:0:0:
182,153,107613,1,2,0:0:0:0:
89,113,107767,2,0,L|121:247,1,110.499994941712,10|0,0:2|0:0,0:0:0:0:
61,292,108076,2,0,L|-8:308,3,55.2499974708558,2|2|2|2,1:2|0:0|0:0|0:0,0:0:0:0:
151,313,108386,2,0,L|167:382,3,55.2499974708558,10|2|2|2,0:2|0:0|0:0|0:0,0:0:0:0:
234,321,108695,5,2,1:2:0:0:
288,256,108850,1,2,0:0:0:0:
294,229,108927,1,2,0:0:0:0:
301,202,109004,1,10,0:2:0:0:
376,153,109159,1,2,0:0:0:0:
214,198,109314,2,0,L|91:215,1,110.499994941712,2|2,1:2|0:0,0:0:0:0:
99,208,109545,1,2,0:0:0:0:
93,202,109623,2,0,L|74:83,1,110.499994941712,10|2,0:2|0:0,0:0:0:0:
256,52,109932,5,0,1:2:0:0:
256,52,110087,1,0,0:0:0:0:
168,73,110241,1,8,0:2:0:0:
238,139,110396,1,2,0:0:0:0:
329,118,110551,5,2,1:2:0:0:
355,111,110628,1,2,0:0:0:0:
382,104,110705,1,2,0:0:0:0:
409,98,110782,1,2,0:0:0:0:
436,91,110860,2,0,L|454:26,3,55.2499974708558,10|2|2|2,0:2|0:0|1:2|0:0,0:0:0:0:
408,187,111169,6,0,L|420:252,3,55.2499974708558,2|2|2|2,1:2|0:0|0:0|0:0,0:0:0:0:
332,276,111478,2,0,L|321:221,3,55.2499974708558,10|2|2|2,0:2|0:0|0:0|0:0,0:0:0:0:
251,304,111788,2,0,L|140:327,1,110.499994941712,2|2,1:2|0:0,0:0:0:0:
83,265,112097,1,10,0:2:0:0:
83,265,112252,1,2,0:0:0:0:
236,168,112406,5,6,1:2:0:0:
149,161,112561,2,0,L|164:232,2,55.2499974708558,2|2|10,0:0|0:0|0:2,0:0:0:0:
198,89,112870,1,2,0:0:0:0:
285,101,113025,2,0,L|273:46,2,55.2499974708558,2|0|2,1:2|0:0|0:0,0:0:0:0:
363,66,113334,1,10,0:2:0:0:
363,66,113489,1,2,0:0:0:0:
344,169,113643,6,0,P|411:164|478:141,1,110.499994941712,2|2,1:2|0:0,0:0:0:0:
264,247,113953,2,0,P|197:252|130:275,1,110.499994941712,10|2,0:2|0:0,0:0:0:0:
371,266,114262,1,2,1:2:0:0:
371,266,114417,1,2,0:0:0:0:
241,156,114571,1,10,0:2:0:0:
241,156,114726,1,2,0:0:0:0:
442,20,114881,6,0,P|348:45|349:156,1,220.999989883423,2|10,1:2|0:2,0:0:0:0:
346,153,115344,1,0,0:0:0:0:
222,50,115499,1,0,1:2:0:0:
141,62,115654,1,0,0:0:0:0:
65,73,115808,1,8,0:2:0:0:
53,69,115886,1,8,0:2:0:0:
41,65,115963,1,8,0:2:0:0:
52,158,116118,6,0,L|40:211,3,55.2499974708558,10|10|2|2,0:2|0:2|1:2|1:2,0:0:0:0:
135,184,116427,2,0,L|123:237,3,55.2499974708558,10|2|2|2,0:2|0:0|0:0|0:0,0:0:0:0:
217,215,116736,1,2,1:2:0:0:
248,206,116813,1,2,1:2:0:0:
279,197,116890,1,2,1:2:0:0:
311,189,116967,1,2,1:2:0:0:
342,180,117045,2,0,L|354:233,3,55.2499974708558,10|2|2|2,0:2|0:0|0:0|0:0,0:0:0:0:
428,186,117355,6,0,L|457:62,1,118.999996368408,2|2,1:2|1:2,0:0:0:0:
316,0,117664,2,0,L|288:115,1,118.999996368408,10|2,0:2|1:2,0:0:0:0:
144,67,117973,2,0,L|202:56,3,59.4999981842042,10|0|2|0,0:2|0:0|1:2|0:0,0:0:0:0:
58,87,118283,1,10,0:2:0:0:
58,87,118361,1,0,0:0:0:0:
58,87,118438,2,0,L|-23:101,1,59.4999981842042,2|0,1:2|0:0,0:0:0:0:
119,150,118592,6,0,L|91:278,1,118.999996368408,10|2,0:2|1:2,0:0:0:0:
197,215,118901,1,10,0:2:0:0:
197,215,118979,1,0,0:0:0:0:
197,215,119056,2,0,L|278:201,1,59.4999981842042,2|0,1:2|0:0,0:0:0:0:
341,191,119210,1,10,0:2:0:0:
341,191,119288,1,0,0:0:0:0:
341,191,119365,2,0,L|422:177,1,59.4999981842042,2|0,1:2|0:0,0:0:0:0:
283,123,119520,5,10,0:2:0:0:
311,272,119674,1,2,1:2:0:0:
482,172,119829,6,0,L|466:238,7,42.5,10|2|2|2|10|2|2|2,0:2|0:0|1:2|0:0|0:2|0:0|1:2|0:0,0:0:0:0:
429,96,120448,5,10,0:2:0:0:
510,86,120602,1,2,1:2:0:0:
349,79,120757,2,0,L|184:43,1,118.999996368408,10|0,0:2|1:2,0:0:0:0:
110,16,121066,5,2,1:2:0:0:
116,44,121143,1,10,0:2:0:0:
123,73,121220,1,10,0:2:0:0:
130,102,121297,1,10,0:2:0:0:
136,131,121375,2,0,L|212:150,3,59.4999981842042,10|2|2|2,0:2|1:2|1:2|1:2,0:0:0:0:
269,197,121685,2,0,L|287:121,3,59.4999981842042,2|2|2|10,1:2|1:2|1:2|0:2,0:0:0:0:
359,183,121994,1,2,1:2:0:0:
359,183,122149,1,2,0:0:0:0:
267,276,122303,6,0,L|132:305,1,118.999996368408,14|2,0:2|1:2,0:0:0:0:
143,300,122535,1,2,0:0:0:0:
135,297,122613,2,0,L|59:279,1,59.4999981842042,10|2,0:2|0:0,0:0:0:0:
12,327,122767,1,2,1:2:0:0:
158,220,122922,1,10,0:2:0:0:
158,220,123076,1,2,1:2:0:0:
39,205,123231,2,0,L|18:76,1,118.999996368408,10|2,0:2|1:2,0:0:0:0:
57,17,123540,5,10,0:2:0:0:
57,17,123695,1,2,1:2:0:0:
142,99,123850,2,0,L|160:26,3,59.4999981842042,10|2|2|2,0:2|0:0|1:2|0:0,0:0:0:0:
237,100,124159,2,0,L|255:173,3,59.4999981842042,10|2|2|2,0:2|0:0|1:2|0:0,0:0:0:0:
333,97,124468,2,0,L|351:24,3,59.4999981842042,10|2|2|2,0:2|0:0|1:2|0:0,0:0:0:0:
439,145,124777,6,0,B|413:162|413:162|393:262,1,118.999996368408,10|2,0:2|1:2,0:0:0:0:
320,310,125087,2,0,L|309:232,3,59.4999981842042,10|2|2|2,0:2|0:0|1:2|0:0,0:0:0:0:
234,229,125396,1,10,0:2:0:0:
204,223,125473,1,2,0:0:0:0:
175,217,125550,1,2,1:2:0:0:
146,211,125627,1,2,0:0:0:0:
117,205,125705,2,0,L|142:348,1,118.999996368408,10|8,0:2|0:2,0:0:0:0:
137,322,125937,1,0,0:0:0:0:
145,331,126015,6,0,L|220:349,3,59.4999981842042,2|0|8|10,1:2|1:2|0:2|0:2,0:0:0:0:
274,297,126324,2,0,L|349:315,3,59.4999981842042,10|0|0|2,0:2|1:2|1:2|0:0,0:0:0:0:
394,361,126633,2,0,L|469:379,3,59.4999981842042,0|0|0|8,1:2|0:0|1:2|0:2,0:0:0:0:
444,292,126942,2,0,L|479:104,1,178.499994552612,4|0,1:2|0:0,0:0:0:0:
438,44,127252,5,6,1:2:0:0:
256,192,127329,12,0,132045,0:0:0:0:
430,141,132200,5,2,1:2:0:0:
433,128,132509,1,0,1:2:0:0:
436,115,132819,1,0,1:2:0:0:
439,102,133128,1,0,1:2:0:0:
331,12,133437,5,2,1:2:0:0:
328,25,133746,1,0,1:2:0:0:
220,100,134056,5,2,1:2:0:0:
164,5,134365,1,2,1:2:0:0:
87,129,134674,5,2,1:2:0:0:
74,126,134983,1,0,1:2:0:0:
61,123,135293,1,0,1:2:0:0:
48,120,135602,1,0,1:2:0:0:
174,144,135911,5,2,1:2:0:0:
187,147,136220,1,0,1:2:0:0:
200,150,136530,1,0,1:2:0:0:
213,153,136839,1,0,1:2:0:0:
327,227,137149,5,2,1:2:0:0:
387,180,137303,2,0,P|422:201|415:260,1,85,2|8,0:0|0:2,0:0:0:0:
324,232,137613,1,2,0:0:0:0:
325,130,137767,2,0,P|360:100|419:107,1,85,2|0,1:2|1:2,0:0:0:0:
470,131,138076,1,2,1:2:0:0:
254,177,138231,6,0,P|195:156|153:128,2,85,2|0|2,0:0|1:2|0:0,0:0:0:0:
233,269,138695,2,0,P|173:232|106:221,1,127.5,2|0,1:2|0:0,0:0:0:0:
117,221,139004,1,2,1:2:0:0:
96,143,139159,1,0,0:0:0:0:
8,296,139314,1,2,1:2:0:0:
33,212,139468,1,0,0:0:0:0:
138,337,139623,6,0,L|151:383,3,42.5,2|2|2|2,1:2|0:0|0:0|0:0,0:0:0:0:
228,347,139932,1,2,1:2:0:0:
228,347,140087,1,2,0:0:0:0:
313,292,140241,2,0,B|301:302|301:302|324:385,1,85,2|0,1:2|0:0,0:0:0:0:
468,338,140551,1,2,1:2:0:0:
392,323,140705,1,2,0:0:0:0:
344,222,140860,6,0,P|334:142|404:102,1,170,2|2,1:2|1:2,0:0:0:0:
502,259,141324,1,2,0:0:0:0:
482,78,141478,1,2,1:2:0:0:
482,78,141633,2,0,P|445:33|404:27,2,85,2|0|0,0:0|1:2|0:0,0:0:0:0:
437,190,142097,6,0,L|235:140,1,170,2|8,1:2|0:2,0:0:0:0:
241,78,142561,1,2,0:0:0:0:
240,233,142716,2,0,L|280:123,1,85,2|0,1:2|0:0,0:0:0:0:
141,73,143025,2,0,L|181:183,1,85,2|0,1:2|0:0,0:0:0:0:
11,315,143334,6,0,B|119:298|51:249|152:233,1,170,2|2,1:2|1:2,0:0:0:0:
191,304,143798,1,0,0:0:0:0:
271,283,143953,2,0,P|313:309|308:360,1,85,2|0,1:2|0:0,0:0:0:0:
225,213,144262,2,0,P|268:189|310:219,1,85,2|0,1:2|0:0,0:0:0:0:
377,256,144571,5,2,1:2:0:0:
437,201,144726,1,2,0:0:0:0:
387,139,144881,1,2,1:2:0:0:
446,86,145035,1,2,0:0:0:0:
304,127,145190,2,0,L|125:87,1,170,2|2,1:2|1:2,0:0:0:0:
66,122,145654,1,2,0:0:0:0:
13,13,145808,5,2,0:3:0:0:
10,8,146118,1,2,0:3:0:0:
7,3,146427,1,2,0:3:0:0:
12,178,147045,6,0,L|88:163,3,55.2499974708558,6|0|0|0,3:2|1:2|1:2|1:2,0:0:0:0:
154,183,147355,2,0,L|139:107,3,55.2499974708558,0|0|0|0,1:2|1:2|1:2|1:2,0:0:0:0:
282,127,147664,2,0,L|228:138,3,55.2499974708558,0|0|0|0,1:2|1:2|1:2|1:2,0:0:0:0:
358,84,147973,2,0,L|368:138,3,55.2499974708558,8|0|0|0,0:2|1:2|1:2|1:2,0:0:0:0:
454,164,148283,5,10,1:2:0:0:
446,190,148360,1,8,0:2:0:0:
438,216,148437,1,0,1:2:0:0:
430,243,148514,1,0,1:2:0:0:
422,269,148592,2,0,L|194:322,1,220.999989883423,0|8,1:2|0:2,0:0:0:0:
382,362,149056,1,0,1:2:0:0:
222,232,149210,2,0,L|208:172,1,55.2499974708558,8|0,0:2|0:0,0:0:0:0:
282,147,149365,2,0,L|294:200,1,55.2499974708558,0|0,1:2|0:0,0:0:0:0:
130,228,149520,6,0,L|63:207,3,55.2499974708558,6|0|0|0,3:2|1:2|1:2|1:2,0:0:0:0:
120,144,149829,1,0,1:2:0:0:
113,117,149906,1,0,1:2:0:0:
106,90,149983,1,0,1:2:0:0:
99,63,150060,1,0,1:2:0:0:
92,36,150138,2,0,L|144:52,3,55.2499974708558,2|0|0|0,3:2|1:2|1:2|1:2,0:0:0:0:
225,29,150448,2,0,L|277:45,3,55.2499974708558,0|0|0|0,1:2|1:2|1:2|1:2,0:0:0:0:
332,130,150757,5,10,3:2:0:0:
382,15,150911,1,2,1:2:0:0:
438,97,151066,5,2,1:2:0:0:
375,11,151221,1,2,0:0:0:0:
243,123,151375,5,2,1:2:0:0:
505,258,151685,1,10,0:2:0:0:
170,185,151994,6,0,P|74:184|73:303,1,237.999992736817,6|8,3:2|0:2,0:0:0:0:
71,301,152458,1,0,0:0:0:0:
298,261,152613,2,0,L|151:280,1,118.999996368408,2|0,1:2|0:0,0:0:0:0:
388,311,152922,1,10,0:2:0:0:
388,311,153076,1,0,1:2:0:0:
266,32,153231,6,0,B|261:111|310:135|333:102|381:155|376:224,1,237.999992736817,6|8,3:2|0:2,0:0:0:0:
376,223,153695,1,2,0:0:0:0:
191,104,153850,2,0,P|121:87|54:65,1,118.999996368408,2|0,1:2|0:0,0:0:0:0:
350,45,154159,1,10,0:2:0:0:
350,45,154314,1,2,1:2:0:0:
290,198,154468,6,0,P|190:220|44:274,1,237.999992736817,6|8,3:2|0:2,0:0:0:0:
62,265,154932,1,2,1:2:0:0:
205,118,155087,2,0,P|141:143|71:151,2,118.999996368408,6|0|8,3:2|0:0|0:2,0:0:0:0:
19,193,155551,1,0,0:0:0:0:
99,362,155705,5,10,3:2:0:0:
103,355,155783,1,8,0:2:0:0:
107,348,155860,2,0,L|250:311,1,118.999996368408,2|10,1:2|0:2,0:0:0:0:
283,371,156169,1,2,0:0:0:0:
363,347,156324,1,8,0:2:0:0:
363,347,156478,1,0,0:0:0:0:
259,246,156633,1,10,0:2:0:0:
254,231,156710,1,2,0:0:0:0:
249,217,156787,1,2,0:0:0:0:
244,203,156864,1,2,0:0:0:0:
239,189,156942,6,0,P|303:169|354:132,1,118.999996368408,6|2,3:2|0:0,0:0:0:0:
385,69,157252,1,10,0:2:0:0:
512,219,157406,2,0,P|455:176|421:134,1,118.999996368408,2|0,0:0|1:2,0:0:0:0:
380,225,157716,1,2,0:0:0:0:
512,115,157870,1,8,0:2:0:0:
299,75,158025,6,0,P|234:61|52:15,1,237.999992736817,2|2,0:0|0:0,0:0:0:0:
0,86,158489,1,10,0:2:0:0:
83,112,158643,1,2,0:0:0:0:
95,234,158798,2,0,P|24:205|37:137,1,118.999996368408,2|0,1:2|0:0,0:0:0:0:
179,266,159107,2,0,P|189:341|123:364,1,118.999996368408,10|0,0:2|0:0,0:0:0:0:
167,175,159417,6,0,P|240:159|306:142,1,118.999996368408,2|2,3:2|0:0,0:0:0:0:
336,89,159726,1,10,0:2:0:0:
441,232,159881,2,0,P|411:168|347:176,1,118.999996368408,2|0,0:0|1:2,0:0:0:0:
359,325,160190,1,2,0:0:0:0:
362,335,160267,1,2,0:0:0:0:
365,345,160344,1,8,0:2:0:0:
441,372,160499,1,2,0:0:0:0:
323,247,160654,6,0,L|79:294,1,237.999992736817,2|10,1:2|0:2,0:0:0:0:
89,292,161118,1,2,0:0:0:0:
204,190,161272,2,0,L|234:61,1,118.999996368408,2|2,1:2|0:0,0:0:0:0:
89,194,161582,1,10,0:2:0:0:
100,197,161659,1,2,0:0:0:0:
112,200,161736,1,2,0:0:0:0:
303,143,161891,6,0,L|441:116,1,118.999996368408,6|2,3:2|0:0,0:0:0:0:
478,59,162200,1,10,0:2:0:0:
445,242,162355,2,0,L|422:125,1,118.999996368408,2|0,0:0|1:2,0:0:0:0:
347,216,162664,1,2,0:0:0:0:
266,231,162819,1,8,0:2:0:0:
153,363,162973,6,0,B|116:305|116:305|300:357,1,237.999992736817,2|2,0:0|0:0,0:0:0:0:
184,244,163437,1,10,0:2:0:0:
62,373,163592,1,2,0:0:0:0:
359,384,163747,2,0,L|390:250,1,118.999996368408,2|0,3:2|0:0,0:0:0:0:
11,179,164056,2,0,L|42:313,1,118.999996368408,10|0,3:2|1:2,0:0:0:0:
421,148,164365,6,0,P|307:134|294:240,1,237.999992736817,6|8,1:2|0:2,0:0:0:0:
289,233,164829,1,2,0:0:0:0:
461,279,164984,1,2,1:2:0:0:
465,270,165061,1,2,0:0:0:0:
469,261,165138,1,2,0:0:0:0:
278,326,165293,2,0,P|217:302|215:228,1,118.999996368408,10|2,0:2|0:0,0:0:0:0:
150,150,165602,5,10,3:2:0:0:
122,139,165679,1,8,0:2:0:0:
94,128,165756,1,0,1:2:0:0:
66,118,165833,1,0,1:2:0:0:
38,107,165911,2,0,L|17:166,3,59.4999981842042,8|0|0|0,0:2|0:0|1:2|0:0,0:0:0:0:
121,52,166221,2,0,L|180:73,3,59.4999981842042,10|8|8|8,3:2|0:2|0:2|0:2,0:0:0:0:
237,133,166530,5,10,0:0:0:0:
251,128,166607,1,2,0:0:0:0:
265,123,166684,1,2,0:0:0:0:
279,118,166761,1,2,0:0:0:0:
293,113,166839,6,0,L|268:264,1,127.500004863739,6|2,3:2|0:0,0:0:0:0:
370,86,167149,1,10,0:2:0:0:
194,274,167303,2,0,L|68:253,1,127.500004863739,2|0,0:0|1:2,0:0:0:0:
224,364,167613,1,2,0:0:0:0:
253,353,167690,1,0,0:0:0:0:
263,324,167767,1,8,0:2:0:0:
187,66,167922,6,0,P|71:61|95:190,1,255.000009727478,2|2,0:0|0:0,0:0:0:0:
326,77,168386,1,10,0:2:0:0:
247,136,168540,1,2,0:0:0:0:
297,237,168695,2,0,L|172:205,1,127.500004863739,2|2,1:2|0:0,0:0:0:0:
375,163,169004,2,0,L|500:131,1,127.500004863739,10|2,0:2|0:0,0:0:0:0:
452,370,169314,6,0,P|405:347|422:265,1,127.500004863739,2|2,3:2|0:0,0:0:0:0:
475,238,169623,1,10,0:2:0:0:
315,354,169777,2,0,P|225:336|152:316,1,127.500004863739,2|0,0:0|1:2,0:0:0:0:
73,244,170087,1,2,0:0:0:0:
102,255,170164,1,0,0:0:0:0:
112,284,170241,1,8,0:2:0:0:
27,326,170396,1,2,0:0:0:0:
190,230,170551,6,0,P|219:249|254:246,3,63.7500024318696,2|2|2|2,1:2|0:0|0:0|0:0,0:0:0:0:
231,113,170860,2,0,P|229:147|249:176,3,63.7500024318696,10|2|2|2,0:2|0:0|0:0|0:0,0:0:0:0:
352,90,171169,2,0,P|321:105|306:137,3,63.7500024318696,2|2|2|2,1:2|0:0|0:0|0:0,0:0:0:0:
461,233,171478,5,10,0:2:0:0:
429,236,171555,1,2,0:0:0:0:
400,223,171632,1,2,0:0:0:0:
382,198,171709,1,2,0:0:0:0:
380,166,171788,6,0,P|442:139|507:137,1,127.500004863739,6|2,3:2|0:0,0:0:0:0:
325,257,172097,1,10,0:2:0:0:
433,362,172252,2,0,P|457:297|463:214,1,127.500004863739,2|0,0:0|1:2,0:0:0:0:
312,344,172561,1,2,0:0:0:0:
322,373,172638,1,0,0:0:0:0:
351,384,172715,1,8,0:2:0:0:
248,285,172870,6,0,L|-5:226,1,255.000009727478,2|2,0:0|0:0,0:0:0:0:
38,324,173334,1,10,0:2:0:0:
195,192,173489,1,2,0:0:0:0:
56,56,173643,2,0,B|20:106|20:106|62:162,1,127.500004863739,2|0,3:2|0:0,0:0:0:0:
332,259,173953,2,0,B|368:209|368:209|326:153,1,127.500004863739,10|0,3:2|0:0,0:0:0:0:
128,104,174262,6,0,L|200:90,3,63.7500024318696,10|10|2|2,3:2|0:2|1:2|1:2,0:0:0:0:
239,27,174571,2,0,L|311:13,3,63.7500024318696,10|2|2|10,0:2|0:0|1:2|0:2,0:0:0:0:
352,81,174881,5,8,0:2:0:0:
381,92,174958,1,8,0:0:0:0:
411,104,175035,1,8,0:2:0:0:
440,116,175112,1,8,0:0:0:0:
470,128,175190,2,0,L|497:265,1,127.500004863739,10|2,0:2|0:0,0:0:0:0:
376,360,175499,6,0,P|402:341|451:328,3,63.7500024318696,10|2|10|10,3:2|0:0|0:2|0:2,0:0:0:0:
291,343,175808,2,0,P|273:315|232:286,3,63.7500024318696,10|10|10|2,0:2|0:2|0:2|1:2,0:0:0:0:
348,276,176118,1,2,1:2:0:0:
354,244,176195,1,10,0:2:0:0:
361,213,176272,1,10,0:2:0:0:
368,182,176349,1,10,0:2:0:0:
375,151,176427,2,0,L|459:120,3,63.7500024318696,10|2|10|10,0:2|0:0|0:2|0:2,0:0:0:0:
301,103,176736,6,0,L|324:4,3,63.7500024318696,6|2|10|2,1:2|0:0|0:2|0:0,0:0:0:0:
215,62,177045,2,0,L|192:-37,3,63.7500024318696,2|2|10|2,1:2|0:0|0:2|0:0,0:0:0:0:
124,72,177355,5,2,1:2:0:0:
92,79,177432,1,2,0:0:0:0:
61,86,177509,1,10,0:2:0:0:
30,93,177586,1,2,0:0:0:0:
0,100,177664,2,0,L|26:16,3,63.7500024318696,2|2|10|2,1:2|0:0|0:2|0:0,0:0:0:0:
30,191,177973,6,0,P|54:280|52:346,1,127.500004863739,2|8,1:2|0:2,0:0:0:0:
133,232,178283,1,2,1:2:0:0:
220,226,178437,2,0,P|213:262|196:297,3,63.7500024318696,10|2|2|2,0:2|0:0|1:2|0:0,0:0:0:0:
309,237,178747,2,0,P|302:201|285:166,3,63.7500024318696,10|2|2|0,0:2|0:0|1:2|0:0,0:0:0:0:
283,318,179056,1,10,0:2:0:0:
225,104,179210,6,0,L|156:86,3,63.7500024318696,2|2|10|2,1:2|0:0|0:2|0:0,0:0:0:0:
296,32,179520,2,0,L|227:14,3,63.7500024318696,2|2|10|2,1:2|0:0|0:2|0:0,0:0:0:0:
364,97,179829,5,2,1:2:0:0:
394,88,179906,1,0,0:0:0:0:
425,79,179983,1,10,0:2:0:0:
456,71,180060,1,2,0:0:0:0:
486,62,180138,2,0,L|514:-13,3,63.7500024318696,2|2|10|0,1:2|0:0|0:2|0:0,0:0:0:0:
474,155,180448,5,2,1:2:0:0:
474,155,180525,1,2,0:0:0:0:
474,155,180602,2,0,L|411:176,1,63.7500024318696,10|2,0:2|0:0,0:0:0:0:
338,210,180757,2,0,L|275:231,3,63.7500024318696,2|2|10|2,1:2|0:0|0:2|0:0,0:0:0:0:
215,175,181066,2,0,P|224:114|280:89,1,127.500004863739,10|2,0:2|1:2,0:0:0:0:
193,253,181375,5,10,0:2:0:0:
200,283,181452,1,10,0:2:0:0:
207,314,181529,1,10,0:2:0:0:
215,345,181606,1,10,0:2:0:0:
222,376,181684,5,6,1:2:0:0:
290,313,181839,1,10,0:2:0:0:
134,336,181994,2,0,L|9:304,1,127.500004863739,2|8,1:2|0:2,0:0:0:0:
10,304,182226,1,2,0:0:0:0:
10,304,182303,1,0,1:2:0:0:
142,165,182458,1,10,0:2:0:0:
51,118,182613,2,0,L|77:266,1,127.500004863739,2|8,1:2|0:2,0:0:0:0:
256,106,182922,5,2,1:2:0:0:
256,106,183076,2,0,L|79:60,1,127.500004863739,10|2,0:2|1:2,0:0:0:0:
132,73,183308,1,0,0:0:0:0:
132,73,183386,1,10,0:2:0:0:
228,184,183540,1,2,1:2:0:0:
312,164,183695,1,10,0:2:0:0:
438,47,183850,2,0,P|389:84|413:155,1,127.500004863739,2|10,1:2|0:2,0:0:0:0:
503,263,184159,5,2,1:2:0:0:
503,263,184236,1,0,0:0:0:0:
503,263,184314,2,0,P|430:233|364:229,1,127.500004863739,10|0,0:2|1:2,0:0:0:0:
489,152,184623,1,8,0:2:0:0:
489,152,184777,1,2,1:2:0:0:
312,164,184932,1,10,0:2:0:0:
227,334,185087,2,0,P|293:306|284:243,1,127.500004863739,2|8,1:2|0:2,0:0:0:0:
224,207,185396,6,0,L|162:223,3,63.7500024318696,10|10|10|10,0:2|0:2|0:2|0:2,0:0:0:0:
171,135,185705,2,0,L|150:52,3,63.7500024318696,2|2|10|2,1:2|0:0|0:2|0:0,0:0:0:0:
226,29,186015,1,10,0:2:0:0:
249,108,186169,1,0,1:2:0:0:
67,118,186324,5,10,0:2:0:0:
70,133,186401,1,2,0:0:0:0:
74,148,186478,1,2,0:0:0:0:
78,164,186555,1,2,0:0:0:0:
81,179,186618,6,0,L|41:330,1,127.500004863739,6|2,1:2|1:2,0:0:0:0:
207,249,186927,2,0,L|118:268,3,63.7500024318696,10|2|2|2,0:2|0:0|1:2|0:0,0:0:0:0:
288,230,187236,2,0,L|350:216,3,63.7500024318696,10|2|2|2,0:2|0:0|1:2|0:0,0:0:0:0:
232,176,187545,1,10,0:2:0:0:
225,144,187622,1,2,0:0:0:0:
219,113,187699,1,2,0:2:0:0:
213,82,187776,1,2,0:0:0:0:
206,51,187854,5,10,0:2:0:0:
333,74,188009,1,2,1:2:0:0:
324,104,188086,1,2,0:0:0:0:
316,135,188164,2,0,L|387:111,3,63.7500024318696,10|2|2|2,0:2|0:0|1:2|0:0,0:0:0:0:
409,39,188473,5,10,0:2:0:0:
488,97,188628,1,2,1:2:0:0:
478,102,188705,1,2,0:0:0:0:
468,107,188782,2,0,L|438:240,1,127.500004863739,10|2,0:2|1:2,0:0:0:0:
510,294,189092,5,10,0:2:0:0:
417,321,189246,1,2,1:2:0:0:
352,250,189401,2,0,L|268:230,3,63.7500024318696,10|0|2|0,0:2|0:0|1:2|0:0,0:0:0:0:
323,340,189710,2,0,L|239:320,3,63.7500024318696,10|2|2|2,0:2|0:0|1:2|0:0,0:0:0:0:
210,254,190020,5,10,0:2:0:0:
210,254,190097,1,2,0:0:0:0:
210,254,190174,2,0,P|169:234|164:202,1,63.7500024318696,10|2,0:2|0:0,0:0:0:0:
84,235,190329,2,0,P|80:189|106:169,3,63.7500024318696,2|10|10|10,1:2|0:2|0:2|0:2,0:0:0:0:
164,140,190638,5,10,0:2:0:0:
161,19,190793,1,2,1:2:0:0:
161,19,190870,1,2,0:0:0:0:
161,19,190947,2,0,P|96:38|103:109,1,127.500004863739,2|2,1:2|1:2,0:0:0:0:
229,84,191257,1,2,1:2:0:0:
278,5,191411,1,2,1:2:0:0:
452,57,191566,6,0,L|324:81,1,127.500004863739,14|2,0:2|1:2,0:0:0:0:
326,80,191798,1,2,0:0:0:0:
326,80,191875,1,2,0:2:0:0:
229,84,192030,1,2,1:2:0:0:
407,149,192185,6,0,L|438:296,1,127.500004863739,10|2,0:2|1:2,0:0:0:0:
433,273,192416,1,2,0:0:0:0:
433,273,192494,1,2,0:2:0:0:
499,125,192648,1,2,1:2:0:0:
336,237,192803,6,0,L|203:209,1,127.500004863739,10|2,0:2|1:2,0:0:0:0:
151,139,193112,1,8,0:2:0:0:
151,139,193267,1,2,1:2:0:0:
240,113,193422,1,10,0:2:0:0:
240,113,193577,1,2,1:2:0:0:
87,83,193731,1,10,0:2:0:0:
72,75,193808,1,2,0:0:0:0:
58,68,193885,1,2,1:2:0:0:
44,61,193962,1,2,0:0:0:0:
30,53,194040,6,0,L|99:32,3,63.7500024318696,10|2|2|2,0:2|0:0|1:2|0:0,0:0:0:0:
171,44,194349,2,0,L|240:23,3,63.7500024318696,10|2|2|2,0:2|0:0|1:2|0:0,0:0:0:0:
312,69,194659,2,0,L|359:208,1,127.500004863739,10|2,0:2|1:2,0:0:0:0:
352,189,194891,1,2,0:0:0:0:
352,189,194968,1,10,0:2:0:0:
410,97,195123,1,0,1:2:0:0:
247,158,195277,6,0,L|167:137,3,63.7500024318696,8|8|8|8,0:2|0:2|0:2|0:2,0:0:0:0:
191,229,195587,2,0,L|170:309,3,63.7500024318696,8|8|2|2,0:2|0:2|1:2|0:0,0:0:0:0:
113,192,195896,5,2,1:2:0:0:
81,190,195973,1,10,0:2:0:0:
55,173,196050,1,10,0:2:0:0:
40,145,196127,1,10,0:2:0:0:
42,113,196205,2,0,P|62:75|98:66,3,63.7500024318696,10|2|2|2,0:2|0:0|1:2|0:0,0:0:0:0:
0,29,196514,5,6,1:2:0:0:
482,114,198989,6,0,L|423:101,3,50.9999984436036,10|8|2|0,0:2|0:2|1:2|1:2,0:0:0:0:
346,134,199298,2,0,L|287:147,3,50.9999984436036,2|0|0|2,1:2|1:2|1:2|1:2,0:0:0:0:
278,64,199607,2,0,L|165:39,1,101.999996887207,2|2,1:2|1:2,0:0:0:0:
103,70,199916,1,14,0:2:0:0:
459,23,200226,5,6,1:2:0:0:
76,309,201463,6,0,L|26:296,3,50.9999984436036,10|8|10|8,0:2|0:2|0:2|0:2,0:0:0:0:
156,269,201772,2,0,L|206:282,3,50.9999984436036,10|8|0|2,0:2|0:2|1:2|0:0,0:0:0:0:
84,222,202081,1,10,0:2:0:0:
79,196,202158,1,8,0:2:0:0:
75,171,202235,1,10,0:2:0:0:
71,146,202312,1,8,0:2:0:0:
67,121,202391,2,0,L|130:109,3,50.9999984436036,2|0|8|10,1:2|0:0|0:2|0:2,0:0:0:0:
179,54,202700,6,0,P|230:72|243:126,1,101.999996887207,2|10,1:2|0:2,0:0:0:0:
244,113,202932,1,8,0:2:0:0:
244,113,203009,1,10,0:2:0:0:
318,56,203164,1,2,1:2:0:0:
338,145,203319,2,0,L|404:129,3,50.9999984436036,10|8|10|8,0:2|0:2|0:2|0:2,0:0:0:0:
271,205,203628,2,0,L|221:217,3,50.9999984436036,0|0|10|8,1:2|0:0|0:2|0:2,0:0:0:0:
360,232,203937,5,10,0:2:0:0:
384,239,204014,1,8,0:2:0:0:
408,247,204091,1,2,1:2:0:0:
432,255,204168,1,0,1:2:0:0:
457,263,204246,2,0,L|483:195,3,50.9999984436036,2|0|0|2,1:2|1:2|1:2|1:2,0:0:0:0:
405,334,204556,2,0,L|456:352,3,50.9999984436036,2|0|2|0,1:2|1:2|1:2|1:2,0:0:0:0:
328,309,204865,1,14,0:2:0:0:
9,369,205174,5,6,1:2:0:0:
9,369,205329,1,2,0:0:0:0:
66,306,205483,2,0,P|121:292|177:246,1,101.999996887207,10|0,0:2|0:0,0:0:0:0:
289,367,205793,1,2,1:2:0:0:
200,347,205947,1,2,0:0:0:0:
226,210,206102,2,0,P|273:248|253:292,1,101.999996887207,10|2,0:2|0:0,0:0:0:0:
77,218,206411,6,0,B|102:95|146:176|168:38,1,203.999993774414,6|0,1:2|0:0,0:0:0:0:
