osu file format v14

[General]
AudioFilename: audio.mp3
AudioLeadIn: 0
PreviewTime: 127224
Countdown: 0
SampleSet: Soft
StackLeniency: 0.7
Mode: 0
LetterboxInBreaks: 0
WidescreenStoryboard: 1

[Editor]
Bookmarks: 1356,11098,20838,38780,48670,69701,88256,107430,127224,147017,166811,186605,188298,206399
DistanceSpacing: 0.1
BeatDivisor: 4
GridSize: 32
TimelineZoom: 2.199999

[Metadata]
Title:Amanita
TitleUnicode:Amanita
Artist:Marmalade butcher
ArtistUnicode:Marmalade butcher
Creator:Camo
Version:Collab Extra
Source:
Tags:mao zelq deviouspanda asaben asa olsonn megafan paradogi nullum sonum ヌルムソヌム instrumental math rock fa featured artist o!wc owc owc2020 finals hd1
BeatmapID:3348077
BeatmapSetID:1473778

[Difficulty]
HPDrainRate:5
CircleSize:4
OverallDifficulty:9
ApproachRate:9.4
SliderMultiplier:1.8
SliderTickRate:1

[Events]
//Background and Video events
0,0,"84719437_p0.jpg",0,0
//Break Periods
2,79826,82797
2,97760,101969
//Storyboard Layer 0 (Background)
//Storyboard Layer 1 (Fail)
//Storyboard Layer 2 (Pass)
//Storyboard Layer 3 (Foreground)
//Storyboard Layer 4 (Overlay)
//Storyboard Sound Samples

[TimingPoints]
1384,309.278350515464,4,2,1,60,1,0
1384,-125,4,2,1,60,0,0
2621,-100,4,2,1,60,0,0
6641,-116.279069767442,4,2,1,60,0,0
6951,-123.456790123457,4,2,1,60,0,0
7569,-100,4,2,1,60,0,0
11126,-111.111111111111,4,2,1,60,0,0
12518,309.278350515464,7,2,1,60,1,0
12518,-90.9090909090909,7,2,1,60,0,0
12749,-90.9090909090909,7,2,1,5,0,0
12827,-90.9090909090909,7,2,1,60,0,0
14373,-1000,7,2,1,60,0,0
14682,-90.9090909090909,7,2,1,60,0,0
14913,-90.9090909090909,7,2,1,5,0,0
14992,-90.9090909090909,7,2,1,60,0,0
16847,309.278350515464,6,2,1,60,1,0
16847,-90.9090909090909,6,2,1,60,0,0
17078,-90.9090909090909,6,2,1,5,0,0
17156,-90.9090909090909,6,2,1,60,0,0
18702,309.278350515464,7,2,1,60,1,0
18702,-90.9090909090909,7,2,1,60,0,0
20866,309.278350515464,4,2,1,50,1,0
20866,-83.3333333333333,4,2,1,50,0,0
23340,309.278350515464,6,2,1,50,1,0
23340,-83.3333333333333,6,2,1,50,0,0
25195,309.278350515464,4,2,1,50,1,0
25195,-83.3333333333333,4,2,1,50,0,0
27669,309.278350515464,6,2,1,50,1,0
27669,-83.3333333333333,6,2,1,50,0,0
28287,-100,6,2,1,50,0,0
29524,309.278350515464,4,2,1,50,1,0
29524,-83.3333333333333,4,2,1,50,0,0
31998,309.278350515464,6,2,1,50,1,0
31998,-83.3333333333333,6,2,1,50,0,0
33775,-83.3333333333333,6,2,1,5,0,0
33853,309.278350515464,4,2,1,50,1,0
33853,-83.3333333333333,4,2,1,50,0,0
37564,-71.4285714285714,4,2,1,50,0,0
37873,-55.5555555555556,4,2,1,50,0,0
38801,-76.9230769230769,4,2,1,50,0,0
41197,-76.9230769230769,4,2,1,5,0,0
41275,-76.9230769230769,4,2,1,50,0,0
45605,-100,4,2,1,50,0,0
45836,-100,4,2,1,5,0,0
45914,-90.9090909090909,4,2,1,50,0,0
46224,-76.9230769230769,4,2,1,50,0,0
48389,-100,4,2,1,50,0,0
48698,-71.4285714285714,4,2,1,80,0,0
50554,-66.6666666666667,4,2,1,80,0,0
51172,-71.4285714285714,4,2,1,80,0,0
68492,-71.4285714285714,4,2,1,70,0,0
69729,-76.9230769230769,4,2,1,70,0,0
71661,-76.9230769230769,4,2,1,5,0,0
71739,-76.9230769230769,4,2,1,70,0,0
72434,-76.9230769230769,4,2,1,5,0,0
72512,-76.9230769230769,4,2,1,70,0,0
74908,-76.9230769230769,4,2,1,5,0,0
74987,-76.9230769230769,4,2,1,70,0,0
77382,-76.9230769230769,4,2,1,5,0,0
77461,-76.9230769230769,4,2,1,70,0,0
79626,-76.9230769230769,4,2,1,50,0,0
83337,-125,4,2,1,50,0,0
83491,-125,4,2,1,70,0,0
83646,-125,4,2,1,50,0,0
83800,-125,4,2,1,70,0,0
83955,309.278350515464,4,2,1,50,1,0
83955,-83.3333333333333,4,2,1,50,0,0
87666,-83.3333333333333,4,2,1,70,0,0
88284,309.278350515464,4,2,1,70,1,0
88284,-83.3333333333333,4,2,1,70,0,0
92613,309.278350515464,4,2,1,70,1,0
92613,-83.3333333333333,4,2,1,70,0,0
96324,-66.6666666666667,4,2,1,70,0,0
102509,-76.9230769230769,4,2,1,70,0,0
107458,-62.5,4,2,2,85,0,0
109932,-76.9230769230769,4,2,2,85,0,0
112406,-62.5,4,2,2,85,0,0
117355,-58.8235294117647,4,2,2,85,0,0
127252,-166.666666666667,4,2,1,70,0,0
132200,-90.9090909090909,4,2,1,70,0,0
137149,-76.9230769230769,4,2,1,60,0,0
147045,-90.9090909090909,4,2,1,90,0,0
150911,-66.6666666666667,4,2,1,90,0,0
151375,-71.4285714285714,4,2,1,90,0,0
151685,-66.6666666666667,4,2,1,90,0,0
151994,-71.4285714285714,4,2,1,90,0,0
166839,-58.8235294117647,4,2,1,95,0,0
177045,-76.9230769230769,4,2,2,95,0,0
186618,309.278350515464,4,2,2,95,1,1
186618,-58.8235294117647,4,2,2,95,0,1
189169,-58.8235294117647,4,2,0,95,0,1
189246,-58.8235294117647,4,2,2,95,0,1
196514,-47.6190476190476,4,2,1,75,0,0
199607,-90.9090909090909,4,2,1,75,0,0
204865,-76.9230769230769,4,2,1,75,0,0
205096,-76.9230769230769,4,2,1,95,0,0
205174,-76.9230769230769,4,2,1,75,0,0
206720,-76.9230769230769,4,2,1,5,0,0

[Colours]
Combo1 : 255,128,128
Combo2 : 245,162,99
Combo3 : 198,147,253
Combo4 : 0,115,230

[HitObjects]
40,49,1384,6,0,L|17:-9,3,36,10|8|10|8,0:2|0:2|0:2|0:2,0:0:0:0:
135,122,1693,2,0,L|196:131,3,36,10|8|10|8,0:2|0:2|0:2|0:2,0:0:0:0:
23,168,2002,2,0,L|-15:216,3,36,10|8|10|8,0:2|0:2|0:2|0:2,0:0:0:0:
127,37,2311,5,10,0:2:0:0:
174,18,2389,1,10,0:2:0:0:
223,25,2466,1,10,0:2:0:0:
257,61,2543,1,10,0:2:0:0:
267,111,2621,6,0,P|252:153|243:197,1,90,6|2,1:2|0:0,0:0:0:0:
485,280,2930,1,10,0:2:0:0:
419,373,3085,1,2,1:2:0:0:
425,166,3239,2,0,P|382:131|329:138,1,90,2|0,1:2|1:2,0:0:0:0:
283,298,3548,2,0,P|296:344|317:426,1,90,2|2,1:2|1:2,0:0:0:0:
512,204,3858,5,2,1:2:0:0:
355,230,4012,1,2,1:2:0:0:
504,16,4167,1,10,0:2:0:0:
504,16,4322,1,2,0:0:0:0:
393,61,4476,1,2,1:2:0:0:
425,166,4631,1,2,1:2:0:0:
297,3,4786,2,0,P|257:120|239:162,1,135,10|0,0:2|0:0,0:0:0:0:
191,187,5095,6,0,P|105:202|72:220,1,90,6|2,1:2|0:0,0:0:0:0:
268,207,5404,1,10,0:2:0:0:
91,123,5559,1,2,1:2:0:0:
40,288,5713,1,10,0:2:0:0:
40,288,5791,1,0,0:0:0:0:
40,288,5868,1,0,1:2:0:0:
177,105,6023,2,0,P|158:65|119:45,1,90,2|10,1:2|0:2,0:0:0:0:
219,273,6332,1,2,1:2:0:0:
219,273,6487,1,2,1:2:0:0:
373,255,6641,2,0,P|334:268|277:292,1,77.4000011810303,10|2,0:2|0:0,0:0:0:0:
136,384,6951,5,10,0:2:0:0:
128,348,7028,1,8,0:2:0:0:
126,311,7105,1,10,0:2:0:0:
129,275,7182,1,8,0:2:0:0:
139,240,7260,1,10,0:2:0:0:
155,208,7337,1,10,0:2:0:0:
172,175,7414,1,10,0:2:0:0:
181,140,7492,1,10,0:2:0:0:
177,104,7569,6,0,P|161:53|137:13,1,90,6|2,1:2|0:0,0:0:0:0:
0,155,7878,1,10,0:2:0:0:
92,123,8033,1,2,1:2:0:0:
217,272,8188,6,0,P|226:316|238:360,1,90,2|0,1:2|1:2,0:0:0:0:
409,196,8497,1,2,1:2:0:0:
273,169,8652,1,2,1:2:0:0:
369,384,8806,2,0,P|405:344|447:305,1,90,2|2,1:2|1:2,0:0:0:0:
280,163,9115,1,10,0:2:0:0:
320,280,9270,1,2,1:2:0:0:
491,102,9425,1,2,1:2:0:0:
368,66,9579,1,2,1:2:0:0:
431,318,9734,1,10,0:2:0:0:
512,240,9889,1,2,0:0:0:0:
249,28,10043,5,4,1:2:0:0:
243,22,10198,1,2,0:0:0:0:
161,114,10353,1,10,0:2:0:0:
123,5,10507,1,2,1:2:0:0:
102,231,10662,5,10,0:2:0:0:
102,231,10739,1,0,0:0:0:0:
102,231,10816,1,0,1:2:0:0:
309,132,10971,1,2,1:2:0:0:
0,35,11126,1,14,0:2:0:0:
38,384,11899,5,8,0:2:0:0:
43,373,11976,1,8,0:2:0:0:
47,362,12054,1,8,0:2:0:0:
51,351,12131,1,8,0:2:0:0:
56,340,12208,1,8,0:2:0:0:
61,329,12286,1,8,0:2:0:0:
65,319,12363,1,8,0:2:0:0:
72,309,12440,1,8,0:2:0:0:
66,298,12518,6,0,P|138:296|184:353,1,148.50000453186,6|0,1:2|0:0,0:0:0:0:
262,384,12827,2,0,P|290:301|329:222,1,148.50000453186,10|0,0:2|0:0,0:0:0:0:
383,199,13136,1,2,1:2:0:0:
280,0,13291,1,2,0:0:0:0:
220,241,13445,1,10,0:2:0:0:
391,113,13600,2,0,P|440:134|468:200,1,99.0000030212403,2|2,0:0|1:2,0:0:0:0:
306,170,13909,1,2,0:0:0:0:
416,378,14064,2,0,P|399:318|386:252,1,99.0000030212403,10|2,0:2|0:0,0:0:0:0:
512,41,14373,1,14,0:2:0:0:
512,54,14682,6,0,P|450:38|350:6,1,148.50000453186,6|0,1:2|0:0,0:0:0:0:
277,24,14992,2,0,P|298:117|306:180,1,148.50000453186,10|0,0:2|0:0,0:0:0:0:
239,242,15301,1,2,1:2:0:0:
389,111,15456,1,2,0:0:0:0:
416,378,15610,1,10,0:2:0:0:
300,174,15765,2,0,P|258:149|192:171,1,99.0000030212403,2|2,0:0|1:2,0:0:0:0:
151,220,16074,1,2,0:0:0:0:
302,355,16229,2,0,P|307:321|328:259,1,99.0000030212403,10|2,0:2|1:2,0:0:0:0:
198,64,16538,5,10,0:2:0:0:
183,56,16615,1,8,0:2:0:0:
169,49,16693,1,8,0:2:0:0:
155,43,16770,1,8,0:2:0:0:
140,37,16847,6,0,P|85:59|-6:93,1,148.50000453186,6|0,1:2|0:0,0:0:0:0:
6,172,17156,2,0,P|77:210|82:292,1,148.50000453186,10|0,0:2|0:0,0:0:0:0:
42,348,17465,1,2,1:2:0:0:
121,130,17620,1,2,1:2:0:0:
125,361,17774,1,10,0:2:0:0:
0,255,17929,2,0,P|46:263|115:284,1,99.0000030212403,2|2,0:0|1:2,0:0:0:0:
319,359,18238,5,10,0:2:0:0:
224,205,18392,1,10,0:2:0:0:
208,224,18469,1,8,0:2:0:0:
197,246,18547,1,10,0:2:0:0:
189,270,18624,1,8,0:2:0:0:
190,294,18702,2,0,P|211:336|222:394,1,99.0000030212403,6|0,1:2|0:0,0:0:0:0:
344,210,19011,2,0,P|390:190|453:170,1,99.0000030212403,10|0,0:2|0:0,0:0:0:0:
332,125,19320,1,2,1:2:0:0:
326,363,19475,2,0,P|366:335|380:289,1,99.0000030212403,2|10,1:2|0:2,0:0:0:0:
290,276,19784,1,2,0:0:0:0:
493,375,19939,5,10,0:2:0:0:
485,351,20016,1,8,0:2:0:0:
479,327,20093,1,10,0:2:0:0:
472,303,20170,1,8,0:2:0:0:
466,279,20248,1,10,0:2:0:0:
460,255,20325,1,8,0:2:0:0:
455,231,20402,1,10,0:2:0:0:
449,207,20480,1,8,0:2:0:0:
441,184,20557,1,10,0:2:0:0:
15,21,20866,6,0,B|143:41|69:132|188:159,1,215.999993408203,6|8,1:2|0:2,0:0:0:0:
237,88,21329,1,2,1:2:0:0:
240,229,21484,2,0,P|275:75|294:17,1,215.999993408203,2|8,0:0|0:2,0:0:0:0:
362,70,21948,1,2,1:2:0:0:
511,81,22103,2,0,P|423:64|356:184,1,215.999993408203,2|8,1:2|1:2,0:0:0:0:
411,221,22567,5,2,1:2:0:0:
370,384,22721,2,0,P|358:323|336:267,1,107.999996704102,2|0,1:2|1:2,0:0:0:0:
504,187,23030,2,0,P|497:243|470:316,1,107.999996704102,10|0,0:2|0:0,0:0:0:0:
175,241,23340,6,0,P|228:208|332:298,1,215.999993408203,2|8,1:2|0:2,0:0:0:0:
274,347,23803,1,2,1:2:0:0:
106,301,23958,2,0,P|55:285|-33:264,2,107.999996704102,2|0|8,0:0|1:2|0:2,0:0:0:0:
193,323,24422,1,2,1:2:0:0:
102,384,24577,2,0,P|81:255|55:153,1,215.999993408203,2|10,1:2|0:2,0:0:0:0:
1,111,25041,1,0,1:2:0:0:
228,34,25195,6,0,P|200:156|164:240,1,215.999993408203,6|8,1:2|0:2,0:0:0:0:
253,266,25658,1,2,1:2:0:0:
117,105,25813,2,0,P|106:63|75:-12,2,107.999996704102,2|0|8,0:0|1:2|0:2,0:0:0:0:
184,156,26277,1,2,0:0:0:0:
388,38,26432,2,0,P|336:54|284:66,1,107.999996704102,2|0,1:2|0:0,0:0:0:0:
430,188,26741,6,0,P|372:175|379:96,1,107.999996704102,10|0,0:2|1:2,0:0:0:0:
488,74,27050,2,0,P|463:150|429:310,1,215.999993408203,2|10,1:2|0:2,0:0:0:0:
498,343,27514,1,0,1:2:0:0:
292,378,27669,6,0,P|333:283|433:297,1,215.999993408203,2|8,1:2|0:2,0:0:0:0:
423,373,28132,1,2,1:2:0:0:
272,289,28287,2,0,P|220:284|163:261,2,90,2|0|8,0:0|1:2|0:2,0:0:0:0:
206,366,28751,1,2,1:2:0:0:
301,214,28906,1,2,1:2:0:0:
301,214,29060,1,0,0:0:0:0:
228,105,29215,5,10,0:2:0:0:
228,105,29292,1,8,0:2:0:0:
228,105,29370,1,8,0:2:0:0:
228,105,29447,1,8,0:2:0:0:
228,105,29524,2,0,P|245:36|257:-46,1,107.999996704102,6|0,1:2|0:0,0:0:0:0:
142,91,29833,5,8,0:2:0:0:
308,138,29987,1,2,1:2:0:0:
433,29,30142,2,0,P|391:20|343:72,2,107.999996704102,2|0|8,0:0|1:2|0:2,0:0:0:0:
503,276,30606,1,2,1:2:0:0:
474,108,30761,2,0,P|446:159|417:248,1,107.999996704102,2|0,1:2|0:0,0:0:0:0:
428,205,30993,1,0,0:0:0:0:
428,205,31070,1,8,0:2:0:0:
512,372,31225,5,2,1:2:0:0:
336,228,31379,2,0,P|352:313|377:392,1,161.999995056153,2|0,0:0|0:0,0:0:0:0:
363,384,31688,2,0,P|317:346|248:347,1,107.999996704102,10|0,0:2|0:0,0:0:0:0:
0,363,31998,6,0,P|109:316|136:304,1,107.999996704102,2|2,0:0|0:0,0:0:0:0:
106,310,32229,2,0,L|199:270,1,53.9999983520508,2|8,0:0|0:2,0:0:0:0:
245,208,32461,1,2,1:2:0:0:
183,372,32616,2,0,P|152:344|95:300,2,107.999996704102,2|0|8,1:2|1:2|0:2,0:0:0:0:
269,340,33080,5,2,1:2:0:0:
50,216,33235,2,0,P|0:279|14:329,1,107.999996704102,2|0,1:2|0:0,0:0:0:0:
156,212,33544,2,0,P|142:148|107:32,1,161.999995056153,10|0,0:2|1:2,0:0:0:0:
102,45,33853,6,0,P|204:123|274:63,1,215.999993408203,6|8,1:2|0:2,0:0:0:0:
242,5,34316,1,2,1:2:0:0:
316,164,34471,2,0,P|369:174|433:197,2,107.999996704102,2|0|8,0:0|1:2|0:2,0:0:0:0:
244,212,34935,1,2,1:2:0:0:
463,89,35090,2,0,P|504:144|469:215,1,107.999996704102,2|0,1:2|0:0,0:0:0:0:
351,83,35399,2,0,P|362:44|425:16,1,107.999996704102,10|0,0:2|1:2,0:0:0:0:
476,256,35708,6,0,P|419:279|356:312,1,107.999996704102,2|0,1:2|1:2,0:0:0:0:
271,98,36017,2,0,P|202:73|92:24,1,161.999995056153,10|0,0:2|0:0,0:0:0:0:
119,25,36327,6,0,P|30:41|20:160,1,215.999993408203,2|8,0:0|1:2,0:0:0:0:
98,181,36791,1,2,1:2:0:0:
0,335,36945,2,0,P|19:266|41:205,2,107.999996704102,2|0|8,0:0|1:2|0:2,0:0:0:0:
67,384,37409,1,2,1:2:0:0:
176,220,37564,6,0,P|238:216|309:335,1,188.999994232178,6|0,1:2|0:0,0:0:0:0:
283,383,37873,2,0,P|248:370|156:345,2,80.9999975280763,10|0|0,0:2|0:0|0:0,0:0:0:0:
449,142,38182,5,10,0:2:0:0:
441,171,38259,1,8,0:2:0:0:
432,200,38336,1,8,0:2:0:0:
424,229,38413,1,8,0:2:0:0:
415,258,38491,1,8,0:2:0:0:
405,287,38568,1,8,0:2:0:0:
395,316,38645,1,8,0:2:0:0:
385,344,38723,1,8,0:2:0:0:
374,373,38800,5,6,1:2:0:0:
512,275,38956,1,2,0:0:0:0:
326,210,39110,1,10,0:2:0:0:
357,0,39265,1,2,1:2:0:0:
357,0,39342,1,0,0:0:0:0:
357,0,39420,2,0,L|377:73,1,58.4999973220826,2|0,1:2|0:0,0:0:0:0:
391,140,39574,1,0,0:0:0:0:
271,286,39729,1,10,0:2:0:0:
271,286,39806,1,2,0:0:0:0:
271,286,39883,2,0,P|221:264|116:248,1,116.999994644165,2|0,0:0|1:2,0:0:0:0:
7,208,40193,5,2,0:0:0:0:
201,152,40347,1,10,0:2:0:0:
94,384,40502,1,10,0:2:0:0:
94,384,40579,1,8,0:2:0:0:
94,384,40657,2,0,P|80:313|57:239,1,116.999994644165,10|0,0:2|0:0,0:0:0:0:
84,58,40966,2,0,P|27:117|8:229,1,175.499991966248,2|0,0:0|0:0,0:0:0:0:
71,269,41275,5,6,1:2:0:0:
318,181,41430,1,2,0:0:0:0:
118,133,41584,1,10,0:2:0:0:
175,329,41739,1,2,1:2:0:0:
318,181,41894,2,0,P|405:204|476:233,1,116.999994644165,2|0,1:2|0:0,0:0:0:0:
270,384,42203,1,10,0:2:0:0:
270,384,42280,1,2,0:0:0:0:
270,384,42358,2,0,P|262:312|248:238,1,116.999994644165,2|0,0:0|1:2,0:0:0:0:
405,13,42667,5,2,0:0:0:0:
506,178,42822,1,10,0:2:0:0:
495,35,42976,1,2,1:2:0:0:
297,112,43131,2,0,P|242:132|155:142,1,116.999994644165,2|0,1:2|0:0,0:0:0:0:
421,265,43440,2,0,P|404:178|379:94,1,175.499991966248,2|0,1:2|0:0,0:0:0:0:
319,33,43749,5,6,1:2:0:0:
266,240,43904,1,2,0:0:0:0:
109,81,44059,1,10,0:2:0:0:
222,51,44213,1,2,1:2:0:0:
188,283,44368,2,0,P|139:252|68:238,1,116.999994644165,2|0,1:2|0:0,0:0:0:0:
28,4,44677,1,10,0:2:0:0:
34,11,44755,1,2,0:0:0:0:
37,19,44832,1,2,1:2:0:0:
0,241,44987,5,8,0:2:0:0:
231,167,45141,1,2,0:0:0:0:
358,379,45296,1,10,0:2:0:0:
294,316,45450,1,2,1:2:0:0:
387,296,45605,2,0,P|452:317|521:354,1,135,2|0,1:2|0:0,0:0:0:0:
511,347,45914,2,0,P|515:290|490:236,1,99.0000030212403,2|0,0:0|0:0,0:0:0:0:
317,21,46224,6,0,P|300:78|292:160,1,116.999994644165,6|2,1:2|0:0,0:0:0:0:
223,377,46533,1,10,0:2:0:0:
325,241,46688,1,2,1:2:0:0:
325,241,46765,1,0,0:0:0:0:
325,241,46842,2,0,P|279:215|203:202,1,116.999994644165,10|0,0:2|1:2,0:0:0:0:
20,103,47151,1,2,1:2:0:0:
38,53,47229,1,2,0:0:0:0:
82,25,47306,1,10,0:2:0:0:
138,31,47383,1,0,0:0:0:0:
173,68,47461,5,2,1:2:0:0:
149,146,47615,1,2,0:0:0:0:
325,241,47770,1,2,0:0:0:0:
299,157,47924,1,2,0:0:0:0:
405,0,48079,2,0,P|451:78|508:153,1,175.499991966248,2|0,0:0|0:0,0:0:0:0:
512,276,48389,2,0,P|482:269|441:257,1,45,8|0,0:2|0:0,0:0:0:0:
464,247,48543,2,0,P|441:242|408:238,1,45,0|0,1:2|1:2,0:0:0:0:
260,334,48698,6,0,P|202:349|89:403,1,125.999996154785,6|2,3:2|0:0,0:0:0:0:
0,225,49007,1,10,0:2:0:0:
196,77,49162,1,2,0:2:0:0:
246,141,49316,2,0,P|228:201|219:263,1,125.999996154785,2|2,0:2|0:2,0:0:0:0:
0,72,49626,2,0,P|134:11|223:-7,1,188.999994232178,10|2,0:2|0:0,0:0:0:0:
249,16,49935,5,2,3:2:0:0:
308,213,50090,1,0,0:0:0:0:
512,7,50244,1,10,0:2:0:0:
483,150,50399,1,0,0:0:0:0:
331,26,50554,2,0,P|396:44|459:69,1,135.000005149842,2|0,1:2|0:0,0:0:0:0:
244,266,50863,2,0,P|306:241|372:223,1,135.000005149842,10|0,0:2|0:0,0:0:0:0:
181,211,51172,2,0,P|113:296|127:382,1,188.999994232178,2|0,3:2|0:0,0:0:0:0:
205,380,51481,1,8,0:2:0:0:
262,184,51636,1,0,0:0:0:0:
44,250,51791,2,0,P|29:196|-5:124,1,125.999996154785,2|2,1:2|0:0,0:0:0:0:
270,74,52100,6,0,L|263:104,9,20.9999993591309,10|0|0|0|0|0|0|0|0|0,0:2|0:0|0:0|0:0|0:0|0:0|0:0|0:0|0:0|0:0,0:0:0:0:
183,136,52409,1,2,3:2:0:0:
237,0,52564,1,2,0:0:0:0:
408,139,52718,1,10,0:0:0:0:
182,218,52873,1,2,0:2:0:0:
462,69,53028,2,0,B|502:120|502:120|476:200,1,125.999996154785,2|0,3:2|0:0,0:0:0:0:
371,384,53337,2,0,B|331:333|331:333|357:253,1,125.999996154785,10|0,0:2|1:2,0:0:0:0:
372,36,53646,6,0,P|382:97|421:243,1,188.999994232178,6|0,3:2|0:0,0:0:0:0:
492,260,53956,1,8,0:2:0:0:
492,260,54110,1,0,0:0:0:0:
292,212,54265,6,0,P|202:182|85:160,1,188.999994232178,2|0,1:2|0:0,0:0:0:0:
38,207,54574,1,10,0:2:0:0:
83,335,54729,1,0,1:2:0:0:
192,140,54883,2,0,P|221:79|221:4,1,125.999996154785,6|0,3:2|0:0,0:0:0:0:
10,10,55193,2,0,P|16:74|51:147,1,125.999996154785,8|2,0:2|0:0,0:0:0:0:
166,320,55502,5,2,1:2:0:0:
184,247,55657,1,0,0:0:0:0:
334,384,55811,1,10,0:2:0:0:
289,202,55966,1,0,1:2:0:0:
456,384,56121,6,0,P|486:287|501:169,1,188.999994232178,6|0,3:2|0:0,0:0:0:0:
437,149,56430,1,8,0:2:0:0:
289,202,56584,1,0,1:2:0:0:
384,13,56739,6,0,P|370:78|339:170,1,125.999996154785,6|0,3:2|0:0,0:0:0:0:
213,241,57048,2,0,L|179:231,9,20.9999993591309,8|0|0|0|0|0|0|0|0|0,0:2|0:0|0:0|0:0|0:0|0:0|0:0|0:0|0:0|0:0,0:0:0:0:
141,176,57358,1,10,3:2:0:0:
92,163,57435,1,8,0:2:0:0:
42,154,57512,1,2,1:2:0:0:
167,333,57667,1,8,0:2:0:0:
216,320,57744,1,0,0:0:0:0:
266,311,57821,1,2,0:0:0:0:
154,98,57976,1,0,1:2:0:0:
103,384,58131,1,0,0:0:0:0:
350,241,58285,6,0,L|363:291,1,31.4999990386963,10|0,0:2|0:0,0:0:0:0:
367,236,58363,2,0,L|380:286,1,31.4999990386963,2|0,0:0|0:0,0:0:0:0:
383,233,58440,2,0,L|396:283,1,31.4999990386963,2|0,0:0|0:0,0:0:0:0:
398,228,58517,2,0,L|411:278,1,31.4999990386963,2|0,0:0|0:0,0:0:0:0:
368,211,58595,5,6,3:2:0:0:
316,374,58749,1,2,0:0:0:0:
406,137,58904,1,10,0:2:0:0:
512,384,59059,2,0,P|457:362|384:337,1,125.999996154785,2|0,0:0|1:2,0:0:0:0:
312,153,59368,2,0,P|318:78|341:18,1,125.999996154785,2|8,0:0|0:2,0:0:0:0:
266,311,59677,2,0,P|130:273|88:200,1,188.999994232178,2|0,0:0|0:0,0:0:0:0:
184,146,59987,1,2,0:0:0:0:
167,353,60141,2,0,P|104:363|45:385,1,125.999996154785,10|2,0:2|0:0,0:0:0:0:
183,154,60450,2,0,P|82:135|-20:67,1,188.999994232178,2|0,1:2|0:0,0:0:0:0:
0,179,60760,2,0,P|22:249|36:333,1,125.999996154785,10|0,1:2|1:2,0:0:0:0:
163,67,61069,5,2,3:2:0:0:
104,232,61224,1,2,0:0:0:0:
18,14,61378,1,10,0:2:0:0:
265,194,61533,2,0,P|275:135|300:73,1,125.999996154785,0|2,1:2|0:0,0:0:0:0:
471,0,61842,1,2,0:0:0:0:
471,0,61920,1,2,0:0:0:0:
471,0,61997,1,8,0:2:0:0:
230,26,62151,1,2,0:0:0:0:
512,169,62306,6,0,P|429:183|333:238,1,188.999994232178,2|0,1:2|1:2,0:0:0:0:
282,292,62615,1,10,0:2:0:0:
311,375,62770,1,0,1:2:0:0:
427,167,62925,1,2,1:2:0:0:
500,384,63079,1,2,1:2:0:0:
375,314,63234,1,10,0:2:0:0:
375,314,63311,1,2,0:0:0:0:
375,314,63389,1,2,0:0:0:0:
512,162,63543,6,0,P|497:237|474:282,1,125.999996154785,6|2,3:2|0:0,0:0:0:0:
311,375,63853,1,10,0:2:0:0:
200,231,64007,2,0,P|158:216|49:203,1,125.999996154785,2|0,0:0|1:2,0:0:0:0:
260,170,64316,1,2,0:0:0:0:
260,170,64394,1,2,0:0:0:0:
260,170,64471,1,10,0:2:0:0:
121,287,64626,5,2,0:0:0:0:
10,157,64780,1,0,1:2:0:0:
44,129,64858,1,0,0:0:0:0:
87,126,64935,1,2,0:0:0:0:
214,322,65090,1,10,0:2:0:0:
27,273,65244,1,2,0:0:0:0:
180,128,65399,2,0,P|191:98|204:4,1,125.999996154785,2|0,3:2|0:0,0:0:0:0:
79,204,65708,2,0,P|220:233|291:275,1,188.999994232178,10|0,3:2|0:0,0:0:0:0:
321,303,66017,6,0,P|426:255|440:149,1,188.999994232178,2|2,0:2|0:2,0:0:0:0:
377,144,66327,1,8,0:2:0:0:
328,384,66481,1,0,0:0:0:0:
512,282,66636,1,0,1:2:0:0:
512,282,66713,1,0,0:0:0:0:
512,282,66791,1,0,0:0:0:0:
292,127,66945,2,0,P|268:72|249:-9,1,125.999996154785,10|0,0:2|0:0,0:0:0:0:
223,235,67255,5,14,0:2:0:0:
216,272,67332,1,8,0:2:0:0:
208,310,67409,1,2,1:2:0:0:
198,347,67486,1,0,1:2:0:0:
186,384,67564,1,10,0:2:0:0:
3,202,67718,1,10,1:2:0:0:
0,379,67873,2,0,P|58:349|117:328,1,125.999996154785,2|0,1:2|1:2,0:0:0:0:
197,142,68182,2,0,P|139:112|80:91,1,125.999996154785,10|2,0:2|1:2,0:0:0:0:
57,8,68492,5,2,1:2:0:0:
63,19,68646,1,0,0:0:0:0:
279,102,68801,1,2,0:0:0:0:
287,109,68956,1,2,0:0:0:0:
127,184,69110,1,2,0:0:0:0:
133,194,69265,1,2,0:0:0:0:
282,302,69420,1,6,0:0:0:0:
287,320,69497,1,2,0:0:0:0:
291,338,69574,1,2,0:0:0:0:
295,357,69651,1,2,0:0:0:0:
300,375,69729,6,0,P|387:341|498:332,1,175.499991966248,6|0,1:2|0:0,0:0:0:0:
512,266,70038,1,10,0:2:0:0:
450,127,70193,2,0,P|461:69|483:15,1,116.999994644165,2|0,1:2|1:2,0:0:0:0:
392,187,70502,5,2,1:2:0:0:
434,255,70657,1,2,1:2:0:0:
291,117,70811,2,0,P|302:175|324:229,1,116.999994644165,2|0,1:2|1:2,0:0:0:0:
463,326,71121,5,2,1:2:0:0:
456,136,71275,1,10,0:2:0:0:
319,234,71430,6,0,P|220:187|113:217,1,175.499991966248,2|0,1:2|0:0,0:0:0:0:
94,236,71739,1,2,1:2:0:0:
203,52,71894,6,0,P|206:81|210:109,1,58.4999973220826,10|0,0:2|0:0,0:0:0:0:
123,64,72048,2,0,P|126:93|130:121,1,58.4999973220826,2|0,0:0|0:0,0:0:0:0:
274,299,72203,6,0,P|188:285|109:321,1,175.499991966248,6|0,1:2|0:0,0:0:0:0:
89,241,72512,1,10,0:2:0:0:
55,380,72667,1,2,1:2:0:0:
162,202,72822,1,8,0:2:0:0:
279,306,72976,6,0,P|227:333|190:377,1,116.999994644165,2|2,1:2|1:2,0:0:0:0:
466,334,73285,2,0,P|408:330|356:305,1,116.999994644165,10|0,0:2|1:2,0:0:0:0:
297,117,73595,1,2,1:2:0:0:
512,188,73749,1,8,0:2:0:0:
422,122,73904,2,0,P|399:140|366:198,1,58.4999973220826,2|0,0:0|0:0,0:0:0:0:
427,252,74059,5,8,0:2:0:0:
420,223,74136,1,8,0:2:0:0:
414,194,74213,1,10,0:2:0:0:
407,166,74290,1,8,0:2:0:0:
399,138,74368,1,10,0:2:0:0:
391,110,74445,1,10,0:2:0:0:
383,82,74522,1,10,0:2:0:0:
374,54,74600,1,10,0:2:0:0:
365,26,74677,6,0,P|316:76|208:75,1,175.499991966248,6|0,1:2|0:0,0:0:0:0:
160,133,74987,1,10,0:2:0:0:
42,36,75141,2,0,P|110:25|155:83,1,116.999994644165,2|0,1:2|1:2,0:0:0:0:
169,266,75450,5,2,1:2:0:0:
123,204,75605,1,0,1:2:0:0:
311,189,75760,2,0,P|257:170|207:196,1,116.999994644165,2|0,1:2|1:2,0:0:0:0:
132,337,76069,5,2,1:2:0:0:
155,128,76224,1,10,0:2:0:0:
30,282,76378,6,0,P|63:278|105:278,1,58.4999973220826,2|0,1:2|0:0,0:0:0:0:
175,272,76533,1,0,0:0:0:0:
117,198,76688,1,2,1:2:0:0:
129,345,76842,6,0,P|224:282|282:271,1,175.499991966248,10|2,0:2|0:0,0:0:0:0:
313,199,77151,6,0,P|342:283|423:299,1,175.499991966248,6|0,1:2|0:0,0:0:0:0:
409,382,77461,1,10,0:2:0:0:
483,347,77615,1,2,1:2:0:0:
397,220,77770,5,8,0:2:0:0:
318,193,77925,2,0,P|352:145|352:88,1,116.999994644165,2|2,0:0|1:2,0:0:0:0:
425,293,78234,1,10,0:2:0:0:
232,361,78389,5,0,1:2:0:0:
234,375,78543,1,2,1:2:0:0:
201,192,78698,5,10,0:2:0:0:
179,265,78852,1,2,0:0:0:0:
276,276,79007,1,2,1:2:0:0:
306,348,79162,1,2,1:2:0:0:
204,182,79316,5,10,0:2:0:0:
225,107,79471,1,2,1:2:0:0:
360,89,79626,1,6,1:2:0:0:
347,169,83337,6,0,P|382:172|416:183,1,72,2|0,0:0|0:0,0:0:0:0:
437,109,83646,2,0,P|402:98|367:94,1,72,2|0,0:0|0:0,0:0:0:0:
495,50,83955,6,0,P|469:140|442:262,1,215.999993408203,6|8,1:2|0:2,0:0:0:0:
471,328,84418,1,2,0:0:0:0:
419,383,84573,1,2,0:0:0:0:
412,382,84882,5,8,0:2:0:0:
383,314,85037,1,2,0:0:0:0:
307,313,85192,2,0,P|267:338|210:357,1,107.999996704102,2|0,1:2|0:0,0:0:0:0:
107,163,85501,6,0,P|157:258|200:357,1,215.999993408203,10|2,0:2|0:0,0:0:0:0:
176,203,85965,1,0,1:2:0:0:
302,132,86119,2,0,P|278:159|262:195,1,71.9999978027344,10|0,0:2|1:0,0:0:0:0:
86,326,86429,6,0,P|167:255|256:193,1,215.999993408203,2|8,1:2|0:2,0:0:0:0:
210,67,86893,1,2,0:0:0:0:
188,142,87047,1,2,0:0:0:0:
284,38,87202,2,0,P|307:60|309:136,1,107.999996704102,0|8,0:0|0:2,0:0:0:0:
109,158,87511,1,2,0:0:0:0:
314,138,87666,5,10,0:2:0:0:
346,119,87743,1,8,0:2:0:0:
383,115,87820,1,0,1:2:0:0:
418,128,87898,1,0,1:2:0:0:
440,158,87975,1,10,0:2:0:0:
436,195,88052,1,8,0:2:0:0:
412,224,88130,1,8,0:2:0:0:
374,227,88207,1,8,0:2:0:0:
340,253,88284,6,0,P|327:277|321:304,1,53.9999983520508,6|0,1:2|0:0,0:0:0:0:
418,361,88438,2,0,P|407:336|403:309,1,53.9999983520508,2|2,0:0|0:0,0:0:0:0:
480,272,88593,1,10,0:2:0:0:
281,368,88747,5,2,1:2:0:0:
255,339,88825,1,0,1:2:0:0:
218,330,88902,2,0,P|176:341|148:376,1,53.9999983520508,2|0,1:2|0:0,0:0:0:0:
210,206,89057,1,0,1:2:0:0:
240,225,89134,1,2,0:0:0:0:
252,261,89211,1,10,0:2:0:0:
137,237,89366,6,0,P|132:263|118:286,1,53.9999983520508,2|0,0:0|0:0,0:0:0:0:
59,384,89521,1,2,1:2:0:0:
53,346,89598,1,0,0:0:0:0:
44,309,89675,1,0,0:0:0:0:
29,274,89752,1,2,0:0:0:0:
10,242,89830,1,10,0:2:0:0:
43,130,89985,6,0,P|47:156|61:179,1,53.9999983520508,2|0,1:2|1:2,0:0:0:0:
133,225,90139,1,2,1:2:0:0:
139,187,90216,1,0,0:0:0:0:
148,150,90293,1,0,1:2:0:0:
163,115,90370,1,0,0:0:0:0:
181,83,90448,2,0,P|202:66|229:64,1,53.9999983520508,10|0,0:2|0:0,0:0:0:0:
284,116,90603,1,0,1:2:0:0:
419,18,90758,5,2,1:2:0:0:
437,49,90835,1,0,0:0:0:0:
427,84,90912,1,0,0:0:0:0:
396,104,90989,1,2,0:0:0:0:
360,95,91067,1,10,0:2:0:0:
272,0,91222,6,0,P|293:15|303:40,1,53.9999983520508,2|0,1:2|1:2,0:0:0:0:
279,123,91376,1,2,1:2:0:0:
261,154,91453,1,0,0:0:0:0:
271,189,91530,1,0,1:2:0:0:
302,209,91607,1,0,0:0:0:0:
338,200,91685,1,8,0:2:0:0:
465,202,91840,6,0,P|440:190|414:183,1,53.9999983520508,2|0,1:2|0:0,0:0:0:0:
379,274,91995,2,0,P|404:281|429:292,1,53.9999983520508,2|0,1:2|0:0,0:0:0:0:
509,273,92149,1,0,0:0:0:0:
300,289,92304,1,10,0:2:0:0:
315,323,92381,1,0,0:0:0:0:
311,360,92459,1,0,1:2:0:0:
230,257,92613,6,0,P|204:263|188:284,1,53.9999983520508,6|2,1:2|0:0,0:0:0:0:
112,291,92767,1,2,0:0:0:0:
115,328,92844,1,2,0:0:0:0:
145,350,92922,1,10,0:2:0:0:
6,125,93076,6,0,P|31:131|47:152,1,53.9999983520508,2|0,1:2|1:2,0:0:0:0:
122,167,93231,2,0,P|139:187|139:213,1,53.9999983520508,2|0,1:2|0:0,0:0:0:0:
34,278,93386,1,0,1:2:0:0:
4,256,93464,1,2,0:0:0:0:
1,219,93541,1,10,0:2:0:0:
255,31,93695,6,0,P|228:32|209:50,1,53.9999983520508,2|0,1:2|0:0,0:0:0:0:
133,50,93850,2,0,P|112:66|107:92,1,53.9999983520508,2|2,1:2|0:0,0:0:0:0:
193,126,94004,1,2,0:0:0:0:
330,0,94159,5,10,0:2:0:0:
353,12,94236,1,0,0:0:0:0:
361,37,94314,1,0,1:2:0:0:
441,66,94468,5,2,1:2:0:0:
442,103,94545,1,0,0:0:0:0:
418,133,94623,1,0,1:2:0:0:
445,211,94777,5,10,0:2:0:0:
401,235,94855,1,0,0:0:0:0:
354,225,94932,1,0,1:2:0:0:
308,95,95087,5,2,1:2:0:0:
308,132,95164,1,2,0:0:0:0:
290,165,95241,1,2,0:0:0:0:
272,198,95319,1,2,0:0:0:0:
272,235,95396,1,10,0:2:0:0:
419,341,95551,6,0,P|402:320|376:315,1,53.9999983520508,2|0,1:2|1:2,0:0:0:0:
300,342,95705,1,2,1:2:0:0:
300,305,95782,1,0,0:0:0:0:
282,272,95860,1,0,1:2:0:0:
264,239,95937,1,2,0:0:0:0:
264,202,96014,1,10,0:2:0:0:
217,326,96169,6,0,P|200:346|174:351,1,53.9999983520508,2|0,0:0|0:0,0:0:0:0:
26,255,96324,2,0,P|93:262|159:273,1,135.000005149842,2|0,1:2|0:0,0:0:0:0:
199,155,96633,2,0,P|131:162|65:173,1,135.000005149842,10|0,0:2|0:0,0:0:0:0:
94,346,96942,5,10,0:2:0:0:
105,314,97019,1,8,0:2:0:0:
114,281,97096,1,8,0:2:0:0:
119,248,97173,1,8,0:2:0:0:
120,214,97251,1,8,0:2:0:0:
119,180,97328,1,8,0:2:0:0:
114,147,97405,1,8,0:2:0:0:
106,114,97483,1,8,0:2:0:0:
94,83,97560,1,6,1:2:0:0:
274,131,102509,6,0,P|327:151|351:203,1,116.999994644165,6|2,1:2|0:0,0:0:0:0:
431,347,102819,1,10,0:2:0:0:
451,44,102973,5,0,1:2:0:0:
477,58,103051,1,2,1:2:0:0:
481,87,103128,2,0,P|439:126|435:183,1,116.999994644165,2|2,1:2|1:2,0:0:0:0:
428,337,103437,1,10,0:2:0:0:
370,81,103592,1,0,1:2:0:0:
411,260,103747,6,0,P|355:279|302:304,1,116.999994644165,2|2,1:2|0:0,0:0:0:0:
153,214,104056,2,0,P|147:158|194:127,1,116.999994644165,10|2,0:2|1:2,0:0:0:0:
227,195,104288,1,2,1:2:0:0:
231,207,104365,2,0,P|237:239|237:264,1,58.4999973220826,2|0,1:2|0:0,0:0:0:0:
228,343,104520,1,2,1:2:0:0:
274,131,104674,5,10,0:2:0:0:
162,295,104829,1,2,1:2:0:0:
413,253,104984,6,0,P|362:224|310:199,1,116.999994644165,2|2,1:2|0:0,0:0:0:0:
90,260,105293,1,10,0:2:0:0:
502,140,105448,5,0,1:2:0:0:
483,162,105525,1,2,1:2:0:0:
455,169,105602,2,0,P|404:140|351:114,1,116.999994644165,2|2,1:2|1:2,0:0:0:0:
86,252,105911,1,10,0:2:0:0:
225,349,106066,1,0,1:2:0:0:
193,121,106221,6,0,P|166:102|74:168,1,116.999994644165,2|2,1:2|0:0,0:0:0:0:
0,292,106530,2,0,P|58:227|137:189,1,175.499991966248,10|2,0:2|0:0,0:0:0:0:
211,196,106839,1,2,1:2:0:0:
25,159,106994,1,2,0:0:0:0:
90,260,107149,1,2,0:0:0:0:
512,57,107458,6,0,B|387:94|369:30|299:52,1,216,6|0,1:2|0:0,0:0:0:0:
275,126,107767,1,10,0:2:0:0:
291,149,107844,1,0,0:0:0:0:
318,158,107922,1,0,0:0:0:0:
494,261,108076,5,2,1:2:0:0:
480,255,108154,1,2,0:0:0:0:
466,251,108231,1,2,0:0:0:0:
451,249,108308,1,2,0:0:0:0:
432,234,108386,5,10,0:2:0:0:
403,238,108463,1,2,0:0:0:0:
380,255,108540,1,2,0:0:0:0:
370,282,108618,1,2,0:0:0:0:
351,312,108695,5,2,1:2:0:0:
359,346,108772,1,2,0:0:0:0:
387,367,108850,1,2,0:0:0:0:
220,208,109004,5,10,0:2:0:0:
225,229,109082,2,0,P|260:236|293:250,1,72,2|2,0:0|0:0,0:0:0:0:
193,301,109236,1,2,0:0:0:0:
188,322,109314,2,0,P|152:329|119:343,1,72,2|0,1:2|0:0,0:0:0:0:
117,215,109468,1,2,0:0:0:0:
136,221,109545,1,2,0:0:0:0:
149,237,109623,1,10,0:2:0:0:
115,350,109777,1,2,0:0:0:0:
185,93,109932,6,0,P|174:120|166:148,1,58.4999973220826,0|0,1:2|0:0,0:0:0:0:
93,123,110087,2,0,P|100:94|111:67,1,58.4999973220826
234,13,110241,5,8,0:2:0:0:
257,14,110319,1,0,0:0:0:0:
277,22,110396,1,2,0:0:0:0:
293,38,110473,1,2,0:0:0:0:
313,58,110551,5,2,1:2:0:0:
289,74,110628,1,2,0:0:0:0:
271,97,110705,1,2,0:0:0:0:
264,125,110783,1,2,0:0:0:0:
249,156,110860,5,10,0:2:0:0:
280,140,110937,1,2,0:0:0:0:
315,134,111015,1,2,1:2:0:0:
349,139,111092,1,2,0:0:0:0:
377,159,111169,1,2,1:2:0:0:
394,189,111247,1,2,0:0:0:0:
399,223,111324,1,2,0:0:0:0:
390,256,111401,1,2,0:0:0:0:
370,284,111478,5,10,0:2:0:0:
343,270,111556,1,2,0:0:0:0:
314,275,111633,1,2,0:0:0:0:
290,292,111710,1,2,0:0:0:0:
278,319,111788,5,2,1:2:0:0:
280,296,111865,1,2,0:0:0:0:
262,280,111942,1,2,0:0:0:0:
238,284,112020,1,2,0:0:0:0:
227,305,112097,1,10,0:2:0:0:
344,361,112252,1,2,0:0:0:0:
180,187,112406,6,0,P|162:251|95:250,1,144,6|2,1:2|0:0,0:0:0:0:
61,178,112638,1,2,0:0:0:0:
66,154,112716,1,10,0:2:0:0:
154,338,112870,1,2,0:0:0:0:
94,60,113025,6,0,P|141:108|205:84,1,144,2|2,1:2|0:0,0:0:0:0:
277,57,113257,1,2,0:0:0:0:
272,33,113335,1,10,0:2:0:0:
173,189,113489,1,2,0:0:0:0:
457,33,113643,5,2,1:2:0:0:
316,126,113798,1,2,0:0:0:0:
493,253,113953,5,10,0:2:0:0:
418,106,114107,1,2,0:0:0:0:
333,220,114262,5,2,1:2:0:0:
432,197,114417,1,2,0:0:0:0:
354,56,114571,6,0,L|394:268,1,216,10|0,0:2|0:0,0:0:0:0:
410,345,114881,2,0,P|363:308|273:338,1,144,2|2,1:2|0:0,0:0:0:0:
495,260,115190,1,10,0:2:0:0:
488,335,115344,1,0,0:0:0:0:
205,245,115499,6,0,P|262:205|329:224,1,144,0|0,1:2|0:0,0:0:0:0:
209,337,115808,1,8,0:2:0:0:
208,329,115886,1,8,0:2:0:0:
207,321,115963,1,8,0:2:0:0:
63,62,116118,5,10,0:2:0:0:
19,86,116195,1,10,0:2:0:0:
0,132,116272,1,2,1:2:0:0:
12,181,116350,1,2,1:2:0:0:
49,212,116427,5,10,0:2:0:0:
46,169,116504,1,2,0:0:0:0:
61,128,116582,1,2,0:0:0:0:
95,100,116659,1,2,0:0:0:0:
136,90,116736,5,2,1:2:0:0:
122,124,116814,1,2,1:2:0:0:
129,158,116891,1,2,1:2:0:0:
151,183,116968,1,2,1:2:0:0:
187,188,117045,1,10,0:2:0:0:
219,169,117123,1,2,0:0:0:0:
261,161,117200,1,2,0:0:0:0:
308,178,117277,1,2,0:0:0:0:
330,222,117355,6,0,B|327:260|327:260|321:259|321:259|317:309,3,76.5000014591217,2|2|2|2,1:2|0:0|1:2|0:0,0:0:0:0:
410,373,117664,2,0,B|406:335|406:335|400:336|400:336|396:286,3,76.5000014591217,10|2|2|2,0:2|0:0|1:2|0:0,0:0:0:0:
407,227,117973,5,10,0:2:0:0:
418,204,118051,1,0,0:0:0:0:
439,187,118128,1,2,1:2:0:0:
475,178,118205,1,0,0:0:0:0:
507,146,118283,1,10,0:2:0:0:
507,99,118360,1,0,0:0:0:0:
464,62,118437,1,2,1:2:0:0:
404,66,118515,1,0,0:0:0:0:
371,120,118592,5,10,0:2:0:0:
408,78,118669,1,0,0:0:0:0:
400,26,118747,1,2,1:2:0:0:
356,9,118824,1,0,0:0:0:0:
319,25,118901,1,10,0:2:0:0:
307,51,118978,1,0,0:0:0:0:
293,65,119056,6,0,B|283:72|283:72|233:54|233:54|223:57,1,76.5000014591217,2|0,1:2|0:0,0:0:0:0:
159,105,119210,2,0,B|171:105|171:105|203:63|203:63|213:60,1,76.5000014591217,10|0,0:2|0:0,0:0:0:0:
242,140,119365,5,2,1:2:0:0:
248,161,119442,1,0,0:0:0:0:
254,183,119520,1,10,0:2:0:0:
258,205,119597,1,0,0:0:0:0:
262,226,119674,1,2,1:2:0:0:
264,249,119752,1,0,0:0:0:0:
266,271,119829,1,10,0:2:0:0:
0,290,119984,6,0,B|16:255|52:278|52:278|122:324|168:253|168:253|236:148|342:216|342:216|412:262|458:192|458:192|480:156|516:179,1,612.000011672974,2|2,1:2|1:2,0:0:0:0:
409,273,120757,2,0,B|403:264|403:264|446:143|446:143|439:132,1,153.000002918243,10|0,0:2|1:2,0:0:0:0:
379,59,120989,1,0,0:0:0:0:
372,70,121066,5,2,1:2:0:0:
319,77,121143,1,10,0:2:0:0:
265,85,121221,1,10,0:2:0:0:
212,93,121298,1,10,0:2:0:0:
180,124,121375,5,10,0:2:0:0:
229,148,121453,1,2,1:2:0:0:
259,182,121530,1,2,1:2:0:0:
267,221,121607,1,2,1:2:0:0:
260,257,121685,1,2,1:2:0:0:
237,279,121762,1,2,1:2:0:0:
211,286,121839,1,2,1:2:0:0:
186,275,121917,1,10,0:2:0:0:
179,256,121994,2,0,B|178:211|178:211|193:257,3,76.5000014591217,2|2|2|2,1:2|0:0|0:0|0:0,0:0:0:0:
111,171,122303,5,14,0:2:0:0:
90,171,122381,1,2,0:0:0:0:
72,185,122458,1,2,1:2:0:0:
66,213,122535,1,2,0:0:0:0:
97,259,122613,5,10,0:2:0:0:
101,306,122690,1,2,0:0:0:0:
77,329,122767,1,2,1:2:0:0:
53,340,122844,1,2,0:0:0:0:
3,363,122922,5,10,0:2:0:0:
27,325,122999,1,2,0:0:0:0:
52,288,123076,1,2,1:2:0:0:
76,249,123154,1,2,0:0:0:0:
97,210,123231,1,10,0:2:0:0:
117,170,123308,1,2,0:0:0:0:
131,126,123386,2,0,P|139:88|145:50,1,76.5000014591217,2|2,1:2|0:0,0:0:0:0:
36,18,123540,5,10,0:2:0:0:
37,25,123618,1,0,0:0:0:0:
38,32,123695,1,2,1:2:0:0:
39,39,123772,1,0,0:0:0:0:
31,84,123850,5,10,0:2:0:0:
85,56,123927,1,2,0:0:0:0:
144,43,124004,1,2,1:2:0:0:
205,44,124082,1,2,0:0:0:0:
264,58,124159,1,10,0:2:0:0:
319,82,124236,1,2,0:0:0:0:
364,124,124314,1,2,1:2:0:0:
392,177,124391,1,2,0:0:0:0:
400,237,124468,5,10,0:2:0:0:
392,239,124545,1,2,0:0:0:0:
385,242,124623,1,2,1:2:0:0:
378,246,124700,1,2,0:0:0:0:
324,233,124777,6,0,B|350:256|351:299|351:299|352:310|350:321|274:235|207:258,1,229.500004377365,10|0,0:2|0:0,0:0:0:0:
156,305,125087,5,10,0:2:0:0:
157,312,125165,1,2,0:0:0:0:
158,319,125242,1,2,1:2:0:0:
159,326,125319,1,2,0:0:0:0:
188,372,125396,5,10,0:2:0:0:
227,325,125473,1,2,0:0:0:0:
218,263,125551,1,2,1:2:0:0:
167,228,125628,1,2,0:0:0:0:
116,235,125705,1,10,0:2:0:0:
73,210,125783,1,0,0:0:0:0:
69,166,125860,1,8,0:2:0:0:
93,134,125937,1,0,0:0:0:0:
115,122,126015,6,0,B|130:115|130:115|167:135|167:135|170:152,1,76.5000014591217,2|0,1:2|1:2,0:0:0:0:
331,96,126169,2,0,B|341:108|341:108|334:149|334:149|318:158,1,76.5000014591217,8|10,0:2|0:2,0:0:0:0:
219,74,126324,6,0,B|235:78|235:78|253:115|253:115|245:131,1,76.5000014591217,10|0,0:2|1:2,0:0:0:0:
408,179,126478,2,0,B|409:195|409:195|379:224|379:224|361:222,1,76.5000014591217,0|2,1:2|0:0,0:0:0:0:
443,62,126633,5,0,1:2:0:0:
428,97,126710,1,0,0:0:0:0:
416,133,126787,1,0,1:2:0:0:
404,170,126864,1,8,0:2:0:0:
394,206,126942,1,4,1:2:0:0:
386,244,127019,1,0,0:0:0:0:
378,281,127096,1,0,1:2:0:0:
373,319,127174,1,0,0:0:0:0:
372,358,127252,6,0,B|484:398|564:355|593:227|511:143|375:153|290:183|409:398|163:341|163:341|140:332|119:328|107:320|9:100|176:15|263:26|410:150|282:257|151:179|236:382,1,1295.99996044922,6|0,1:2|0:0,0:0:0:0:
240,371,132200,6,0,P|244:321|250:272,1,99.0000030212403,2|0,1:2|0:0,0:0:0:0:
330,232,132509,2,0,P|323:182|319:133,1,99.0000030212403,0|0,1:2|0:0,0:0:0:0:
231,369,132819,6,0,P|235:319|241:270,1,99.0000030212403,0|0,1:2|0:0,0:0:0:0:
320,233,133128,2,0,P|313:183|309:134,1,99.0000030212403,0|0,1:2|0:0,0:0:0:0:
141,180,133437,6,0,P|190:184|239:190,1,99.0000030212403,2|0,1:2|0:0,0:0:0:0:
318,315,133746,2,0,P|367:308|416:304,1,99.0000030212403,0|0,1:2|0:0,0:0:0:0:
142,172,134056,6,0,P|191:176|240:182,1,99.0000030212403,2|0,1:2|0:0,0:0:0:0:
417,314,134365,2,0,P|368:318|319:325,1,99.0000030212403,2|0,1:2|0:0,0:0:0:0:
63,121,134674,6,0,P|58:170|52:219,1,99.0000030212403,2|0,1:2|0:0,0:0:0:0:
130,256,134983,2,0,P|136:305|140:354,1,99.0000030212403,0|0,1:2|0:0,0:0:0:0:
53,120,135293,6,0,P|48:169|42:218,1,99.0000030212403,0|0,1:2|0:0,0:0:0:0:
121,258,135602,2,0,P|127:307|131:356,1,99.0000030212403,0|0,1:2|0:0,0:0:0:0:
300,325,135911,6,0,P|304:275|310:226,1,99.0000030212403,2|0,1:2|0:0,0:0:0:0:
249,178,136220,2,0,P|242:128|238:79,1,99.0000030212403,0|0,1:2|0:0,0:0:0:0:
310,326,136530,6,0,P|314:276|320:227,1,99.0000030212403,0|0,1:2|0:0,0:0:0:0:
258,176,136839,2,0,P|251:126|247:77,1,99.0000030212403,0|0,1:2|0:0,0:0:0:0:
503,216,137149,5,2,1:2:0:0:
479,233,137226,1,0,0:0:0:0:
451,241,137303,1,2,0:0:0:0:
421,239,137381,1,0,0:0:0:0:
395,225,137458,2,0,P|438:182|449:120,1,116.999994644165,8|2,0:2|0:0,0:0:0:0:
507,68,137690,1,2,0:0:0:0:
501,45,137767,1,2,1:2:0:0:
256,74,137922,6,0,P|275:51|302:41,1,58.4999973220826,0|0,1:2|0:0,0:0:0:0:
379,25,138076,1,2,1:2:0:0:
407,31,138154,1,0,0:0:0:0:
422,55,138231,1,2,0:0:0:0:
249,178,138386,6,0,L|149:160,1,58.4999973220826,0|0,1:2|0:0,0:0:0:0:
233,253,138540,2,0,L|133:235,1,58.4999973220826,2|0,0:0|0:0,0:0:0:0:
217,328,138695,1,2,1:2:0:0:
188,322,138772,1,0,0:0:0:0:
159,317,138849,1,0,0:0:0:0:
95,24,139004,5,2,1:2:0:0:
121,10,139082,2,0,P|165:25|135:119,1,116.999994644165
185,167,139314,2,0,P|127:155|69:146,1,116.999994644165,2|0,1:2|0:0,0:0:0:0:
243,255,139623,5,2,1:2:0:0:
281,246,139700,1,2,0:0:0:0:
319,238,139777,1,2,0:0:0:0:
357,231,139854,1,2,0:0:0:0:
396,224,139932,1,2,1:2:0:0:
434,218,140009,1,2,0:0:0:0:
473,213,140087,2,0,P|462:240|456:268,1,58.4999973220826,2|0,0:0|0:0,0:0:0:0:
402,144,140241,1,2,1:2:0:0:
47,277,140473,5,2,0:0:0:0:
71,259,140551,2,0,P|109:261|147:335,1,116.999994644165,2|2,1:2|0:0,0:0:0:0:
238,360,140783,1,2,0:0:0:0:
219,363,140860,5,2,1:2:0:0:
228,325,140937,1,0,0:0:0:0:
236,287,141014,1,2,0:0:0:0:
243,249,141091,1,0,0:0:0:0:
250,210,141169,1,2,1:2:0:0:
235,215,141247,6,0,P|234:200|231:186,4,29.2499986610413,2|2|2|2|2,0:0|0:0|0:0|0:0|0:0,0:0:0:0:
112,177,141478,6,0,P|129:155|157:146,1,58.4999973220826,2|2,1:2|0:0,0:0:0:0:
199,71,141633,2,0,P|227:65|253:76,1,58.4999973220826,2|0,0:0|0:0,0:0:0:0:
358,0,141788,2,0,P|336:85|323:171,1,175.499991966248,0|0,1:2|0:0,0:0:0:0:
325,254,142097,5,2,1:2:0:0:
354,332,142252,1,0,0:0:0:0:
496,129,142406,6,0,P|439:135|402:178,1,116.999994644165,8|2,0:2|0:0,0:0:0:0:
402,255,142638,1,0,0:0:0:0:
407,271,142715,1,2,1:2:0:0:
437,344,142870,1,0,0:0:0:0:
494,121,143025,5,2,1:2:0:0:
476,96,143102,1,0,0:0:0:0:
446,98,143180,1,0,0:0:0:0:
320,178,143334,5,2,1:2:0:0:
231,186,143489,1,2,0:0:0:0:
108,73,143643,5,2,1:2:0:0:
197,65,143798,1,0,0:0:0:0:
230,195,143953,5,2,1:2:0:0:
141,203,144108,1,0,0:0:0:0:
199,57,144262,5,2,1:2:0:0:
288,49,144417,1,0,0:0:0:0:
510,189,144571,5,2,1:2:0:0:
494,153,144648,1,0,0:0:0:0:
467,124,144725,1,2,0:0:0:0:
433,106,144802,1,0,0:0:0:0:
395,98,144880,1,2,1:2:0:0:
357,104,144957,1,0,0:0:0:0:
322,121,145035,2,0,P|328:149|327:178,1,58.4999973220826,2|0,0:0|0:0,0:0:0:0:
289,259,145190,1,2,1:2:0:0:
38,256,145421,5,2,0:0:0:0:
62,274,145499,2,0,P|100:272|138:198,1,116.999994644165,2|2,1:2|0:0,0:0:0:0:
92,148,145731,1,2,0:0:0:0:
88,155,145808,5,2,0:3:0:0:
287,263,146118,1,2,0:3:0:0:
486,371,146427,1,2,0:3:0:0:
480,374,147045,5,6,3:2:0:0:
478,358,147122,1,0,1:2:0:0:
477,343,147199,1,0,1:2:0:0:
476,328,147276,1,0,1:2:0:0:
475,313,147354,1,0,1:2:0:0:
474,298,147431,1,0,1:2:0:0:
473,283,147508,1,0,1:2:0:0:
472,268,147586,1,0,1:2:0:0:
470,253,147663,1,0,1:2:0:0:
469,238,147740,1,0,1:2:0:0:
468,223,147818,1,0,1:2:0:0:
467,208,147895,1,0,1:2:0:0:
465,193,147972,1,8,0:2:0:0:
464,178,148050,1,0,1:2:0:0:
463,163,148127,1,0,1:2:0:0:
461,148,148204,1,0,1:2:0:0:
427,117,148283,5,10,1:2:0:0:
420,144,148360,1,8,0:2:0:0:
412,166,148437,1,0,1:2:0:0:
406,185,148515,1,0,1:2:0:0:
400,198,148592,1,0,1:2:0:0:
394,210,148669,1,0,1:2:0:0:
389,218,148747,1,0,1:2:0:0:
384,224,148824,1,0,1:2:0:0:
388,253,148901,5,8,0:2:0:0:
357,238,148978,1,8,0:2:0:0:
323,247,149056,1,0,1:2:0:0:
303,274,149133,1,0,1:2:0:0:
297,324,149210,5,8,0:2:0:0:
285,291,149287,1,0,0:0:0:0:
255,273,149365,1,0,1:2:0:0:
221,277,149442,1,0,0:0:0:0:
208,289,149520,5,6,3:2:0:0:
210,273,149597,1,0,1:2:0:0:
211,258,149674,1,0,1:2:0:0:
212,243,149751,1,0,1:2:0:0:
213,228,149829,1,0,1:2:0:0:
214,213,149906,1,0,1:2:0:0:
215,198,149983,1,0,1:2:0:0:
216,183,150061,1,0,1:2:0:0:
187,156,150138,5,2,3:2:0:0:
184,178,150215,1,0,1:2:0:0:
182,201,150293,1,0,1:2:0:0:
181,223,150370,1,0,1:2:0:0:
179,246,150447,1,0,1:2:0:0:
178,268,150525,1,0,1:2:0:0:
176,291,150602,1,0,1:2:0:0:
175,313,150679,1,0,1:2:0:0:
146,332,150757,6,0,P|138:309|122:291,1,49.5000015106202,10|8,3:2|0:2,0:0:0:0:
32,211,150911,2,0,P|65:211|99:213,1,67.5000025749208,2|0,1:2|1:2,0:0:0:0:
324,120,151066,2,0,P|290:119|256:117,1,67.5000025749208,2|0,1:2|0:0,0:0:0:0:
32,202,151221,2,0,P|65:202|99:204,1,67.5000025749208,2|0,0:0|0:0,0:0:0:0:
289,203,151375,6,0,P|361:269|354:366,1,188.999994232178,2|0,1:2|1:2,0:0:0:0:
370,358,151685,2,0,P|370:259|297:194,1,202.500007724762,10|0,0:2|1:2,0:0:0:0:
330,126,151994,6,0,P|392:127|458:134,1,125.999996154785,6|0,3:2|0:0,0:0:0:0:
226,32,152303,1,8,0:2:0:0:
289,203,152458,1,0,0:0:0:0:
463,138,152613,5,2,1:2:0:0:
441,217,152767,1,0,0:0:0:0:
359,29,152922,2,0,P|296:30|231:37,1,125.999996154785,10|0,0:2|1:2,0:0:0:0:
40,11,153231,2,0,P|79:86|102:212,1,188.999994232178,6|0,3:2|0:0,0:0:0:0:
200,178,153540,2,0,P|174:237|168:308,1,125.999996154785,8|2,0:2|0:0,0:0:0:0:
169,97,153850,5,2,1:2:0:0:
107,346,154004,1,0,0:0:0:0:
2,127,154159,2,0,P|59:150|102:197,1,125.999996154785,10|2,0:2|1:2,0:0:0:0:
225,357,154468,6,0,P|318:340|413:338,1,188.999994232178,6|0,3:2|0:0,0:0:0:0:
492,354,154777,1,8,0:2:0:0:
313,302,154932,1,2,1:2:0:0:
491,237,155087,6,0,P|398:220|303:218,1,188.999994232178,6|0,3:2|0:0,0:0:0:0:
224,233,155396,1,8,0:2:0:0:
408,182,155551,1,0,0:0:0:0:
200,89,155705,5,10,3:2:0:0:
187,124,155783,1,8,0:2:0:0:
209,154,155860,1,2,1:2:0:0:
470,117,156015,1,10,0:2:0:0:
483,82,156093,1,2,0:0:0:0:
461,52,156170,1,2,0:0:0:0:
279,107,156324,5,8,0:2:0:0:
392,94,156478,1,0,0:0:0:0:
114,153,156633,6,0,L|83:145,1,31.4999990386963,10|0,0:2|0:0,0:0:0:0:
109,168,156710,2,0,L|78:160,1,31.4999990386963,2|0,0:0|0:0,0:0:0:0:
106,184,156787,2,0,L|75:176,1,31.4999990386963,2|0,0:0|0:0,0:0:0:0:
101,201,156865,2,0,L|70:193,1,31.4999990386963,2|0,0:0|0:0,0:0:0:0:
131,183,156943,5,6,3:2:0:0:
2,84,157097,1,2,0:0:0:0:
215,159,157252,1,10,0:2:0:0:
5,297,157406,2,0,P|67:288|130:284,1,125.999996154785,2|0,0:0|1:2,0:0:0:0:
338,180,157716,2,0,P|275:171|212:167,1,125.999996154785,2|8,0:0|0:2,0:0:0:0:
199,369,158025,5,2,0:0:0:0:
241,269,158180,1,0,1:2:0:0:
131,293,158334,1,2,0:0:0:0:
307,349,158489,1,10,0:2:0:0:
215,159,158643,1,2,0:0:0:0:
244,259,158798,2,0,P|306:263|369:271,1,125.999996154785,2|0,1:2|0:0,0:0:0:0:
459,97,159107,6,0,P|396:85|347:186,1,188.999994232178,10|0,0:2|0:0,0:0:0:0:
426,206,159417,1,2,3:2:0:0:
302,48,159571,1,2,0:0:0:0:
378,273,159726,1,10,0:2:0:0:
466,92,159881,6,0,P|435:37|380:9,1,125.999996154785,2|0,0:0|1:2,0:0:0:0:
105,96,160190,2,0,P|159:66|221:73,1,125.999996154785,2|8,0:0|0:2,0:0:0:0:
350,190,160499,1,2,0:0:0:0:
244,259,160654,2,0,P|184:239|121:235,1,125.999996154785,2|2,1:2|0:0,0:0:0:0:
316,343,160963,5,10,0:2:0:0:
268,179,161118,1,2,0:0:0:0:
387,276,161272,1,2,1:2:0:0:
315,351,161427,1,2,0:0:0:0:
354,185,161582,2,0,P|392:135|459:139,1,125.999996154785,10|2,0:2|0:0,0:0:0:0:
390,267,161891,5,6,3:2:0:0:
268,179,162045,1,2,0:0:0:0:
160,352,162200,1,10,0:2:0:0:
387,276,162355,2,0,P|438:288|517:318,1,125.999996154785,2|0,0:0|1:2,0:0:0:0:
270,171,162664,2,0,P|219:183|140:213,1,125.999996154785,2|8,0:0|0:2,0:0:0:0:
455,142,162973,5,2,0:0:0:0:
354,193,163128,1,2,1:2:0:0:
347,1,163283,5,2,0:0:0:0:
442,62,163438,1,10,0:2:0:0:
275,162,163592,5,2,0:0:0:0:
281,49,163747,2,0,P|319:91|395:123,1,125.999996154785,2|0,3:2|0:0,0:0:0:0:
203,13,164056,2,0,P|146:20|76:63,1,125.999996154785,10|0,3:2|1:2,0:0:0:0:
89,322,164365,6,0,P|101:228|117:135,1,188.999994232178,6|0,1:2|0:0,0:0:0:0:
83,61,164674,1,8,0:2:0:0:
53,249,164829,1,2,0:0:0:0:
145,211,164984,2,0,P|222:238|261:292,1,125.999996154785,2|0,1:2|0:0,0:0:0:0:
374,124,165293,2,0,P|338:197|349:263,1,125.999996154785,10|2,0:2|0:0,0:0:0:0:
215,26,165602,5,10,3:2:0:0:
227,61,165679,1,8,0:2:0:0:
239,97,165756,1,0,1:2:0:0:
251,133,165833,1,0,1:2:0:0:
263,169,165911,1,8,0:2:0:0:
318,318,166066,1,0,1:2:0:0:
382,123,166221,1,10,3:2:0:0:
254,276,166375,1,8,0:2:0:0:
432,189,166530,5,10,0:0:0:0:
429,196,166607,1,2,0:0:0:0:
427,203,166685,1,2,0:0:0:0:
424,211,166762,1,2,0:0:0:0:
447,256,166839,5,6,3:2:0:0:
434,62,166994,1,2,0:0:0:0:
250,269,167149,1,10,0:2:0:0:
428,54,167303,2,0,B|381:38|355:79|357:83|360:87|335:128|287:108,1,153.000002918243,2|0,0:0|1:2,0:0:0:0:
53,249,167613,5,2,0:0:0:0:
82,61,167767,1,8,0:2:0:0:
250,269,167922,2,0,P|184:307|127:358,1,153.000002918243,2|0,0:0|1:2,0:0:0:0:
327,326,168231,5,2,0:0:0:0:
60,241,168386,1,10,0:2:0:0:
235,175,168540,1,2,0:0:0:0:
123,364,168695,2,0,P|136:288|144:212,1,153.000002918243,2|2,1:2|0:0,0:0:0:0:
0,10,169004,2,0,P|8:86|21:161,1,153.000002918243,10|2,0:2|0:0,0:0:0:0:
250,269,169314,5,2,3:2:0:0:
298,112,169468,1,2,0:0:0:0:
24,170,169623,1,10,0:2:0:0:
253,277,169777,2,0,P|333:252|451:247,1,153.000002918243,2|0,0:0|1:2,0:0:0:0:
296,120,170087,5,2,0:0:0:0:
349,351,170241,1,8,0:2:0:0:
479,253,170396,1,2,0:0:0:0:
171,73,170551,2,0,B|148:139|207:176|212:173|218:168|276:203|248:272,1,229.500004377365,2|2,1:2|0:0,0:0:0:0:
256,354,170860,2,0,P|180:360|176:288,1,153.000002918243,10|2,0:2|0:0,0:0:0:0:
401,245,171169,5,2,1:2:0:0:
190,214,171324,1,2,0:0:0:0:
449,136,171478,1,10,0:2:0:0:
479,253,171633,1,2,0:0:0:0:
455,60,171788,5,6,3:2:0:0:
430,316,171942,1,2,0:0:0:0:
456,49,172097,1,10,0:2:0:0:
401,237,172252,2,0,P|343:204|255:180,1,153.000002918243,2|0,0:0|1:2,0:0:0:0:
263,361,172561,5,2,0:0:0:0:
370,129,172716,1,8,0:2:0:0:
33,237,172870,2,0,P|106:256|173:293,1,153.000002918243,2|0,0:0|0:0,0:0:0:0:
252,181,173180,5,2,0:0:0:0:
63,353,173334,1,10,0:2:0:0:
261,368,173489,1,2,0:0:0:0:
152,180,173643,2,0,P|148:107|209:68,1,153.000002918243,2|0,3:2|0:0,0:0:0:0:
401,242,173953,2,0,P|404:314|343:353,1,153.000002918243,10|0,3:2|0:0,0:0:0:0:
178,299,174262,5,10,3:2:0:0:
207,274,174339,1,10,0:2:0:0:
235,248,174416,1,2,1:2:0:0:
263,222,174493,1,2,1:2:0:0:
290,195,174571,1,10,0:2:0:0:
315,166,174648,1,2,0:0:0:0:
340,137,174725,1,2,1:2:0:0:
364,107,174803,1,10,0:2:0:0:
387,76,174881,2,0,P|386:25|372:0,3,76.5000014591217,8|0|8|0,0:2|0:0|0:2|0:0,0:0:0:0:
439,139,175190,5,10,0:2:0:0:
453,135,175267,1,2,0:0:0:0:
467,131,175344,1,2,0:0:0:0:
482,127,175422,1,2,0:0:0:0:
467,157,175499,5,10,3:2:0:0:
476,193,175576,1,2,0:0:0:0:
474,231,175654,1,10,0:2:0:0:
447,258,175731,1,10,0:2:0:0:
410,267,175808,1,10,0:2:0:0:
372,258,175886,1,10,0:2:0:0:
345,230,175963,1,10,0:2:0:0:
340,192,176040,1,2,1:2:0:0:
315,166,176118,5,2,1:2:0:0:
322,135,176195,1,10,0:2:0:0:
317,105,176272,1,10,0:2:0:0:
295,82,176350,1,10,0:2:0:0:
265,74,176427,1,10,0:2:0:0:
225,158,176582,5,10,0:2:0:0:
227,166,176659,1,10,0:2:0:0:
199,199,176736,5,6,1:2:0:0:
234,239,176814,1,2,0:0:0:0:
241,276,176891,1,10,0:2:0:0:
237,300,176968,1,2,0:0:0:0:
231,311,177045,2,0,P|209:330|181:335,1,58.4999973220826,2|2,1:2|0:0,0:0:0:0:
73,338,177200,5,10,0:2:0:0:
71,330,177277,1,2,0:0:0:0:
24,323,177355,5,2,1:2:0:0:
8,266,177432,1,2,0:0:0:0:
20,219,177509,1,10,0:2:0:0:
56,190,177587,1,2,0:0:0:0:
70,147,177664,1,2,1:2:0:0:
57,110,177741,1,2,0:0:0:0:
35,93,177819,1,10,0:2:0:0:
22,70,177896,1,2,0:0:0:0:
29,51,177973,5,2,1:2:0:0:
49,61,178050,1,0,0:0:0:0:
70,69,178127,1,8,0:2:0:0:
92,75,178204,1,0,0:0:0:0:
115,78,178283,2,0,P|143:81|172:76,1,58.4999973220826,2|2,1:2|0:0,0:0:0:0:
243,117,178437,5,10,0:2:0:0:
263,107,178514,1,2,0:0:0:0:
284,99,178591,1,2,1:2:0:0:
306,93,178668,1,2,0:0:0:0:
329,89,178747,2,0,P|357:85|386:90,1,58.4999973220826,10|2,0:2|0:0,0:0:0:0:
475,236,178901,6,0,P|491:212|488:184,1,58.4999973220826,2|0,1:2|0:0,0:0:0:0:
408,167,179056,2,0,P|392:191|396:220,1,58.4999973220826,10|0,0:2|0:0,0:0:0:0:
394,342,179210,5,2,1:2:0:0:
409,347,179288,1,2,0:0:0:0:
426,341,179365,1,10,0:2:0:0:
437,327,179442,1,2,0:0:0:0:
434,307,179520,1,2,1:2:0:0:
416,301,179597,1,2,0:0:0:0:
388,307,179674,1,10,0:2:0:0:
360,331,179752,1,2,0:0:0:0:
326,353,179829,1,2,1:2:0:0:
283,356,179906,1,0,0:0:0:0:
236,339,179984,1,10,0:2:0:0:
206,288,180061,1,2,0:0:0:0:
217,226,180138,1,2,1:2:0:0:
261,198,180216,1,2,0:0:0:0:
309,216,180293,1,10,0:2:0:0:
315,251,180370,1,0,0:0:0:0:
301,272,180448,5,2,1:2:0:0:
329,249,180525,1,2,0:0:0:0:
338,219,180602,1,10,0:2:0:0:
333,192,180680,1,2,0:0:0:0:
339,172,180757,1,2,1:2:0:0:
350,162,180834,1,2,0:0:0:0:
361,158,180911,1,10,0:2:0:0:
369,160,180989,1,2,0:0:0:0:
373,148,181066,6,0,P|304:94|220:103,1,175.499991966248,10|2,0:2|0:0,0:0:0:0:
140,50,181375,1,10,0:2:0:0:
144,91,181453,1,10,0:2:0:0:
149,131,181530,1,10,0:2:0:0:
154,171,181607,1,10,0:2:0:0:
149,181,181685,5,6,1:2:0:0:
222,110,181839,1,10,0:2:0:0:
73,121,181994,1,2,1:2:0:0:
235,215,182148,5,8,0:2:0:0:
237,235,182226,1,2,0:0:0:0:
239,255,182303,1,0,1:2:0:0:
223,120,182458,1,10,0:2:0:0:
81,230,182613,1,2,1:2:0:0:
161,266,182767,5,8,0:2:0:0:
163,286,182845,1,2,0:0:0:0:
165,306,182922,1,2,1:2:0:0:
224,129,183076,1,10,0:2:0:0:
21,178,183231,1,2,1:2:0:0:
315,247,183386,5,10,0:2:0:0:
317,267,183464,1,0,0:0:0:0:
319,287,183541,1,2,1:2:0:0:
225,138,183695,1,10,0:2:0:0:
29,287,183850,1,2,1:2:0:0:
249,334,184004,5,10,0:2:0:0:
251,354,184082,1,2,0:0:0:0:
253,374,184159,5,2,1:2:0:0:
255,353,184236,1,0,0:0:0:0:
257,332,184313,1,10,0:2:0:0:
260,311,184390,1,0,0:0:0:0:
264,291,184468,1,0,1:2:0:0:
268,270,184545,1,0,0:0:0:0:
272,250,184622,1,8,0:2:0:0:
277,229,184700,1,2,0:0:0:0:
311,220,184777,5,2,1:2:0:0:
309,199,184854,1,2,0:0:0:0:
306,178,184931,1,10,0:2:0:0:
303,157,185008,1,2,0:0:0:0:
300,137,185086,1,2,1:2:0:0:
296,116,185163,1,0,0:0:0:0:
291,96,185240,1,8,0:2:0:0:
473,52,185396,5,10,0:2:0:0:
491,74,185473,1,10,0:2:0:0:
491,103,185551,1,10,0:2:0:0:
473,126,185628,1,10,0:2:0:0:
444,130,185705,1,2,1:2:0:0:
418,115,185783,1,2,0:0:0:0:
408,87,185860,2,0,P|380:57|328:74,1,58.4999973220826,10|2,0:2|0:0,0:0:0:0:
221,129,186015,5,10,0:2:0:0:
385,185,186169,1,0,1:2:0:0:
241,25,186324,5,10,0:2:0:0:
237,31,186401,1,2,0:0:0:0:
233,37,186478,1,2,0:0:0:0:
231,43,186556,1,2,0:0:0:0:
197,56,186618,5,6,1:2:0:0:
148,37,186695,1,0,0:0:0:0:
105,53,186772,1,2,1:2:0:0:
87,86,186849,1,0,0:0:0:0:
90,113,186927,2,0,P|95:150|99:188,1,76.5000014591217,10|2,0:2|0:0,0:0:0:0:
12,125,187081,2,0,P|17:163|21:201,1,76.5000014591217,2|2,1:2|0:0,0:0:0:0:
177,218,187236,5,10,0:2:0:0:
188,209,187313,1,2,0:0:0:0:
205,206,187391,1,2,1:2:0:0:
226,213,187468,1,2,0:0:0:0:
244,237,187545,5,10,0:2:0:0:
208,234,187623,1,2,0:0:0:0:
170,255,187700,1,2,0:2:0:0:
154,304,187777,1,2,0:0:0:0:
191,346,187855,5,10,0:2:0:0:
237,314,187932,1,2,0:0:0:0:
291,324,188009,1,2,1:2:0:0:
469,214,188164,5,10,0:2:0:0:
474,201,188241,2,0,P|434:194|387:286,1,153.000002918243,2|2,0:0|0:0,0:0:0:0:
461,328,188473,2,0,P|496:320|505:285,1,76.5000014591217,10|2,0:2|0:0,0:0:0:0:
380,191,188628,1,2,1:2:0:0:
342,166,188705,1,2,0:0:0:0:
339,135,188782,2,0,P|356:102|392:103,1,76.5000014591217,10|0,0:2|0:0,0:0:0:0:
421,28,188937,2,0,P|456:34|468:69,1,76.5000014591217,2|0,1:2|0:0,0:0:0:0:
268,158,189092,5,10,0:2:0:0:
257,144,189169,1,0,0:0:0:0:
247,131,189246,1,2,1:2:0:0:
238,119,189324,1,2,0:0:0:0:
229,88,189401,5,10,0:2:0:0:
205,80,189478,1,0,0:0:0:0:
182,73,189555,1,2,1:2:0:0:
159,68,189633,1,0,0:0:0:0:
144,31,189710,5,10,0:2:0:0:
106,41,189787,1,2,0:0:0:0:
73,54,189864,1,2,1:2:0:0:
40,67,189942,1,2,0:0:0:0:
34,113,190020,5,10,0:2:0:0:
0,154,190098,1,2,0:0:0:0:
19,203,190175,1,10,0:2:0:0:
67,221,190252,1,2,0:0:0:0:
116,201,190330,1,2,1:2:0:0:
168,215,190407,1,10,0:2:0:0:
193,262,190484,1,10,0:2:0:0:
172,311,190562,1,10,0:2:0:0:
121,326,190638,5,10,0:2:0:0:
160,290,190715,1,2,0:0:0:0:
208,280,190793,1,2,1:2:0:0:
247,291,190870,1,2,0:0:0:0:
275,315,190947,1,2,1:2:0:0:
280,339,191025,1,0,0:0:0:0:
275,359,191102,1,2,1:2:0:0:
266,364,191179,1,2,0:0:0:0:
257,376,191257,5,2,1:2:0:0:
112,331,191411,1,2,1:2:0:0:
307,236,191566,6,0,P|370:250|466:299,1,153.000002918243,14|2,0:2|1:2,0:0:0:0:
501,343,191798,1,2,0:0:0:0:
509,356,191875,1,2,0:2:0:0:
398,221,192030,1,2,1:2:0:0:
494,162,192185,6,0,P|436:133|330:110,1,153.000002918243,10|2,0:2|1:2,0:0:0:0:
275,122,192417,1,2,0:0:0:0:
261,128,192494,1,2,0:2:0:0:
432,93,192649,1,2,1:2:0:0:
310,228,192803,5,10,0:2:0:0:
308,45,192958,1,2,1:2:0:0:
395,228,193112,5,8,0:2:0:0:
382,6,193267,1,2,1:2:0:0:
455,284,193422,5,10,0:2:0:0:
463,18,193576,1,2,1:2:0:0:
302,234,193731,5,10,0:2:0:0:
283,230,193808,1,2,0:0:0:0:
264,227,193885,1,2,1:2:0:0:
245,223,193962,1,2,0:0:0:0:
208,181,194040,5,10,0:2:0:0:
204,190,194118,1,2,0:0:0:0:
211,198,194194,1,2,1:2:0:0:
208,209,194272,1,2,0:0:0:0:
215,217,194349,1,10,0:2:0:0:
212,227,194427,1,2,0:0:0:0:
218,236,194503,1,2,1:2:0:0:
215,246,194581,1,2,0:0:0:0:
222,255,194658,1,10,0:2:0:0:
355,310,194813,6,0,P|318:317|294:346,1,76.5000014591217,2|2,1:2|0:0,0:0:0:0:
156,365,194968,1,10,0:2:0:0:
142,364,195045,2,0,P|121:332|126:295,1,76.5000014591217,0|0,0:0|1:2,0:0:0:0:
53,146,195200,1,0,0:0:0:0:
48,160,195277,5,8,0:2:0:0:
81,141,195354,1,8,0:2:0:0:
116,125,195431,1,8,0:2:0:0:
152,112,195508,1,8,0:2:0:0:
189,103,195586,1,8,0:2:0:0:
226,96,195663,1,8,0:2:0:0:
261,85,195741,5,2,1:2:0:0:
260,101,195819,1,2,0:0:0:0:
276,115,195896,5,2,1:2:0:0:
301,97,195973,1,10,0:2:0:0:
336,91,196050,1,10,0:2:0:0:
370,99,196128,1,10,0:2:0:0:
398,133,196205,1,10,0:2:0:0:
407,180,196282,1,2,0:0:0:0:
389,222,196360,1,2,1:2:0:0:
370,268,196437,1,2,0:0:0:0:
387,318,196514,1,6,1:2:0:0:
385,85,198989,5,10,0:2:0:0:
327,76,199066,1,8,0:2:0:0:
313,85,199143,5,2,1:2:0:0:
320,102,199221,1,0,1:2:0:0:
321,120,199298,1,2,1:2:0:0:
315,138,199375,1,0,1:2:0:0:
303,153,199453,1,0,1:2:0:0:
294,169,199530,1,2,1:2:0:0:
289,185,199607,2,0,P|291:210|307:229,3,49.5000015106202,2|0|2|0,1:2|1:2|1:2|1:2,0:0:0:0:
381,188,199916,5,14,0:2:0:0:
14,301,200226,1,6,1:2:0:0:
21,309,201463,5,10,0:2:0:0:
42,283,201540,1,8,0:2:0:0:
69,264,201617,1,10,0:2:0:0:
100,252,201694,1,8,0:2:0:0:
132,246,201772,1,10,0:2:0:0:
165,248,201849,1,8,0:2:0:0:
184,222,201927,5,0,1:2:0:0:
168,192,202004,1,2,0:0:0:0:
145,168,202081,1,10,0:2:0:0:
117,150,202158,1,8,0:2:0:0:
87,138,202236,1,10,0:2:0:0:
54,134,202313,1,8,0:2:0:0:
19,161,202391,6,0,L|7:219,3,49.5000015106202,2|0|8|10,1:2|0:0|0:2|0:2,0:0:0:0:
0,59,202700,5,2,1:2:0:0:
32,54,202777,1,0,0:0:0:0:
65,49,202854,1,10,0:2:0:0:
98,45,202931,1,8,0:2:0:0:
130,41,203009,1,10,0:2:0:0:
163,37,203086,1,8,0:2:0:0:
191,72,203164,5,2,1:2:0:0:
224,68,203241,1,0,0:0:0:0:
256,64,203319,1,10,0:2:0:0:
289,60,203396,1,8,0:2:0:0:
322,55,203473,1,10,0:2:0:0:
354,50,203550,1,8,0:2:0:0:
382,85,203628,6,0,P|422:80|466:69,3,49.5000015106202,0|0|10|8,1:2|0:0|0:2|0:2,0:0:0:0:
497,158,203937,5,10,0:2:0:0:
443,152,204014,1,8,0:2:0:0:
412,177,204092,1,2,1:2:0:0:
404,212,204169,1,0,1:2:0:0:
410,239,204246,1,2,1:2:0:0:
409,262,204324,1,0,1:2:0:0:
395,272,204401,6,0,P|360:255|326:254,1,49.5000015106202,0|2,1:2|1:2,0:0:0:0:
332,175,204556,2,0,P|293:181|265:200,1,49.5000015106202,2|0,1:2|1:2,0:0:0:0:
224,133,204710,2,0,P|197:161|185:193,1,49.5000015106202,2|0,1:2|1:2,0:0:0:0:
163,276,204865,6,0,P|155:187|144:100,1,175.499991966248,14|0,0:2|0:0,0:0:0:0:
63,115,205174,6,0,P|50:160|-3:227,1,116.999994644165,6|2,1:2|0:0,0:0:0:0:
95,38,205483,1,10,0:2:0:0:
110,216,205638,1,0,0:0:0:0:
249,11,205793,6,0,P|237:68|223:125,1,116.999994644165,2|2,1:2|0:0,0:0:0:0:
92,334,206102,6,0,P|103:276|117:219,1,116.999994644165,10|2,0:2|0:0,0:0:0:0:
223,132,206411,6,0,B|197:264|276:280|261:360,1,233.999989288331,6|0,1:2|0:0,0:0:0:0:
