osu file format v14

[General]
AudioFilename: audio.mp3
AudioLeadIn: 0
PreviewTime: 43800
Countdown: 0
SampleSet: Normal
StackLeniency: 0.9
Mode: 0
LetterboxInBreaks: 0
WidescreenStoryboard: 1

[Editor]
Bookmarks: 727,22669,44612,66555,88498,110441,132384,154327,176269
DistanceSpacing: 0.9
BeatDivisor: 4
GridSize: 32
TimelineZoom: 1.8

[Metadata]
Title:What It Feels Like (Zardonic Remix)
TitleUnicode:What It Feels Like (Zardonic Remix)
Artist:Markus Schukowski
ArtistUnicode:Markus Schukowski
Creator:kowari
Version:Hard
Source:
Tags:english electronic dnb drum and bass realazy
BeatmapID:4286008
BeatmapSetID:2052103

[Difficulty]
HPDrainRate:4
CircleSize:4
OverallDifficulty:7
ApproachRate:8
SliderMultiplier:1.4
SliderTickRate:1

[Events]
//Background and Video events
0,0,"horizons_form_by_tacosauceninja_deibwu5-fullview.jpg",0,0
//Break Periods
2,88698,108964
//Storyboard Layer 0 (Background)
//Storyboard Layer 1 (Fail)
//Storyboard Layer 2 (Pass)
//Storyboard Layer 3 (Foreground)
//Storyboard Layer 4 (Overlay)
//Storyboard Sound Samples

[TimingPoints]
727,342.857142857143,4,2,0,50,1,0
727,-100,4,2,0,50,0,0
11698,-125,4,2,0,60,0,0
22327,-100,4,2,0,70,0,0
22669,-100,4,2,0,70,0,0
33641,-100,4,2,0,70,0,0
39127,-100,4,2,0,70,0,0
43241,-200,4,2,0,70,0,0
44612,-90.9090909090909,4,1,0,80,0,1
49755,-100,4,1,0,80,0,1
50098,-100,4,1,0,80,0,1
60898,-100,4,1,0,80,0,1
61069,-100,4,1,0,80,0,1
66384,-100,4,1,0,80,0,0
66555,-100,4,1,0,80,0,1
77527,-100,4,1,0,80,0,1
88498,-100,4,1,0,70,0,0
110441,-125,4,2,0,60,0,0
121412,-100,4,2,0,70,0,0
132384,-83.3333333333333,4,2,0,80,0,1
143355,-83.3333333333333,4,2,0,80,0,1
151584,-100,4,2,0,80,0,1
154327,-100,4,1,0,80,0,1
176269,-100,4,2,0,70,0,0

[Colours]
Combo1 : 226,148,243
Combo2 : 247,196,183

[HitObjects]
256,278,11698,6,0,L|129:294,1,112,0|2,1:0|3:2,0:0:0:0:
70,263,12212,2,0,L|9:272,1,56,0|0,1:0|0:0,0:1:0:0:
113,128,12727,1,8,3:1:0:0:
113,128,13069,2,0,L|119:66,1,56,0|0,1:0|0:0,0:0:0:0:
202,158,13412,2,0,L|208:96,1,56,0|0,0:0|1:0,0:0:0:0:
209,10,13755,2,0,P|250:33|334:19,1,112,0|8,0:0|3:1,0:0:0:0:
469,10,14441,6,0,L|455:126,1,112,0|0,1:0|0:0,0:0:0:0:
491,192,14955,1,0,1:0:0:0:
491,192,15127,1,0,0:0:0:0:
420,319,15469,1,8,0:1:0:0:
420,319,15812,6,0,L|491:311,1,56,0|0,1:0|1:0,0:0:0:0:
376,250,16155,2,0,L|320:256,1,56,0|0,0:0|1:0,0:0:0:0:
265,328,16498,2,0,P|220:320|152:357,1,112,0|8,3:0|0:1,0:0:0:0:
82,380,17012,1,0,1:0:0:0:
16,307,17184,6,0,L|24:175,1,112,0|0,1:0|0:0,0:0:0:0:
78,138,17698,2,0,L|82:79,1,56,0|0,1:0|0:0,0:0:0:0:
35,6,18041,1,0,3:0:0:0:
35,6,18212,1,8,0:1:0:0:
179,42,18555,6,0,P|216:38|252:21,1,56,0|0,1:0|0:0,0:0:0:0:
288,104,18898,2,0,L|350:88,1,56,0|0,0:0|1:0,0:0:0:0:
366,176,19241,2,0,P|409:166|478:207,1,112,0|8,0:0|0:1,0:0:0:0:
458,345,19927,6,0,P|419:370|345:344,1,112,0|0,1:0|3:0,0:0:0:0:
288,312,20441,2,0,L|216:320,1,56,0|0,1:0|0:0,0:0:0:0:
71,325,20955,1,8,0:1:0:0:
71,325,21298,2,0,L|80:258,1,56,0|0,1:0|1:0,0:0:0:0:
161,249,21641,2,0,L|170:182,1,56,2|0,3:0|1:0,0:0:0:0:
207,117,21984,1,2,3:0:0:0:
207,117,22155,1,0,1:0:0:0:
121,63,22327,1,8,0:1:0:0:
121,63,22669,6,0,L|32:72,2,70,0|0|8,1:0|3:0|1:2,0:0:0:0:
202,7,23184,2,0,P|234:39|341:23,1,140,0|8,3:0|1:2,0:0:0:0:
410,7,23698,1,0,0:0:0:0:
410,7,23869,1,0,0:0:0:0:
472,87,24041,6,0,P|481:127|474:177,1,70,0|0,1:0|1:0,0:0:0:0:
421,224,24384,1,8,1:2:0:0:
323,192,24555,2,0,L|180:172,1,140,0|8,3:0|1:2,0:0:0:0:
106,116,25069,2,0,L|60:107,2,35
70,210,25412,6,0,B|89:285|89:285|58:351,1,140,0|8,1:0|1:2,0:0:0:0:
161,357,25927,1,0,0:0:0:0:
161,357,26012,1,0,0:0:0:0:
161,357,26098,2,0,L|237:342,1,70,0|8,3:0|1:2,0:0:0:0:
259,252,26441,2,0,L|267:209,2,35
347,297,26784,5,0,1:0:0:0:
347,297,26955,2,0,P|339:348|343:381,1,70,0|8,1:0|1:2,0:0:0:0:
431,337,27298,2,0,P|465:299|422:220,1,140,0|8,0:0|1:2,0:0:0:0:
347,182,27812,2,0,L|296:193,2,35,0|0|0,3:0|3:0|3:0,0:0:0:0:
424,117,28155,6,0,L|431:46,1,70,0|0,1:0|3:0,0:0:0:0:
350,2,28498,1,8,1:2:0:0:
267,58,28669,2,0,L|130:34,1,140,0|8,0:0|1:2,0:0:0:0:
38,11,29184,1,0,0:0:0:0:
38,11,29355,1,0,0:0:0:0:
55,109,29527,6,0,P|58:152|43:198,2,70,0|0|8,1:0|1:0|1:2,0:0:0:0:
140,179,30041,2,0,P|93:166|37:239,1,140,0|8,3:0|1:2,0:0:0:0:
64,323,30555,1,0,0:0:0:0:
161,300,30727,5,0,0:0:0:0:
161,300,30812,1,0,0:0:0:0:
161,300,30898,2,0,L|302:277,1,140,0|8,1:0|1:2,0:0:0:0:
393,322,31412,2,0,L|383:374,2,35,0|0|0,3:0|3:0|3:0,0:0:0:0:
479,270,31755,1,8,1:2:0:0:
395,196,31927,2,0,B|386:159|386:159|402:109,1,70
463,53,32269,6,0,P|422:77|324:28,1,140,0|8,1:0|1:2,0:0:0:0:
251,7,32784,2,0,L|205:20,2,35,0|0|0,3:0|3:0|3:0,0:0:0:0:
247,103,33127,1,8,1:2:0:0:
237,199,33298,2,0,L|233:250,3,35,0|0|0|0,3:0|3:0|3:0|3:0,0:0:0:0:
196,266,33641,6,0,P|204:301|202:342,1,70,0|0,1:0|0:0,0:0:0:0:
114,372,33984,1,8,1:2:0:0:
39,326,34155,2,0,L|111:315,1,70,0|0,3:0|3:0,0:0:0:0:
151,229,34498,1,10,1:2:0:0:
70,196,34669,1,2,0:0:0:0:
131,127,34841,5,2,0:0:0:0:
131,127,34927,1,0,0:0:0:0:
131,127,35012,2,0,L|137:51,2,70,2|0|8,1:2|1:0|1:2,0:0:0:0:
219,85,35527,2,0,P|268:99|337:39,1,140,2|8,0:0|1:2,0:0:0:0:
413,96,36041,2,0,L|492:108,1,70,2|0,0:0|0:0,0:0:0:0:
435,194,36384,6,0,P|444:229|436:276,2,70,2|0|8,1:2|0:0|1:2,0:0:0:0:
507,313,36898,2,0,P|453:329|406:258,1,140,0|10,3:0|1:2,0:0:0:0:
323,222,37412,2,0,P|280:231|234:262,1,70,2|2,0:0|0:0,0:0:0:0:
205,322,37755,6,0,B|118:299|118:299|128:358,1,140,2|8,1:2|1:2,0:0:0:0:
23,303,38269,2,0,L|43:229,1,70,2|0,0:0|3:0,0:0:0:0:
87,148,38612,1,8,1:2:0:0:
87,148,38784,1,0,3:0:0:0:
1,98,38955,1,0,3:0:0:0:
79,62,39127,6,0,P|124:62|165:45,2,70,0|0|8,1:0|0:0|1:2,0:0:0:0:
194,129,39641,2,0,P|183:79|261:38,1,140,0|10,0:0|1:2,0:0:0:0:
342,69,40155,2,0,L|330:144,1,70,2|2,0:0|0:0,0:0:0:0:
432,124,40498,5,0,1:0:0:0:
432,124,40669,2,0,P|429:165|445:216,1,70,0|8,1:0|1:2,0:0:0:0:
409,287,41012,2,0,L|493:296,1,70,0|0,3:0|3:0,0:0:0:0:
439,372,41355,1,8,1:2:0:0:
336,346,41527,2,0,L|257:353,1,70,0|0,3:0|3:0,0:0:0:0:
174,376,41869,6,0,P|163:334|233:265,1,140,0|8,1:0|1:2,0:0:0:0:
296,219,42384,2,0,P|303:179|291:135,1,70,0|0,3:0|3:0,0:0:0:0:
260,63,42727,1,10,1:2:0:0:
165,49,42898,2,0,L|115:60,2,35,2|0|2,0:0|0:0|0:0,0:0:0:0:
323,0,43241,5,0,1:2:0:0:
323,0,44612,2,0,P|381:18|430:9,1,77.0000023498536,4|2,1:2|0:3,0:0:0:0:
489,11,44955,1,8,0:1:0:0:
465,114,45127,2,0,P|426:104|359:186,1,154.000004699707,4|8,0:3|0:0,0:0:0:0:
382,272,45641,1,0,0:0:0:0:
490,282,45812,5,0,0:0:0:0:
490,282,45898,1,0,0:0:0:0:
490,282,45984,2,0,L|504:197,2,77.0000023498536,4|2|8,0:2|0:3|0:0,0:0:0:0:
500,377,46498,2,0,B|447:362|447:362|408:372|408:372|340:351,1,154.000004699707,4|8,0:3|0:0,0:0:0:0:
255,276,47012,1,0,0:0:0:0:
197,353,47184,1,0,0:0:0:0:
119,304,47355,6,0,P|70:317|28:310,2,77.0000023498536,4|0|8,0:3|0:0|0:0,0:0:0:0:
171,226,47869,2,0,P|181:177|105:112,1,154.000004699707,4|8,0:3|0:0,0:0:0:0:
17,129,48384,1,4,0:3:0:0:
24,24,48555,5,4,0:3:0:0:
24,24,48641,1,2,0:2:0:0:
24,24,48727,2,0,L|114:38,1,77.0000023498536,4|0,0:3|0:0,0:0:0:0:
174,91,49069,1,8,0:0:0:0:
268,72,49241,2,0,P|283:30|276:-13,1,77.0000023498536,0|4,0:0|0:2,0:0:0:0:
166,15,49584,5,10,0:0:0:0:
179,98,49755,1,4,0:2:0:0:
194,180,49927,1,2,0:0:0:0:
215,275,50098,6,0,B|179:263|179:263|130:271,2,70,4|0|8,1:2|0:0|0:0,0:0:0:0:
294,224,50612,2,0,P|343:242|415:170,1,140,4|8,0:3|0:0,0:0:0:0:
494,234,51127,1,4,0:3:0:0:
474,128,51298,5,4,0:3:0:0:
474,128,51384,1,2,0:2:0:0:
474,128,51469,2,0,L|486:41,2,70,4|4|8,0:3|0:3|0:0,0:0:0:0:
392,89,51984,2,0,L|312:103,1,70,4|4,0:3|0:3,0:0:0:0:
202,127,52327,1,8,0:0:0:0:
159,39,52498,1,0,0:0:0:0:
259,53,52669,1,0,0:0:0:0:
205,137,52841,6,0,B|188:240|188:240|246:232,1,140,4|8,0:3|0:0,0:0:0:0:
328,224,53355,2,0,L|371:218,2,35,4|0|4,0:3|0:0|0:3,0:0:0:0:
333,334,53698,2,0,P|297:319|245:330,1,70,8|0,0:0|0:0,0:0:0:0:
181,364,54041,5,0,0:0:0:0:
181,364,54127,1,0,0:0:0:0:
181,364,54212,1,4,0:3:0:0:
87,360,54384,2,0,P|50:349|9:302,1,70,4|8,0:3|0:0,0:0:0:0:
13,231,54727,2,0,P|25:187|118:157,1,140,0|8,0:0|0:0,0:0:0:0:
190,207,55241,2,0,L|117:191,1,70,4|4,0:3|0:3,0:0:0:0:
67,64,55584,6,0,B|123:103|123:103|211:89,1,140,4|8,0:2|0:0,0:0:0:0:
283,146,56098,1,0,0:0:0:0:
283,146,56184,1,0,0:0:0:0:
283,146,56269,1,0,0:0:0:0:
372,190,56441,2,0,L|362:105,1,70,8|0,0:0|0:0,0:0:0:0:
342,30,56784,1,0,0:0:0:0:
431,50,56955,6,0,P|469:57|521:47,2,70,4|0|8,0:2|0:0|0:0,0:0:0:0:
309,55,57469,2,0,P|272:43|192:115,1,140,4|8,0:3|0:0,0:0:0:0:
186,198,57984,1,4,0:3:0:0:
268,262,58155,5,4,0:3:0:0:
268,262,58241,1,0,0:0:0:0:
268,262,58327,2,0,P|265:313|252:355,1,70,4|0,0:2|0:0,0:0:0:0:
179,373,58669,1,8,0:0:0:0:
105,321,58841,2,0,L|25:334,1,70,4|4,0:3|0:3,0:0:0:0:
3,211,59184,2,0,B|92:233|92:233|93:185,1,140,8|0,0:0|0:0,0:0:0:0:
130,91,59698,5,4,0:2:0:0:
35,99,59869,2,0,B|48:67|48:67|50:9,1,70,0|8,0:0|0:0,0:0:0:0:
136,105,60212,2,0,L|279:82,1,140,4|10,0:3|0:0,0:0:0:0:
376,79,60727,1,4,0:2:0:0:
288,57,60898,1,2,0:0:0:0:
397,105,61069,5,4,0:2:0:0:
397,105,61241,2,0,P|410:54|405:22,1,70,0|8,0:0|0:0,0:0:0:0:
488,164,61584,2,0,P|429:147|372:224,1,140,0|8,0:0|0:0,0:0:0:0:
353,289,62098,1,8,0:3:0:0:
422,359,62269,5,4,0:3:0:0:
422,359,62355,1,0,0:3:0:0:
422,359,62441,2,0,L|503:352,2,70,0|0|8,0:0|0:0|0:0,0:0:0:0:
336,287,62955,2,0,P|287:307|210:252,1,140,4|8,0:3|0:0,0:0:0:0:
177,352,63469,2,0,P|129:355|92:391,1,70
19,343,63812,5,0,0:3:0:0:
19,343,63984,1,0,2:0:0:0:
78,261,64155,2,0,L|63:173,1,70,0|0,0:3|2:0,0:0:0:0:
28,104,64498,5,0,0:3:0:0:
28,104,64669,1,0,2:0:0:0:
129,143,64841,2,0,L|117:212,1,70,0|0,0:3|2:0,0:0:0:0:
217,192,65184,6,0,L|298:174,1,70,0|0,0:0|2:2,0:0:0:0:
377,156,65527,1,0,0:0:0:0:
356,243,65698,1,4,0:3:0:0:
454,280,65869,6,0,P|444:232|447:187,1,70,8|4,0:0|0:3,0:0:0:0:
356,75,66212,2,0,P|366:123|363:168,1,70,8|8,0:0|0:0,0:0:0:0:
264,211,66555,6,0,B|167:195|167:195|180:254,1,140,4|8,0:2|0:0,0:0:0:0:
223,320,67069,2,0,L|217:361,2,35,4|0|4,0:3|0:2|0:3,0:0:0:0:
124,322,67412,1,4,0:3:0:0:
124,322,67584,2,0,L|46:335,1,70,8|0,0:0|0:0,0:0:0:0:
33,336,67841,1,0,0:0:0:0:
10,339,67927,6,0,P|-11:293|31:214,1,140,4|8,0:2|0:0,0:0:0:0:
126,188,68441,2,0,L|110:119,1,70,4|4,0:3|0:3,0:0:0:0:
39,52,68784,1,4,0:3:0:0:
134,7,68955,2,0,P|171:22|215:16,1,70,8|0,0:0|0:0,0:0:0:0:
301,88,69298,6,0,B|403:63|403:63|386:120,1,140,2|8,0:2|0:0,0:0:0:0:
474,153,69812,1,4,0:3:0:0:
474,153,69898,1,0,0:0:0:0:
474,153,69984,2,0,L|466:237,1,70,4|4,0:3|0:3,0:0:0:0:
407,293,70327,1,10,0:2:0:0:
473,376,70498,5,0,0:0:0:0:
473,376,70584,1,0,0:0:0:0:
473,376,70669,2,0,P|435:343|345:358,1,140,2|8,0:0|0:0,0:0:0:0:
278,291,71184,2,0,P|224:308|186:298,1,70,2|4,0:0|0:3,0:0:0:0:
130,259,71527,1,4,0:3:0:0:
47,302,71698,2,0,P|39:359|54:384,1,70,10|0,0:0|0:0,0:0:0:0:
165,384,72041,6,0,L|149:239,1,140,4|8,0:2|0:0,0:0:0:0:
117,143,72555,1,4,0:3:0:0:
117,143,72641,1,0,0:0:0:0:
117,143,72727,2,0,P|66:141|23:120,1,70,4|4,0:3|0:3,0:0:0:0:
8,48,73069,1,8,0:0:0:0:
97,2,73241,5,0,0:0:0:0:
97,2,73327,1,0,0:0:0:0:
97,2,73412,2,0,L|246:24,1,140,2|8,0:2|0:0,0:0:0:0:
308,95,73927,2,0,P|356:81|393:84,1,70,4|4,0:3|0:3,0:0:0:0:
440,25,74269,1,4,0:3:0:0:
476,109,74441,2,0,L|464:186,1,70,10|0,0:2|0:0,0:0:0:0:
456,191,74698,5,0,0:0:0:0:
448,202,74784,2,0,L|456:274,2,70,2|0|8,0:2|0:0|0:0,0:0:0:0:
354,234,75298,1,4,0:3:0:0:
361,241,75384,1,0,0:0:0:0:
361,241,75469,2,0,P|324:249|275:227,1,70,4|4,0:3|0:3,0:0:0:0:
392,335,75812,2,0,P|432:326|470:333,1,70,8|2,0:0|0:3,0:0:0:0:
280,380,76155,6,0,L|295:218,1,140,2|8,0:0|0:0,0:0:0:0:
339,110,76669,2,0,B|243:133|243:133|248:84,1,140,2|8,0:0|0:0,0:0:0:0:
129,112,77184,2,0,P|157:155|156:190,1,70,2|0,0:0|0:0,0:0:0:0:
102,285,77527,6,0,L|28:271,2,70,4|0|8,0:2|0:0|0:0,0:0:0:0:
178,359,78041,1,4,0:3:0:0:
178,359,78127,1,0,0:0:0:0:
178,359,78212,1,4,0:3:0:0:
224,265,78384,1,4,0:3:0:0:
224,265,78555,2,0,L|213:178,1,70,8|0,0:0|0:0,0:0:0:0:
233,96,78898,5,0,0:2:0:0:
150,129,79069,1,0,0:2:0:0:
155,36,79241,1,8,0:0:0:0:
233,96,79412,1,0,0:0:0:0:
304,36,79584,2,0,P|349:47|385:49,1,70
451,107,79927,6,0,P|406:99|353:167,1,140,8|0,0:0|0:0,0:0:0:0:
365,255,80441,1,0,0:0:0:0:
299,326,80612,2,0,L|224:310,1,70,8|0,0:0|0:0,0:0:0:0:
135,298,80955,2,0,L|153:360,2,35
27,307,81298,2,0,P|40:252|34:212,1,70,8|0,0:0|0:0,0:0:0:0:
23,207,81555,5,0,0:0:0:0:
14,193,81641,1,2,0:2:0:0:
4,108,81812,1,0,0:0:0:0:
57,36,81984,2,0,P|97:29|152:42,1,70,8|2,0:0|0:2,0:0:0:0:
211,96,82327,2,0,L|327:77,1,105
351,98,82669,2,0,L|364:17,1,70,8|0,0:0|0:0,0:0:0:0:
451,91,83012,6,0,B|439:187|439:187|486:172,1,140,0|8,0:0|0:0,0:0:0:0:
481,268,83527,1,4,0:3:0:0:
481,268,83612,1,0,0:0:0:0:
481,268,83698,2,0,P|443:251|397:255,1,70,4|4,0:3|0:3,0:0:0:0:
320,213,84041,2,0,P|297:240|287:292,1,70,8|0,0:0|0:0,0:0:0:0:
325,366,84384,6,0,L|399:354,2,70,2|0|8,0:2|0:0|0:0,0:0:0:0:
251,304,84898,1,0,0:0:0:0:
161,331,85069,2,0,L|72:312,1,70,2|0,0:2|0:2,0:2:0:0:
189,228,85412,2,0,P|182:174|199:137,1,70,8|0,0:0|0:0,0:0:0:0:
252,98,85755,5,0,0:0:0:0:
252,98,85927,1,0,0:0:0:0:
323,56,86098,2,0,L|393:66,1,70
244,4,86441,5,0,0:0:0:0:
244,4,86612,1,0,0:0:0:0:
165,36,86784,2,0,L|77:21,1,70
2,2,87127,6,0,L|19:83,1,70,8|0,0:0|0:0,0:0:0:0:
127,121,87469,2,0,L|144:202,1,70,8|0,0:0|0:0,0:0:0:0:
43,273,87812,5,8,0:0:0:0:
43,273,87984,1,0,0:0:0:0:
135,292,88155,5,8,0:0:0:0:
75,361,88327,1,8,0:0:0:0:
216,327,88498,5,4,0:0:0:0:
432,316,110441,5,2,0:0:0:0:
432,316,110784,2,0,L|370:307,1,56,2|0,0:0|0:0,0:0:0:0:
303,255,111127,2,0,P|263:275|189:255,1,112,2|2,0:0|3:0,0:0:0:0:
129,193,111641,2,0,L|136:68,2,112
40,226,112498,2,0,L|53:296,1,56,2|0,0:0|0:0,0:0:0:0:
64,376,112841,1,2,3:0:0:0:
64,376,113184,6,0,P|97:351|178:362,1,112,2|2,0:0|0:0,0:0:0:0:
256,365,113698,1,0,0:0:0:0:
326,318,113869,2,0,P|335:274|329:247,2,56,2|0|2,0:0|0:0|3:0,0:0:0:0:
240,275,114384,6,0,L|250:159,2,112,2|2|0,0:0|3:2|3:0,0:0:0:0:
334,254,115241,2,0,L|395:238,1,56,2|0,3:2|0:0,0:0:0:0:
447,180,115584,2,0,L|386:196,1,56,2|0,3:3|0:0,0:0:0:0:
356,103,115927,6,0,P|325:117|241:82,1,112,2|2,0:2|0:2,0:0:0:0:
190,32,116441,2,0,P|154:28|90:81,1,112
28,129,116955,1,2,3:0:0:0:
28,129,117298,2,0,L|39:201,1,56,0|2,0:0|3:2,0:0:0:0:
109,236,117641,2,0,L|120:308,1,56
124,376,117984,2,0,L|51:369,2,56,2|0|2,3:2|0:0|3:3,0:0:0:0:
249,326,118669,6,0,P|301:333|361:291,1,112,2|2,3:2|0:0,0:0:0:0:
374,223,119184,1,0,0:0:0:0:
326,142,119355,2,0,P|294:119|267:112,2,56,2|0|2,0:0|0:0|3:3,0:0:0:0:
388,77,119869,6,0,L|510:90,2,112,2|2|0,0:0|0:0|3:0,0:0:0:0:
331,4,120727,2,0,L|259:19,1,56,2|0,0:0|0:0,0:0:0:0:
181,48,121069,2,0,P|197:96|181:168,1,112,2|0,0:3|1:0,0:0:0:0:
131,330,121755,6,0,L|53:346,1,70,2|0,3:0|1:0,0:0:0:0:
1,269,122098,2,0,L|145:236,1,140,0|2,3:0|3:0,0:0:0:0:
231,249,122612,2,0,P|219:206|267:113,2,140,0|0|0,0:0|0:0|1:0,0:0:0:0:
217,345,123469,2,0,L|298:351,1,70,0|0,3:0|0:0,0:0:0:0:
371,297,123812,2,0,L|448:305,1,70,2|0,3:0|3:0,0:0:0:0:
512,225,124155,6,0,L|497:78,1,140,0|2,1:0|3:0,0:0:0:0:
468,3,124669,1,0,1:0:0:0:
377,46,124841,2,0,P|338:37|302:39,1,70,0|0,3:0|0:0,0:0:0:0:
243,111,125184,1,2,3:0:0:0:
178,40,125355,6,0,P|126:62|43:4,2,140,0|2|0,0:0|3:0|1:0,0:0:0:0:
243,111,126212,2,0,P|252:159|239:195,1,70,2|0,3:0|0:0,0:0:0:0:
253,286,126555,2,0,P|221:300|176:304,1,70,0|0,1:0|1:0,0:0:0:0:
87,320,126898,6,0,L|73:176,1,140,0|0,3:0|1:0,0:0:0:0:
102,87,127412,2,0,L|116:231,1,140,0|0,3:0|1:0,0:0:0:0:
192,185,127927,2,0,P|225:199|279:193,1,70,2|0,3:0|0:0,0:0:0:0:
349,259,128269,6,0,P|379:229|475:242,1,140,0|2,1:0|3:0,0:0:0:0:
488,341,128784,2,0,P|458:371|362:358,1,140,0|2,1:0|3:0,0:0:0:0:
285,317,129298,2,0,L|217:337,1,70,2|0,1:2|0:0,0:0:0:0:
251,233,129641,6,0,L|272:91,1,140,0|2,1:0|3:0,0:0:0:0:
358,91,130155,2,0,P|348:42|354:15,2,70,0|0|0,1:0|0:0|0:0,0:0:0:0:
440,133,130669,1,0,3:0:0:0:
440,133,130841,1,2,3:0:0:0:
435,132,132384,6,0,P|488:122|513:96,1,83.9999974365235,6|0,1:2|0:0,0:0:0:0:
486,9,132727,1,8,0:1:0:0:
397,1,132898,1,4,1:3:0:0:
397,1,132984,1,0,3:0:0:0:
397,1,133069,1,0,3:3:0:0:
351,85,133241,2,0,L|340:261,1,167.999994873047,8|2,0:1|0:2,0:0:0:0:
347,270,133669,1,0,0:0:0:0:
353,286,133755,6,0,P|393:270|459:266,1,83.9999974365235,4|4,1:3|1:3,0:0:0:0:
503,324,134098,1,8,1:0:0:0:
438,384,134269,2,0,B|383:376|383:376|336:387|336:387|260:370,1,167.999994873047,4|8,0:3|0:0,0:0:0:0:
202,302,134784,1,2,3:2:0:0:
202,302,134869,1,0,3:0:0:0:
202,302,134955,1,0,3:0:0:0:
113,341,135127,6,0,B|14:368|14:368|44:269,1,167.999994873047,4|8,1:3|1:0,0:0:0:0:
111,252,135641,1,4,0:3:0:0:
83,158,135812,2,0,L|-3:176,2,83.9999974365235,2|8|0,0:2|1:0|3:0,0:0:0:0:
77,22,136327,6,0,P|131:65|226:31,1,167.999994873047,2|2,3:2|0:2,0:0:0:0:
313,13,136841,1,8,0:0:0:0:
306,118,137012,1,4,1:3:0:0:
306,118,137098,1,0,3:0:0:0:
306,118,137184,2,0,L|289:218,1,83.9999974365235,0|8,3:0|1:2,0:0:0:0:
264,291,137527,1,2,0:2:0:0:
264,291,137612,1,0,3:0:0:0:
264,291,137698,1,0,3:0:0:0:
348,338,137869,6,0,P|379:299|504:321,1,167.999994873047,6|8,1:2|1:0,0:0:0:0:
433,382,138384,2,0,L|499:383,2,41.9999987182618,4|0|2,1:3|3:0|3:2,0:0:0:0:
401,281,138727,2,0,P|410:232|436:195,1,83.9999974365235,10|0,1:2|3:2,0:0:0:0:
499,132,139069,6,0,B|400:158|400:158|419:81,1,167.999994873047,2|2,3:2|0:2,0:0:0:0:
444,0,139584,1,8,1:0:0:0:
344,26,139755,1,4,1:3:0:0:
344,26,139841,1,0,3:0:0:0:
344,26,139927,2,0,L|232:7,1,83.9999974365235,2|10,3:2|1:2,0:0:0:0:
167,81,140269,2,0,B|162:40|162:40|132:-6,1,83.9999974365235,2|0,0:0|0:0,0:0:0:0:
31,36,140612,6,0,B|35:90|35:90|75:126|75:126|81:205,1,167.999994873047,4|8,1:3|1:0,0:0:0:0:
145,258,141127,1,4,1:3:0:0:
145,258,141212,1,0,3:0:0:0:
145,258,141298,1,0,3:0:0:0:
90,335,141469,2,0,P|41:320|14:283,1,83.9999974365235,10|0,1:2|0:0,0:0:0:0:
150,175,141812,6,0,P|195:220|163:317,1,167.999994873047,2|4,0:0|1:3,0:0:0:0:
238,378,142327,1,8,1:0:0:0:
319,306,142498,2,0,L|411:331,1,83.9999974365235,4|0,1:3|3:0,0:0:0:0:
491,292,142841,1,8,1:0:0:0:
438,208,143012,1,0,3:0:0:0:
438,208,143098,1,0,3:0:0:0:
438,208,143184,1,0,3:0:0:0:
496,138,143355,6,0,P|504:86|493:49,1,83.9999974365235,6|0,1:0|0:0,0:0:0:0:
392,146,143698,2,0,P|345:167|300:166,1,83.9999974365235,8|4,0:0|1:3,0:0:0:0:
251,93,144041,1,2,3:1:0:0:
303,20,144212,2,0,L|408:48,1,83.9999974365235,8|0,1:0|3:0,0:0:0:0:
251,93,144555,6,0,L|110:66,1,125.999996154785,2|0,3:1|0:0,0:0:0:0:
105,38,144898,2,0,P|59:59|4:55,1,83.9999974365235,2|8,0:1|1:0,0:0:0:0:
64,173,145241,1,2,0:1:0:0:
64,173,145327,1,0,3:0:0:0:
64,173,145412,2,0,P|43:212|50:259,1,83.9999974365235,2|10,3:2|1:2,0:0:0:0:
108,325,145755,1,2,3:2:0:0:
108,325,145841,1,0,3:0:0:0:
108,325,145927,1,0,3:0:0:0:
195,278,146098,6,0,L|278:293,1,83.9999974365235,2|0,1:1|0:0,0:0:0:0:
358,346,146441,1,8,1:2:0:0:
435,279,146612,1,4,1:3:0:0:
435,279,146698,1,0,3:0:0:0:
435,279,146784,2,0,P|425:229|436:182,1,83.9999974365235,2|8,3:1|1:0,0:0:0:0:
496,117,147127,5,0,3:0:0:0:
496,117,147212,1,0,3:0:0:0:
496,117,147298,2,0,P|448:158|345:129,2,167.999994873047,2|2|2,3:1|1:0|1:0,0:0:0:0:
475,11,148155,2,0,P|424:0|365:30,1,83.9999974365235,2|10,3:2|1:2,0:0:0:0:
307,59,148498,1,2,3:2:0:0:
307,59,148584,1,0,3:0:0:0:
307,59,148669,1,0,3:0:0:0:
352,136,148841,6,0,P|363:182|344:236,1,83.9999974365235,6|0,1:0|0:0,0:0:0:0:
278,275,149184,1,8,1:0:0:0:
179,230,149355,1,4,1:3:0:0:
179,230,149441,1,0,3:0:0:0:
179,230,149527,2,0,L|85:215,2,83.9999974365235,2|8|0,3:2|1:0|3:0,0:0:0:0:
282,274,150041,6,0,P|293:320|276:367,1,83.9999974365235,2|4,3:1|1:3,0:0:0:0:
174,338,150384,2,0,B|124:357|124:357|65:342|65:342|0:359,1,167.999994873047,2|2,0:1|1:0,0:0:0:0:
28,257,150898,2,0,L|40:164,1,83.9999974365235,0|8,3:0|1:0,0:0:0:0:
6,79,151241,1,4,1:3:0:0:
6,79,151327,1,0,3:0:0:0:
6,79,151412,1,0,3:0:0:0:
67,10,151584,6,0,P|110:33|129:75,1,70,2|0,1:0|0:0,0:0:0:0:
214,53,151927,2,0,P|207:109|192:135,1,70,2|2,1:2|0:1,0:0:0:0:
204,234,152269,6,0,P|245:216|268:190,1,70,0|2,1:0|0:0,0:0:0:0:
352,245,152612,2,0,P|361:203|350:145,1,70,2|2,1:0|1:0,0:0:0:0:
310,65,152955,5,8,1:0:0:0:
430,102,153127,1,0,1:0:0:0:
384,3,153298,1,0,1:0:0:0:
289,86,153469,2,0,L|195:94,2,70,8|0|0,1:0|1:0|1:0,0:0:0:0:
395,43,153984,1,8,1:0:0:0:
395,43,154155,1,0,1:0:0:0:
461,139,154327,6,0,B|450:183|450:183|465:223|465:223|451:299,1,140,4|8,1:2|0:0,0:0:0:0:
492,369,154841,1,0,0:0:0:0:
492,369,154927,1,0,0:0:0:0:
492,369,155012,2,0,L|401:382,1,70
346,313,155355,2,0,P|316:339|241:330,1,105,8|0,0:0|0:0,0:0:0:0:
225,347,155698,6,0,P|188:358|178:400,2,70,4|0|8,0:3|0:0|0:0,0:0:0:0:
227,248,156212,1,4,0:3:0:0:
227,248,156298,1,0,0:0:0:0:
227,248,156384,2,0,L|231:163,1,70,0|4,0:0|0:3,0:0:0:0:
154,124,156727,2,0,L|160:46,1,70,8|0,0:0|0:0,0:0:0:0:
163,29,156984,1,0,0:0:0:0:
164,4,157069,6,0,P|114:19|75:12,1,70,4|0,0:3|0:0,0:0:0:0:
0,0,157412,1,8,0:0:0:0:
29,99,157584,1,4,0:3:0:0:
29,99,157669,1,0,0:0:0:0:
29,99,157755,2,0,P|35:146|15:192,1,70,0|4,0:0|0:3,0:0:0:0:
70,252,158098,2,0,B|53:302|53:302|72:364,1,105,8|0,0:0|0:0,0:0:0:0:
72,378,158441,6,0,L|152:368,1,70,4|4,0:3|0:3,0:0:0:0:
220,317,158784,1,8,0:0:0:0:
325,343,158955,2,0,B|369:355|369:355|342:245,1,140
364,161,159469,2,0,P|313:185|282:176,1,70,8|4,0:0|0:3,0:0:0:0:
275,169,159727,1,0,0:0:0:0:
253,149,159812,6,0,P|243:111|260:75,2,70,4|0|8,0:0|0:0|0:0,0:0:0:0:
410,89,160327,2,0,P|391:43|292:25,1,140,4|4,0:3|0:3,0:0:0:0:
330,125,160841,2,0,L|348:205,1,70,8|0,0:0|0:0,0:0:0:0:
345,193,161098,1,0,0:0:0:0:
345,193,161184,6,0,L|428:210,1,70,4|4,0:3|0:3,0:0:0:0:
508,176,161527,1,8,0:0:0:0:
501,265,161698,2,0,B|467:306|416:307|416:307|393:290|372:294,1,140,4|4,0:3|0:3,0:0:0:0:
287,252,162212,2,0,L|277:335,1,70,8|0,0:0|0:0,0:0:0:0:
278,343,162469,1,0,0:0:0:0:
275,363,162555,6,0,B|236:352|236:352|199:364|199:364|129:343,1,140,4|8,0:3|0:0,0:0:0:0:
40,368,163069,1,4,0:3:0:0:
40,368,163155,1,0,0:0:0:0:
40,368,163241,2,0,B|46:329|46:329|30:290,1,70,0|4,0:0|0:3,0:0:0:0:
0,209,163584,1,8,0:0:0:0:
110,148,163755,5,0,0:0:0:0:
110,148,163841,1,0,0:0:0:0:
110,148,163927,2,0,P|100:190|108:231,1,70,4|4,0:3|0:3,0:0:0:0:
184,278,164269,1,8,0:0:0:0:
283,176,164441,6,0,P|255:145|212:132,1,70,4|4,0:3|0:3,0:0:0:0:
132,137,164784,1,8,0:0:0:0:
198,223,164955,5,4,0:3:0:0:
198,223,165127,1,8,0:0:0:0:
313,167,165298,6,0,L|395:182,2,70,4|0|8,0:3|0:0|0:0,0:0:0:0:
226,110,165812,1,4,0:3:0:0:
226,110,165898,1,0,0:0:0:0:
226,110,165984,2,0,P|227:58|207:19,1,70
336,0,166327,2,0,P|318:43|340:102,1,105,8|0,0:0|0:0,0:0:0:0:
357,92,166669,6,0,L|431:108,1,70,4|4,0:3|0:3,0:0:0:0:
507,171,167012,1,8,0:0:0:0:
419,233,167184,1,4,0:3:0:0:
481,303,167355,2,0,P|469:247|440:219,1,70
400,352,167698,2,0,P|371:333|282:344,1,105,8|2,0:0|0:2,0:0:0:0:
270,354,168041,6,0,L|197:344,1,70,4|0,0:3|0:0,0:0:0:0:
102,372,168384,1,8,0:0:0:0:
177,309,168555,1,0,0:0:0:0:
71,281,168727,2,0,P|45:251|40:203,1,70
87,151,169069,1,8,0:0:0:0:
167,198,169241,5,0,0:0:0:0:
167,198,169327,1,0,0:0:0:0:
167,198,169412,2,0,L|247:211,1,70
330,165,169755,1,8,0:0:0:0:
243,175,169927,1,4,0:3:0:0:
273,89,170098,2,0,P|272:51|247:9,1,70
360,51,170441,1,8,0:0:0:0:
360,51,170527,1,0,0:0:0:0:
360,51,170612,1,0,0:0:0:0:
288,112,170784,6,0,P|250:128|173:65,1,140,0|8,0:0|0:0,0:0:0:0:
109,10,171298,1,0,0:0:0:0:
109,10,171384,1,0,0:0:0:0:
109,10,171469,2,0,L|34:30,1,70
0,113,171812,6,0,L|106:130,1,105,8|0,0:0|0:0,0:0:0:0:
126,125,172155,2,0,B|118:162|118:162|131:206,1,70,4|0,0:3|0:3,0:0:0:0:
181,270,172498,1,8,0:0:0:0:
105,312,172669,1,0,0:0:0:0:
105,312,172755,1,0,0:0:0:0:
105,312,172841,2,0,L|53:290,2,35
192,364,173184,2,0,L|305:346,1,105,8|0,0:0|0:0,0:0:0:0:
322,360,173527,6,0,L|339:280,1,70,4|0,0:3|0:0,0:0:0:0:
438,323,173869,2,0,L|455:243,1,70,4|0,0:3|0:0,0:0:0:0:
328,245,174212,2,0,L|345:165,1,70,4|0,0:3|0:0,0:0:0:0:
444,208,174555,2,0,L|461:128,1,70,4|0,0:3|0:0,0:0:0:0:
496,39,174898,1,4,0:3:0:0:
496,39,175069,1,0,0:0:0:0:
399,10,175241,5,4,0:3:0:0:
419,94,175412,1,4,0:3:0:0:
328,77,175584,5,8,0:0:0:0:
296,163,175755,1,0,0:0:0:0:
233,79,175927,5,8,0:0:0:0:
135,143,176098,1,8,0:0:0:0:
130,25,176269,1,4,1:2:0:0:
