osu file format v14

[General]
AudioFilename: audio.mp3
AudioLeadIn: 0
PreviewTime: 43800
Countdown: 0
SampleSet: Normal
StackLeniency: 0.7
Mode: 0
LetterboxInBreaks: 0
WidescreenStoryboard: 0

[Editor]
Bookmarks: 727,22669,43905,66555,88498,110098,132384,154327,176269
DistanceSpacing: 0.7
BeatDivisor: 4
GridSize: 32
TimelineZoom: 1.8

[Metadata]
Title:What It Feels Like (Zardonic Remix)
TitleUnicode:What It Feels Like (Zardonic Remix)
Artist:Markus Schukowski
ArtistUnicode:Markus Schukowski
Creator:kowari
Version:Collab Extra
Source:
Tags:english electronic dnb drum and bass realazy
BeatmapID:4286007
BeatmapSetID:2052103

[Difficulty]
HPDrainRate:6
CircleSize:4
OverallDifficulty:9
ApproachRate:9.4
SliderMultiplier:1.9
SliderTickRate:1

[Events]
//Background and Video events
0,0,"horizons_form_by_tacosauceninja_deibwu5-fullview.jpg",0,0
//Break Periods
2,88698,109556
//Storyboard Layer 0 (Background)
//Storyboard Layer 1 (Fail)
//Storyboard Layer 2 (Pass)
//Storyboard Layer 3 (Foreground)
//Storyboard Layer 4 (Overlay)
//Storyboard Sound Samples

[TimingPoints]
727,342.857142857143,4,2,0,50,1,0
727,-133.333333333333,4,2,0,50,0,0
11719,-133.333333333333,4,2,0,60,0,0
18212,-125,4,2,0,60,0,0
22327,-125,4,2,0,70,0,0
23012,-111.111111111111,4,2,0,70,0,0
33984,-100,4,2,0,70,0,0
39469,-111.111111111111,4,2,0,70,0,0
44612,-100,4,1,0,80,0,1
49755,-80,4,1,0,80,0,1
50098,-100,4,1,0,80,0,1
60898,-76.9230769230769,4,1,0,80,0,1
61069,-100,4,1,0,80,0,1
66384,-100,4,1,0,80,0,0
66555,-100,4,1,0,80,0,1
66727,-90.9090909090909,4,1,0,80,0,1
77527,-83.3333333333333,4,1,0,80,0,1
88498,-83.3333333333333,4,1,0,80,0,0
110098,-133.333333333333,4,2,0,60,0,0
121412,-111.111111111111,4,2,0,70,0,0
132384,-83.3333333333333,4,2,0,80,0,1
143355,-71.4285714285714,4,2,0,80,0,1
154327,-90.9090909090909,4,1,0,80,0,1
176269,-55.5555555555556,4,2,0,70,0,0

[Colours]
Combo1 : 226,148,243
Combo2 : 247,196,183

[HitObjects]
127,85,727,6,0,L|52:77,2,71.2500000000002,0|0|0,3:0|2:0|2:0,2:0:0:0:
219,57,1241,2,0,L|263:-3,2,71.2500000000002,0|0|0,3:0|2:0|2:0,2:0:0:0:
203,154,1755,2,0,L|233:222,1,71.2500000000002,2|0,3:0|2:0,2:0:0:0:
110,301,2098,6,0,P|121:253|154:222,2,71.2500000000002,0|0|0,3:0|2:0|2:0,2:0:0:0:
231,219,2612,2,0,P|267:252|277:296,2,71.2500000000002,0|0|0,3:0|2:0|2:0,2:0:0:0:
247,368,3127,2,0,P|199:382|156:369,1,71.2500000000002,2|0,3:0|2:0,2:0:0:0:
381,305,3469,6,0,L|459:319,2,71.2500000000002,0|0|0,3:0|2:0|2:0,2:0:0:0:
320,217,3984,2,0,L|268:277,2,71.2500000000002,0|0|0,3:0|2:0|2:0,2:0:0:0:
425,219,4498,2,0,L|398:144,1,71.2500000000002,2|0,3:0|2:0,2:0:0:0:
312,20,4841,5,0,3:0:0:0:
230,70,5012,1,0,2:0:0:0:
311,112,5184,1,0,3:0:0:0:
230,70,5355,1,0,2:0:0:0:
390,64,5527,1,0,3:0:0:0:
230,157,5698,1,0,2:0:0:0:
312,20,5869,1,2,3:0:0:0:
319,199,6041,1,0,3:0:0:0:
400,151,6212,6,0,P|445:147|485:162,1,71.2500000000002,0|0,3:0|2:0,2:0:0:0:
512,233,6555,1,2,3:0:0:0:
375,336,6727,2,0,P|330:340|290:325,1,71.2500000000002,0|0,3:0|2:0,2:0:0:0:
263,254,7069,1,0,2:0:0:0:
388,171,7241,2,0,L|397:268,1,71.2500000000002,2|0,3:0|2:0,2:0:0:0:
193,178,7584,5,0,3:0:0:0:
297,163,7755,1,0,3:0:0:0:
263,254,7927,1,2,3:0:0:0:
227,88,8098,2,0,P|298:76|379:113,1,142.5,0|0,3:0|2:0,2:0:0:0:
175,263,8612,2,0,P|104:275|23:238,1,142.5,2|0,3:0|3:0,2:0:0:0:
39,251,9298,6,0,P|33:184|24:151,1,71.2500000000002,2|0,3:0|3:0,2:0:0:0:
132,35,9641,2,0,L|116:194,1,142.5,0|2,3:0|3:0,2:0:0:0:
95,365,10155,1,0,3:0:0:0:
297,224,10327,5,0,3:0:0:0:
206,208,10498,1,0,2:0:0:0:
189,297,10669,1,0,3:0:0:0:
282,311,10841,1,0,2:0:0:0:
206,208,11012,1,2,3:0:0:0:
189,297,11184,1,0,2:0:0:0:
297,224,11355,1,0,3:0:0:0:
282,311,11527,1,0,2:0:0:0:
410,204,11698,6,0,L|424:285,1,71.2500000000002,0|0,1:0|2:0,2:0:0:0:
442,368,12041,1,2,3:2:0:0:
477,152,12212,2,0,P|425:158|324:95,1,142.5,0|0,1:0|2:0,2:1:0:0:
247,243,12727,2,0,L|321:233,1,71.2500000000002,8|0,3:1|2:0,2:0:0:0:
400,19,13069,6,0,L|326:29,1,71.2500000000002,0|0,1:0|2:0,2:0:0:0:
180,75,13412,1,0,2:0:0:0:
180,75,13584,1,0,1:0:0:0:
247,243,13755,2,0,P|255:186|252:146,1,71.2500000000002,0|0,2:0|2:0,2:0:0:0:
83,0,14098,2,0,P|68:67|65:155,1,142.5,8|0,3:1|1:0,2:0:0:0:
64,140,14784,6,0,L|149:129,1,71.2500000000002,0|0,2:0|1:0,2:0:0:0:
287,271,15127,2,0,P|222:234|145:235,1,142.5,0|8,2:0|2:1,2:0:0:0:
64,264,15641,1,0,2:0:0:0:
201,378,15812,5,0,1:0:0:0:
201,378,15984,2,0,L|203:293,1,71.2500000000002,0|0,1:0|2:0,2:0:0:0:
331,141,16327,1,0,1:0:0:0:
331,141,16498,2,0,L|329:226,1,71.2500000000002,0|0,3:0|3:0,2:0:0:0:
361,298,16841,1,8,2:1:0:0:
269,264,17012,1,0,1:0:0:0:
297,350,17184,6,0,B|363:328|391:371|450:344,1,142.500005435944,0|0,1:0|2:0,2:0:0:0:
266,190,17698,2,0,P|256:232|260:279,1,71.2500027179719,0|0,1:0|2:0,2:0:0:0:
297,350,18041,1,0,3:0:0:0:
491,268,18212,2,0,P|490:230|480:189,1,76,8|0,2:1|2:0,2:0:0:0:
358,82,18555,6,0,L|371:246,1,152,0|0,1:0|2:0,2:0:0:0:
379,337,19069,1,0,1:0:0:0:
267,188,19241,2,0,L|181:175,1,76,0|0,2:0|3:0,2:0:0:0:
358,82,19584,2,0,L|444:95,1,76,8|0,2:1|2:0,2:0:0:0:
231,0,19927,6,0,P|168:42|75:32,1,152,0|0,1:0|3:0,2:0:0:0:
128,207,20441,2,0,P|191:165|284:175,1,152,0|0,1:0|2:0,2:0:0:0:
33,264,20955,2,0,P|24:218|24:172,1,76,8|0,2:1|2:0,2:0:0:0:
96,107,21298,5,0,1:0:0:0:
128,207,21469,1,0,1:0:0:0:
23,189,21641,1,2,3:0:0:0:
196,142,21812,1,0,1:0:0:0:
151,310,21984,1,2,3:0:0:0:
196,142,22155,1,0,1:0:0:0:
70,344,22327,6,0,L|171:322,1,76,8|0,2:1|2:1,2:1:0:0:
468,197,22669,5,0,1:0:0:0:
468,197,22841,1,0,3:0:0:0:
277,292,23012,2,0,L|269:334,1,42.75,8|0,1:2|2:0,2:0:0:0:
340,384,23184,1,0,3:0:0:0:
340,384,23269,1,0,3:0:0:0:
340,384,23355,1,0,2:0:0:0:
197,206,23527,2,0,L|181:123,1,85.5000000000001,8|0,1:2|2:0,2:0:0:0:
181,123,23784,1,0,2:0:0:0:
181,123,23869,2,0,L|170:164,1,42.75,0|0,2:0|2:0,2:0:0:0:
122,279,24041,5,0,1:0:0:0:
295,211,24212,1,0,1:0:0:0:
132,286,24384,1,8,1:2:0:0:
81,111,24555,1,0,3:0:0:0:
81,111,24641,1,0,3:0:0:0:
81,111,24727,1,0,3:0:0:0:
81,111,24812,1,0,3:0:0:0:
81,111,24898,2,0,L|69:26,2,85.5000000000001,8|0|0,1:2|2:0|2:0,2:0:0:0:
3,212,25412,5,0,1:0:0:0:
217,252,25584,1,0,3:0:0:0:
56,347,25755,2,0,L|63:304,1,42.75,8|0,1:2|2:0,2:0:0:0:
91,125,25927,2,0,B|105:209,1,85.5000000000001,0|0,2:0|3:0,2:0:0:0:
105,210,26184,1,0,3:0:0:0:
105,210,26269,1,8,1:2:0:0:
317,115,26441,6,0,L|337:32,1,85.5000000000001,0|0,2:0|2:0,2:0:0:0:
208,239,26784,1,0,1:0:0:0:
425,182,26955,1,0,1:0:0:0:
215,248,27127,1,8,1:2:0:0:
372,351,27298,2,0,P|384:310|376:269,1,85.5000000000001,0|0,2:0|3:0,2:0:0:0:
376,269,27555,1,0,3:0:0:0:
376,269,27641,1,8,1:2:0:0:
185,367,27812,5,0,3:0:0:0:
170,363,27898,1,0,3:0:0:0:
155,359,27984,1,0,3:0:0:0:
140,355,28069,1,0,3:0:0:0:
125,351,28155,1,0,1:0:0:0:
229,255,28327,1,0,3:0:0:0:
30,179,28498,2,0,L|37:221,1,42.75,8|0,1:2|2:0,2:0:0:0:
113,268,28669,1,0,2:0:0:0:
113,268,28755,1,0,2:0:0:0:
113,268,28841,1,0,2:0:0:0:
177,112,29012,2,0,B|143:87|143:87|103:101,2,85.5000000000001,8|0|0,1:2|2:0|2:0,2:0:0:0:
331,263,29527,5,0,1:0:0:0:
480,197,29698,1,0,1:0:0:0:
301,105,29869,2,0,L|294:63,1,42.75,8|0,1:2|2:0,2:0:0:0:
352,9,30041,1,0,3:0:0:0:
352,9,30127,1,0,3:0:0:0:
352,9,30212,1,0,3:0:0:0:
248,174,30384,5,8,1:2:0:0:
405,226,30555,2,0,P|447:233|486:215,1,85.5000000000001,0|0,2:0|2:0,2:0:0:0:
180,298,30898,6,0,P|105:257|21:259,1,171,0|8,1:0|1:2,2:0:0:0:
179,127,31412,1,0,3:0:0:0:
184,103,31498,1,0,3:0:0:0:
190,80,31584,1,0,3:0:0:0:
196,57,31669,1,0,3:0:0:0:
202,34,31755,1,8,1:2:0:0:
81,131,31927,2,0,P|92:172|103:213,1,85.5000000000001,0|0,2:0|2:0,2:0:0:0:
296,104,32269,5,0,1:0:0:0:
173,67,32441,1,0,1:0:0:0:
397,4,32612,1,8,1:2:0:0:
300,118,32784,5,0,3:0:0:0:
292,135,32869,1,0,3:0:0:0:
286,153,32955,1,0,3:0:0:0:
282,172,33041,1,0,3:0:0:0:
281,190,33127,1,8,1:2:0:0:
388,225,33298,1,0,3:0:0:0:
396,208,33384,1,0,3:0:0:0:
402,190,33469,1,0,3:0:0:0:
406,171,33555,1,0,3:0:0:0:
407,153,33641,5,0,1:0:0:0:
211,254,33812,1,0,2:0:0:0:
399,358,33984,2,0,L|492:340,1,95,8|0,1:2|3:0,2:0:0:0:
492,340,34241,1,0,3:0:0:0:
492,340,34327,1,0,3:0:0:0:
204,263,34498,6,0,L|191:217,1,47.5,10|0,1:2|2:0,2:0:0:0:
182,343,34669,2,0,L|148:376,1,47.5,2|0,2:0|2:0,2:0:0:0:
262,321,34841,2,0,L|307:333,1,47.5,2|0,2:0|2:0,2:0:0:0:
52,278,35012,5,2,1:2:0:0:
52,278,35184,1,0,1:0:0:0:
294,190,35355,1,8,1:2:0:0:
119,166,35527,2,0,P|91:127|81:81,1,95,2|0,2:0|2:0,2:0:0:0:
123,14,35869,1,8,1:2:0:0:
200,228,36041,2,0,P|180:271|145:302,1,95,2|0,2:0|2:0,2:0:0:0:
213,125,36384,6,0,P|305:132|373:196,1,190,2|8,1:2|1:2,2:0:0:0:
489,88,36898,1,0,3:0:0:0:
489,88,36984,1,0,3:0:0:0:
489,88,37069,2,0,L|479:41,1,47.5,0|0,2:0|2:0,2:0:0:0:
366,203,37241,6,0,P|348:187|334:167,1,47.5,10|0,1:2|2:0,2:0:0:0:
259,164,37412,2,0,P|263:140|273:119,1,47.5,2|0,2:0|2:0,2:0:0:0:
238,52,37584,2,0,P|260:44|284:42,1,47.5,2|0,2:0|2:0,2:0:0:0:
352,1,37755,5,2,1:2:0:0:
171,119,37927,2,0,P|122:122|82:100,1,95,2|8,1:2|1:2,2:0:0:0:
254,177,38269,2,0,L|270:271,1,95,2|0,2:0|3:0,2:0:0:0:
269,270,38527,1,0,3:0:0:0:
269,270,38612,1,8,1:2:0:0:
123,384,38784,1,0,3:0:0:0:
104,384,38869,1,0,3:0:0:0:
85,378,38955,1,0,3:0:0:0:
70,368,39041,1,0,3:0:0:0:
58,353,39127,5,0,1:0:0:0:
153,249,39298,1,0,2:0:0:0:
6,175,39469,2,0,L|13:217,1,42.75,8|0,1:2|2:0,2:0:0:0:
77,279,39641,1,0,2:0:0:0:
77,279,39727,1,0,2:0:0:0:
77,279,39812,1,0,2:0:0:0:
148,42,39984,6,0,L|154:84,1,42.75,10|0,1:2|2:0,2:0:0:0:
230,178,40155,2,0,L|236:135,1,42.75,2|0,2:0|2:0,2:0:0:0:
304,42,40327,2,0,L|310:84,1,42.75,2|0,2:0|2:0,2:0:0:0:
382,229,40498,5,0,1:0:0:0:
495,140,40669,2,0,P|508:99|505:57,1,85.5000000000001,0|8,1:0|1:2,2:0:0:0:
375,244,41012,1,0,3:0:0:0:
403,235,41098,1,0,3:0:0:0:
433,238,41184,1,0,3:0:0:0:
460,250,41269,1,0,3:0:0:0:
480,272,41355,1,8,1:2:0:0:
277,336,41527,1,0,3:0:0:0:
280,319,41612,1,0,3:0:0:0:
283,302,41698,1,0,3:0:0:0:
286,284,41784,1,0,3:0:0:0:
289,268,41869,6,0,L|303:183,1,85.5000000000001,0|0,1:0|2:0,2:0:0:0:
387,373,42212,1,8,1:2:0:0:
208,190,42384,1,0,3:0:0:0:
208,190,42469,1,0,3:0:0:0:
208,190,42555,2,0,L|193:127,1,42.75,0|0,3:0|2:0,2:0:0:0:
71,303,42727,6,0,L|29:316,1,42.75,10|0,1:2|2:0,2:0:0:0:
157,363,42898,2,0,L|197:375,1,42.75,2|0,2:0|2:0,2:0:0:0:
63,294,43069,2,0,L|21:307,1,42.75,2|0,2:0|2:0,2:0:0:0:
294,169,43241,5,0,1:2:0:0:
256,192,43327,12,0,44527,2:0:0:0:
330,86,44612,6,0,P|380:81|445:100,1,95,4|2,1:2|1:3,0:0:0:0:
512,290,44955,1,8,1:0:0:0:
226,179,45127,1,4,1:3:0:0:
212,133,45212,1,0,1:2:0:0:
211,86,45298,1,4,1:3:0:0:
223,40,45384,1,2,1:2:0:0:
246,0,45469,1,8,1:0:0:0:
387,185,45641,2,0,L|383:268,1,47.5,0|0,1:0|1:0,1:0:0:0:
283,333,45812,2,0,L|287:250,1,47.5,0|0,1:0|1:0,1:0:0:0:
301,127,45984,5,4,1:2:0:0:
404,354,46155,1,2,1:3:0:0:
497,140,46327,1,8,1:0:0:0:
212,236,46498,1,4,1:3:0:0:
164,244,46584,1,2,1:2:0:0:
118,252,46669,1,4,1:3:0:0:
71,260,46755,1,2,1:2:0:0:
24,268,46841,1,8,1:0:0:0:
130,136,47012,2,0,P|158:136|197:150,1,47.5,0|0,1:0|1:0,1:0:0:0:
239,364,47184,2,0,P|211:364|172:350,1,47.5,0|0,1:0|1:0,1:0:0:0:
8,173,47355,5,4,1:3:0:0:
285,250,47527,1,0,1:0:0:0:
202,0,47698,1,8,1:0:0:0:
132,234,47869,5,4,1:3:0:0:
123,268,47955,1,2,1:2:0:0:
121,303,48041,1,4,1:3:0:0:
125,339,48127,1,2,1:2:0:0:
135,373,48212,1,8,1:0:0:0:
420,326,48384,1,4,1:3:0:0:
429,292,48469,1,2,1:2:0:0:
431,257,48555,1,4,1:3:0:0:
427,221,48641,1,2,1:2:0:0:
417,187,48727,1,4,1:3:0:0:
255,84,48898,5,0,1:0:0:0:
280,269,49069,1,8,1:0:0:0:
478,152,49241,5,0,1:0:0:0:
478,152,49327,1,0,1:0:0:0:
478,152,49412,2,0,L|400:160,1,47.5,4|0,1:2|1:0,1:0:0:0:
175,178,49584,2,2,L|253:170,1,47.5,10|0,1:0|1:0,1:0:0:0:
441,63,49755,6,0,P|401:50|352:50,1,59.375,4|0,1:2|1:0,1:0:0:0:
205,275,49927,2,0,P|245:288|294:288,1,59.375,2|0,1:0|1:0,1:0:0:0:
320,114,50098,6,0,L|303:238,1,95,4|0,1:2|1:0,1:0:0:0:
284,384,50441,1,8,1:0:0:0:
196,165,50612,1,4,1:3:0:0:
157,137,50698,1,2,1:2:0:0:
111,125,50784,1,4,1:3:0:0:
64,131,50869,1,2,1:2:0:0:
22,152,50955,1,8,1:0:0:0:
97,343,51127,1,4,1:3:0:0:
101,320,51212,1,2,1:2:0:0:
104,296,51298,1,4,1:3:0:0:
108,273,51384,1,2,1:2:0:0:
112,250,51469,5,4,1:3:0:0:
144,17,51641,1,4,1:3:0:0:
314,167,51812,1,8,1:0:0:0:
21,209,51984,1,4,1:3:0:0:
6,163,52069,1,0,1:0:0:0:
6,116,52155,1,4,1:3:0:0:
17,70,52241,1,0,1:0:0:0:
42,30,52327,1,8,1:0:0:0:
244,233,52498,2,0,L|311:243,1,47.5,0|0,1:0|1:0,1:0:0:0:
374,64,52669,2,0,L|307:54,1,47.5,0|0,1:0|1:0,1:0:0:0:
157,137,52841,6,0,P|234:127|276:108,1,95,4|0,1:3|1:0,1:0:0:0:
449,0,53184,1,8,1:0:0:0:
407,290,53355,1,4,1:3:0:0:
401,254,53441,1,0,1:0:0:0:
395,219,53527,1,4,1:3:0:0:
389,184,53612,1,0,1:0:0:0:
384,149,53698,1,8,1:0:0:0:
242,349,53869,2,0,L|308:362,1,47.5,0|0,1:0|1:0,1:0:0:0:
490,239,54041,2,0,L|424:226,1,47.5,0|0,1:0|1:0,1:0:0:0:
160,235,54212,5,4,1:3:0:0:
377,110,54384,1,4,1:3:0:0:
390,367,54555,1,8,1:0:0:0:
259,174,54727,1,0,1:0:0:0:
247,140,54812,1,0,1:0:0:0:
243,105,54898,1,0,1:0:0:0:
247,69,54984,1,0,1:0:0:0:
259,36,55069,1,8,1:0:0:0:
498,66,55241,2,0,P|506:129|494:184,1,95,4|4,1:3|1:3,1:0:0:0:
254,313,55584,5,4,1:2:0:0:
377,110,55755,1,0,1:0:0:0:
493,316,55927,1,8,1:0:0:0:
259,174,56098,5,0,1:0:0:0:
217,197,56184,1,0,1:0:0:0:
170,202,56269,1,0,1:0:0:0:
125,190,56355,1,0,1:0:0:0:
88,161,56441,1,8,1:0:0:0:
333,17,56612,2,0,L|342:85,1,47.5,0|0,1:0|1:0,1:0:0:0:
421,181,56784,2,0,L|430:249,1,47.5,0|0,1:0|1:0,1:0:0:0:
295,352,56955,6,0,P|313:289|315:235,1,95,4|0,1:2|1:0,1:0:0:0:
437,70,57298,1,8,1:0:0:0:
506,282,57469,1,4,1:3:0:0:
458,276,57555,1,0,1:0:0:0:
411,270,57641,1,4,1:3:0:0:
364,265,57727,1,0,1:0:0:0:
317,259,57812,1,8,1:0:0:0:
132,227,57984,6,0,L|122:153,1,47.5,4|0,1:3|1:0,1:0:0:0:
108,360,58155,2,0,L|98:286,1,47.5,4|0,1:3|1:0,1:0:0:0:
37,48,58327,5,4,1:2:0:0:
238,178,58498,1,0,1:0:0:0:
23,269,58669,1,8,1:0:0:0:
194,45,58841,1,4,1:3:0:0:
237,64,58927,1,0,1:0:0:0:
284,64,59012,1,4,1:3:0:0:
327,47,59098,1,0,1:0:0:0:
360,13,59184,1,8,1:0:0:0:
309,249,59355,2,0,L|242:235,1,47.5,0|0,1:0|1:0,1:0:0:0:
137,141,59527,2,0,L|204:155,1,47.5,0|0,1:0|1:0,1:0:0:0:
452,194,59698,5,4,1:2:0:0:
272,347,59869,1,0,1:0:0:0:
452,194,60041,1,8,1:0:0:0:
495,309,60212,5,4,1:3:0:0:
461,319,60298,1,0,1:0:0:0:
425,317,60384,1,4,1:3:0:0:
393,303,60469,1,0,1:0:0:0:
367,278,60555,2,0,L|357:197,1,47.5,10|0,1:0|1:0,1:0:0:0:
399,123,60727,2,0,L|409:204,1,47.5,4|0,1:2|1:0,1:0:0:0:
270,323,60898,6,0,L|279:244,1,61.7499971733095,2|0,1:0|1:0,1:0:0:0:
506,36,61069,2,0,P|492:113|489:157,1,95,4|0,1:2|1:0,1:0:0:0:
311,0,61412,1,8,1:0:0:0:
187,186,61584,1,0,1:0:0:0:
218,151,61669,1,0,1:0:0:0:
261,130,61755,1,0,1:0:0:0:
308,126,61841,1,0,1:0:0:0:
353,140,61927,1,8,1:0:0:0:
141,86,62098,2,0,L|50:72,1,47.5,8|0,1:3|1:3,1:0:0:0:
297,226,62269,2,0,L|388:240,1,47.5,4|0,1:3|1:3,1:0:0:0:
126,328,62441,5,0,1:0:0:0:
377,237,62612,1,0,1:0:0:0:
141,86,62784,1,8,1:0:0:0:
221,230,62955,1,4,1:3:0:0:
183,201,63041,1,0,1:0:0:0:
138,187,63127,1,4,1:3:0:0:
91,190,63212,1,0,1:0:0:0:
48,210,63298,1,8,1:0:0:0:
241,369,63469,2,0,L|246:312,1,47.5,0|0,1:0|1:0,1:0:0:0:
377,237,63641,2,0,L|381:189,1,47.5,0|0,1:0|1:0,1:0:0:0:
323,69,63812,5,0,1:3:0:0:
300,154,63984,1,0,2:0:0:0:
189,69,64155,5,0,1:3:0:0:
212,154,64327,1,0,2:0:0:0:
429,27,64498,5,0,1:3:0:0:
376,233,64669,1,0,2:0:0:0:
83,27,64841,5,0,1:3:0:0:
136,233,65012,1,0,2:0:0:0:
255,89,65184,5,0,1:0:0:0:
254,187,65355,1,0,2:0:0:0:
255,286,65527,1,0,1:0:0:0:
108,126,65698,5,4,1:3:0:0:
411,243,65869,1,8,1:0:0:0:
128,371,66041,1,4,1:3:0:0:
411,123,66212,5,8,1:0:0:0:
114,244,66384,1,8,1:0:0:0:
414,363,66555,5,4,1:2:0:0:
266,101,66727,2,0,L|241:202,1,104.5,2|8,1:3|1:0,1:0:0:0:
511,88,67069,1,4,1:3:0:0:
466,97,67155,1,0,1:2:0:0:
421,82,67241,1,4,1:3:0:0:
391,46,67327,1,0,1:2:0:0:
384,0,67412,1,4,1:3:0:0:
256,207,67584,1,8,1:0:0:0:
69,58,67755,5,0,1:0:0:0:
69,58,67841,1,0,1:0:0:0:
69,58,67927,2,0,L|167:92,1,104.5,4|0,1:2|1:0,1:0:0:0:
409,173,68269,1,8,1:0:0:0:
123,335,68441,1,4,1:3:0:0:
115,300,68527,1,0,1:0:0:0:
108,265,68612,1,4,1:3:0:0:
101,230,68698,1,0,1:2:0:0:
94,195,68784,1,4,1:3:0:0:
421,381,68955,2,0,P|363:331|287:332,1,156.75,8|0,1:0|1:0,1:0:0:0:
266,342,69298,6,0,P|228:316|230:255,1,104.5,2|0,1:2|1:0,1:0:0:0:
299,19,69641,1,8,1:0:0:0:
405,209,69812,1,4,1:3:0:0:
448,225,69898,1,0,1:0:0:0:
491,207,69984,1,4,1:3:0:0:
511,165,70069,1,0,1:2:0:0:
497,121,70155,1,4,1:3:0:0:
266,175,70327,2,0,P|214:186|163:197,1,104.5,10|0,1:2|1:0,1:0:0:0:
163,198,70584,1,0,1:0:0:0:
163,197,70669,6,0,P|152:145|141:94,1,104.5,2|0,1:0|1:0,1:0:0:0:
349,242,71012,1,8,1:0:0:0:
80,356,71184,1,2,1:0:0:0:
70,309,71269,1,0,1:0:0:0:
60,263,71355,1,4,1:3:0:0:
50,216,71441,1,0,1:2:0:0:
39,170,71527,1,4,1:3:0:0:
242,53,71698,2,0,P|291:69|341:86,1,104.5,10|0,1:0|1:0,1:0:0:0:
341,86,71955,1,0,1:0:0:0:
340,86,72041,6,0,P|376:50|365:1,1,104.5,4|0,1:2|1:0,1:0:0:0:
246,225,72384,1,8,1:0:0:0:
118,14,72555,1,4,1:3:0:0:
134,58,72641,1,0,1:0:0:0:
116,101,72727,1,4,1:3:0:0:
74,121,72812,1,0,1:2:0:0:
30,107,72898,1,4,1:3:0:0:
258,234,73069,1,8,1:0:0:0:
82,368,73241,5,0,1:0:0:0:
82,368,73327,1,0,1:0:0:0:
81,368,73412,2,0,P|71:316|60:265,1,104.5,2|0,1:2|1:0,1:0:0:0:
216,81,73755,1,8,1:0:0:0:
351,309,73927,1,4,1:3:0:0:
393,328,74012,1,0,1:0:0:0:
440,325,74098,1,4,1:3:0:0:
480,300,74184,1,0,1:2:0:0:
503,259,74269,1,4,1:3:0:0:
269,384,74441,2,0,P|225:355|174:352,1,104.5,10|0,1:2|1:0,1:0:0:0:
174,352,74698,1,0,1:0:0:0:
174,352,74784,6,0,P|170:300|192:253,1,104.5,2|0,1:2|1:0,1:0:0:0:
380,147,75127,1,8,1:0:0:0:
213,0,75298,1,4,1:3:0:0:
224,46,75384,1,0,1:0:0:0:
236,92,75469,1,4,1:3:0:0:
248,138,75555,1,0,1:2:0:0:
260,184,75641,1,4,1:3:0:0:
337,0,75812,6,0,L|326:52,1,52.25,8|0,1:0|1:0,1:0:0:0:
418,285,75984,2,0,L|427:233,1,52.25,2|0,1:3|1:0,1:0:0:0:
221,76,76155,5,2,1:0:0:0:
170,334,76327,1,0,1:0:0:0:
428,384,76498,1,8,1:0:0:0:
181,326,76669,5,2,1:0:0:0:
439,377,76841,1,0,1:0:0:0:
489,119,77012,1,8,1:0:0:0:
297,282,77184,6,0,L|317:384,1,104.5,2|0,1:0|1:0,1:0:0:0:
152,154,77527,6,0,P|95:163|50:132,1,113.999996520996,4|0,1:2|1:0,1:0:0:0:
340,20,77869,1,8,1:0:0:0:
285,273,78041,1,4,1:3:0:0:
273,223,78127,1,0,1:0:0:0:
261,173,78212,1,4,1:3:0:0:
249,123,78298,1,0,1:2:0:0:
236,73,78384,1,4,1:3:0:0:
400,194,78555,1,8,1:0:0:0:
122,319,78727,5,0,1:0:0:0:
122,319,78812,1,0,1:0:0:0:
122,319,78898,2,0,P|129:291|137:264,1,56.9999982604981,0|0,1:2|3:0,1:0:0:0:
57,153,79069,2,0,P|64:180|72:207,1,56.9999982604981,0|0,1:2|3:0,1:0:0:0:
215,384,79241,2,0,P|207:356|199:329,1,57,8|0,1:0|3:0,1:0:0:0:
67,163,79412,2,0,P|74:135|82:108,1,57,0|0,1:0|3:0,1:0:0:0:
288,65,79584,6,0,P|261:17|207:20,1,114,0|0,1:0|1:0,1:0:0:0:
192,35,79841,1,0,1:0:0:0:
182,46,79927,2,0,P|191:102|201:158,1,114,8|0,1:0|1:0,1:0:0:0:
512,135,80269,5,0,1:0:0:0:
281,74,80441,1,0,1:0:0:0:
344,305,80612,1,8,1:0:0:0:
391,127,80784,5,0,1:0:0:0:
391,127,80869,1,0,1:0:0:0:
391,127,80955,1,0,1:0:0:0:
412,204,81127,1,0,1:0:0:0:
335,183,81298,1,8,1:0:0:0:
501,138,81469,1,0,1:0:0:0:
288,384,81641,6,0,P|282:356|276:328,1,57,2|0,1:2|1:0,1:0:0:0:
340,283,81812,1,0,1:0:0:0:
340,283,81984,1,8,1:0:0:0:
141,101,82155,6,0,P|135:129|129:157,1,57,2|0,1:2|1:0,1:0:0:0:
190,214,82327,1,0,1:0:0:0:
190,214,82498,1,4,1:3:0:0:
3,344,82669,2,0,P|39:273|118:287,1,171,8|0,1:0|1:0,1:0:0:0:
130,271,83012,6,0,P|138:328|146:384,1,114,0|0,1:0|1:0,1:0:0:0:
272,157,83355,1,8,1:0:0:0:
392,352,83527,1,4,1:3:0:0:
438,371,83612,1,0,1:0:0:0:
485,354,83698,1,4,1:3:0:0:
507,309,83784,1,0,1:0:0:0:
494,261,83869,1,4,1:3:0:0:
261,153,84041,6,0,P|271:209|282:264,1,114,8|0,1:0|1:0,1:0:0:0:
282,264,84298,1,0,1:0:0:0:
282,264,84384,2,0,P|348:263|367:208,1,114,2|0,1:2|1:0,1:0:0:0:
190,23,84727,1,8,1:0:0:0:
60,249,84898,1,0,1:0:0:0:
60,249,84984,1,0,1:0:0:0:
60,249,85069,2,0,L|87:368,1,114,2|0,1:2|1:2,1:2:0:0:
265,137,85412,1,8,1:0:0:0:
29,52,85584,5,0,1:0:0:0:
29,52,85669,1,0,1:0:0:0:
29,52,85755,1,0,1:0:0:0:
4,157,85927,1,0,1:0:0:0:
126,35,86098,5,0,1:0:0:0:
101,140,86269,1,0,1:0:0:0:
223,18,86441,5,0,1:0:0:0:
198,123,86612,1,0,1:0:0:0:
383,203,86784,5,0,1:0:0:0:
383,203,86955,1,0,1:0:0:0:
231,383,87127,6,0,L|242:328,1,57,8|0,1:0|1:0,1:0:0:0:
291,81,87298,1,0,1:0:0:0:
238,378,87469,6,0,L|249:323,1,57,8|0,1:0|1:0,1:0:0:0:
298,76,87641,1,0,1:0:0:0:
245,373,87812,6,0,L|256:318,1,57,8|0,1:0|1:0,1:0:0:0:
305,71,87984,1,0,1:0:0:0:
71,241,88155,6,0,L|124:223,1,57,8|0,1:0|1:0,1:0:0:0:
441,143,88327,2,0,L|387:162,1,57,8|0,1:0|1:0,1:0:0:0:
256,192,88498,5,4,1:0:0:0:
370,235,110098,5,8,2:1:0:0:
370,235,110441,2,0,P|349:258|296:274,1,71.25,2|0,1:0|2:0,0:0:0:0:
213,306,110784,2,0,P|190:285|174:232,1,71.25,2|0,2:0|2:0,2:0:0:0:
142,149,111127,2,0,P|163:126|216:110,1,71.2500000000002,2|0,2:0|2:0,2:0:0:0:
299,78,111469,2,0,P|322:99|338:152,1,71.2500000000002,2|0,3:0|2:0,2:0:0:0:
255,194,111812,6,0,L|101:178,1,142.5,2|2,2:0|2:0,2:0:0:0:
25,166,112327,1,0,2:0:0:0:
207,284,112498,2,0,L|294:291,1,71.2500000000002,2|0,2:0|2:0,2:0:0:0:
213,102,112841,2,0,L|126:95,1,71.2500000000002,2|0,3:0|2:0,2:0:0:0:
32,272,113184,6,0,L|43:353,1,71.2500000000002,2|0,2:0|2:0,2:0:0:0:
165,205,113527,2,0,L|176:286,1,71.2500000000002,2|0,2:0|2:0,2:0:0:0:
329,263,113869,2,0,L|340:344,1,71.2500000000002,2|0,2:0|2:0,2:0:0:0:
428,384,114212,1,2,3:0:0:0:
454,241,114384,6,0,P|387:225|320:284,2,142.5,2|2|0,2:0|3:2|3:0,2:0:0:0:
304,160,115241,2,0,L|215:153,1,71.2500000000002,2|0,3:2|2:0,2:0:0:0:
349,84,115584,2,0,L|438:91,1,71.2500000000002,2|0,3:0|2:0,2:0:0:0:
232,154,115927,6,0,L|241:2,1,142.5,2|2,2:0|2:0,2:0:0:0:
349,84,116441,1,0,2:0:0:0:
151,86,116612,2,0,P|114:87|71:68,2,71.2500000000002,2|0|2,2:0|2:0|3:0,2:0:0:0:
168,234,117127,6,0,B|240:211|240:211|311:229,2,142.5,2|2|0,2:0|3:2|2:0,2:0:0:0:
365,340,117984,2,0,P|373:290|387:245,1,71.2500000000002,2|0,3:2|2:0,2:0:0:0:
181,164,118327,2,0,P|173:214|159:259,1,71.2500000000002,2|0,3:0|2:0,2:0:0:0:
463,313,118669,6,0,B|483:273|484:244|484:244|477:208|455:164,1,142.5,2|2,3:2|2:0,2:0:0:0:
382,132,119184,1,0,2:0:0:0:
307,279,119355,2,0,L|390:268,1,71.2500000000002,2|0,2:0|2:0,2:0:0:0:
479,255,119698,1,2,3:0:0:0:
311,185,119869,6,0,L|163:197,2,142.5,2|2|0,2:0|2:0|3:0,2:0:0:0:
461,177,120727,2,0,P|467:135|458:98,1,71.2500000000002,2|0,2:0|2:0,2:0:0:0:
301,31,121069,2,0,P|295:73|304:110,1,71.2500000000002,2|0,2:3|2:0,2:0:0:0:
346,343,121412,6,0,P|296:283|193:282,1,170.999994781494,0|2,1:0|3:0,2:0:0:0:
112,291,121927,1,0,1:0:0:0:
315,177,122098,2,0,P|305:239|306:283,1,85.4999973907472,0|0,3:0|2:0,2:0:0:0:
197,359,122441,2,0,P|207:297|206:253,1,85.5000000000001,2|0,3:0|2:0,2:0:0:0:
102,135,122784,6,0,L|7:122,1,85.5000000000001,0|0,1:0|2:0,2:0:0:0:
131,47,123127,1,2,3:0:0:0:
84,229,123298,1,0,1:0:0:0:
84,229,123469,2,0,P|114:181|255:173,1,171,0|2,3:0|3:0,2:0:0:0:
319,175,123984,1,0,3:0:0:0:
441,62,124155,6,0,P|389:76|345:79,1,85.5000000000001,0|0,1:0|2:0,2:0:0:0:
350,278,124498,2,0,P|392:282|433:294,1,85.5000000000001,2|0,3:0|1:0,2:0:0:0:
507,177,124841,2,0,L|406:178,1,85.5000000000001,0|0,3:0|2:0,2:0:0:0:
224,176,125184,1,2,3:0:0:0:
382,359,125355,5,0,2:0:0:0:
318,177,125527,1,0,1:0:0:0:
318,177,125698,2,0,L|310:275,1,85.5000000000001,2|0,3:0|2:0,2:0:0:0:
382,359,126041,1,0,1:0:0:0:
382,359,126212,2,0,L|390:261,1,85.5000000000001,2|0,3:0|2:0,2:0:0:0:
228,235,126555,1,0,1:0:0:0:
480,301,126727,1,0,1:0:0:0:
252,334,126898,6,0,P|187:327|97:403,1,171,0|0,3:0|1:0,2:0:0:0:
316,173,127412,2,0,P|381:180|471:104,1,171,0|0,3:0|1:0,2:0:0:0:
204,0,127927,2,0,P|193:49|194:93,1,85.5000000000001,2|0,3:0|2:0,2:0:0:0:
352,292,128269,6,0,L|362:192,1,85.5000000000001,0|0,1:0|2:0,2:0:0:0:
373,93,128612,1,2,3:0:0:0:
157,175,128784,6,0,L|147:275,1,85.5000000000001,0|0,1:0|2:0,2:0:0:0:
136,374,129127,1,2,3:0:0:0:
258,210,129298,1,2,1:2:0:0:
37,263,129469,1,0,2:0:0:0:
263,316,129641,6,0,P|307:306|366:317,1,85.5000000000001,0|0,1:0|2:0,2:0:0:0:
261,114,129984,1,2,3:0:0:0:
167,345,130155,2,0,L|156:160,1,171,0|0,1:0|2:0,2:0:0:0:
45,24,130669,2,0,L|50:125,1,85.5000000000001,0|2,3:0|3:0,2:0:0:0:
456,242,132384,6,0,L|466:185,1,57.0000000000001,6|0,1:2|2:0,2:0:0:0:
292,74,132555,1,0,2:0:0:0:
387,374,132727,1,8,2:1:0:0:
143,183,132898,5,4,1:3:0:0:
182,164,132984,1,0,3:0:0:0:
224,174,133069,1,0,3:0:0:0:
250,209,133155,1,0,3:0:0:0:
248,252,133241,2,0,L|231:306,1,57.0000000000001,8|0,2:1|2:0,2:0:0:0:
5,341,133412,6,0,L|61:351,1,57,2|0,2:0|2:0,2:0:0:0:
135,384,133584,2,0,B|145:371|145:371|128:274,1,114,2|4,2:0|1:3,2:0:0:0:
51,47,133927,5,4,1:3:0:0:
42,97,134012,1,0,3:0:0:0:
33,147,134098,1,8,1:0:0:0:
244,54,134269,2,0,P|216:8|162:12,1,114,4|0,2:3|2:0,2:0:0:0:
273,204,134612,1,8,2:0:0:0:
462,73,134784,1,2,3:2:0:0:
463,57,134869,1,0,3:0:0:0:
456,44,134955,1,0,3:0:0:0:
458,29,135041,1,0,3:0:0:0:
447,14,135127,6,0,P|370:-2|342:70,1,171,4|0,1:3|2:0,2:0:0:0:
333,82,135469,2,0,P|344:107|356:134,1,57,8|0,1:0|2:0,2:0:0:0:
469,300,135641,1,4,2:3:0:0:
479,262,135727,1,0,2:0:0:0:
491,225,135812,1,2,2:0:0:0:
196,335,135984,2,0,P|169:327|141:320,1,57,8|0,1:0|2:0,2:0:0:0:
322,254,136155,1,0,3:0:0:0:
322,254,136241,1,0,3:0:0:0:
322,254,136327,2,0,P|349:246|377:239,1,57,2|0,3:2|2:0,2:0:0:0:
212,136,136498,6,0,P|218:163|226:191,1,57,4|0,1:3|2:0,2:0:0:0:
283,372,136669,1,2,2:0:0:0:
233,50,136841,1,8,2:0:0:0:
39,279,137012,5,4,1:3:0:0:
34,322,137098,1,0,3:0:0:0:
60,359,137184,1,0,3:0:0:0:
103,372,137269,1,0,3:0:0:0:
143,353,137355,2,0,P|149:326|157:298,1,57,8|0,1:2|2:0,2:0:0:0:
193,129,137527,1,2,2:0:0:0:
175,134,137612,1,0,3:0:0:0:
158,139,137698,1,0,3:0:0:0:
140,144,137784,1,0,3:0:0:0:
123,149,137869,6,0,P|41:135|46:55,1,171,6|0,1:2|2:0,2:0:0:0:
55,65,138212,2,0,P|82:57|110:51,1,57,8|0,1:0|2:0,2:0:0:0:
333,101,138384,1,4,1:3:0:0:
361,67,138469,1,0,3:0:0:0:
355,21,138555,1,2,3:2:0:0:
188,140,138727,2,0,P|215:147|242:155,1,57,10|0,1:2|2:0,2:0:0:0:
444,260,138898,1,0,3:2:0:0:
452,273,138984,1,0,3:0:0:0:
453,288,139069,1,2,3:2:0:0:
462,300,139155,1,0,3:0:0:0:
460,317,139241,6,0,P|405:318|377:365,1,114,4|2,1:3|2:0,2:0:0:0:
256,172,139584,2,0,P|310:174|338:221,1,114,8|4,1:0|1:3,2:0:0:0:
291,293,139841,1,0,3:0:0:0:
291,293,139927,2,0,P|263:298|235:304,1,57,2|0,3:2|2:0,2:0:0:0:
413,166,140098,2,0,P|440:171|468:177,1,57,10|0,1:2|2:0,2:0:0:0:
263,89,140269,2,0,P|255:61|248:33,1,57,2|0,2:0|2:0,2:0:0:0:
321,0,140441,1,0,2:0:0:0:
174,212,140612,6,0,B|107:203|107:203|85:165|85:165|25:157,1,171,4|0,1:3|2:0,2:0:0:0:
16,147,140955,2,0,L|72:154,1,57,8|0,1:0|2:0,2:0:0:0:
274,220,141127,1,4,1:3:0:0:
274,220,141212,1,0,3:0:0:0:
274,220,141298,1,0,3:0:0:0:
111,376,141469,2,0,P|32:350|42:269,1,171,10|0,1:2|2:0,2:0:0:0:
49,284,141812,2,0,P|62:259|83:239,1,57,2|0,2:0|2:0,2:0:0:0:
252,100,141984,5,4,1:3:0:0:
64,32,142155,1,4,1:3:0:0:
100,229,142327,1,8,1:0:0:0:
318,46,142498,5,4,1:3:0:0:
344,72,142584,1,0,3:0:0:0:
376,88,142669,1,0,3:0:0:0:
412,94,142755,1,0,3:0:0:0:
449,88,142841,1,8,1:0:0:0:
299,252,143012,1,0,3:0:0:0:
300,236,143098,1,0,3:0:0:0:
293,223,143184,1,0,3:0:0:0:
295,208,143269,1,0,3:0:0:0:
284,193,143355,6,0,P|187:179|110:238,1,199.5,6|0,1:0|2:0,2:0:0:0:
120,249,143698,2,0,P|107:279|103:312,1,66.4999979705811,8|0,2:0|2:0,2:0:0:0:
0,105,143869,1,4,1:3:0:0:
0,72,143955,1,0,3:0:0:0:
23,49,144041,1,2,3:1:0:0:
55,42,144127,1,0,3:0:0:0:
85,56,144212,2,0,P|95:87|106:118,1,66.5,8|0,1:0|2:0,2:0:0:0:
294,271,144384,5,0,3:0:0:0:
342,284,144469,1,0,3:0:0:0:
378,254,144555,2,0,P|384:221|392:178,1,66.5,2|0,3:1|2:0,2:0:0:0:
413,72,144727,1,4,1:3:0:0:
441,384,144898,6,0,P|434:351|426:308,1,66.5,2|0,2:1|2:0,2:0:0:0:
406,202,145069,1,8,1:0:0:0:
235,380,145241,5,2,2:1:0:0:
235,346,145327,1,0,3:0:0:0:
217,316,145412,1,2,3:2:0:0:
75,164,145584,1,10,1:2:0:0:
292,54,145755,1,2,3:2:0:0:
293,70,145841,1,0,3:0:0:0:
286,83,145927,1,0,3:0:0:0:
288,98,146012,1,0,3:0:0:0:
277,112,146098,6,0,P|187:129|158:43,1,199.5,2|0,1:0|2:0,2:0:0:0:
148,31,146441,2,0,P|174:12|207:7,1,66.5,8|0,1:2|2:0,2:0:0:0:
386,127,146612,1,4,1:3:0:0:
396,168,146698,1,0,3:0:0:0:
404,209,146784,1,2,3:1:0:0:
505,24,146955,2,0,P|491:54|478:85,1,66.5,8|0,1:0|2:0,2:0:0:0:
352,321,147127,1,0,3:0:0:0:
370,326,147212,1,0,3:0:0:0:
387,331,147298,1,2,3:1:0:0:
405,336,147384,1,0,3:0:0:0:
421,340,147469,6,0,P|484:332|505:273,1,133,4|2,1:3|1:0,2:0:0:0:
247,370,147812,2,0,P|238:337|230:305,1,66.5,8|0,1:0|2:0,2:0:0:0:
290,141,147984,1,2,1:0:0:0:
330,122,148069,1,0,3:0:0:0:
373,135,148155,1,2,3:2:0:0:
399,172,148241,1,0,3:0:0:0:
393,215,148327,2,0,P|362:224|330:233,1,66.5,10|0,1:2|2:0,2:0:0:0:
146,341,148498,1,2,3:2:0:0:
131,347,148584,1,0,3:0:0:0:
116,346,148669,1,0,3:0:0:0:
104,354,148755,1,0,3:0:0:0:
86,351,148841,6,0,P|35:266|45:168,1,199.5,6|0,1:0|2:0,2:0:0:0:
53,183,149184,2,0,P|63:151|79:122,1,66.5,8|0,1:0|2:0,2:0:0:0:
237,35,149355,1,4,1:3:0:0:
243,68,149441,1,0,3:0:0:0:
226,98,149527,1,2,3:2:0:0:
53,34,149698,2,0,P|84:43|117:51,1,66.5,8|0,1:0|2:0,2:0:0:0:
308,162,149869,1,0,3:0:0:0:
341,128,149955,1,0,3:0:0:0:
392,135,150041,6,0,L|408:199,1,66.5,2|0,3:1|2:0,2:0:0:0:
467,4,150212,1,4,1:3:0:0:
421,207,150384,6,0,L|404:271,1,66.5,2|0,2:1|2:0,2:0:0:0:
318,52,150555,1,8,1:0:0:0:
481,286,150727,5,2,1:0:0:0:
491,324,150812,1,0,3:0:0:0:
501,363,150898,1,0,3:0:0:0:
325,239,151069,1,8,1:0:0:0:
234,367,151241,1,4,1:3:0:0:
217,366,151327,1,0,3:0:0:0:
204,358,151412,1,0,3:0:0:0:
190,361,151498,1,0,3:0:0:0:
175,350,151584,6,0,L|158:285,1,66.5,2|0,1:0|2:0,2:0:0:0:
119,140,151755,1,0,2:0:0:0:
45,306,151927,1,2,1:2:0:0:
225,187,152098,2,0,L|247:55,1,133,2|0,2:1|1:0,2:0:0:0:
45,157,152441,6,0,L|108:135,1,66.5,2|0,2:0|2:0,2:0:0:0:
237,46,152612,2,0,L|166:32,1,66.5,2|0,1:0|2:0,2:0:0:0:
38,3,152784,2,0,L|62:83,1,66.5,2|0,1:0|2:0,2:0:0:0:
158,298,152955,6,0,P|184:279|216:268,1,66.5,8|0,1:0|2:0,2:0:0:0:
439,243,153127,1,0,1:0:0:0:
439,243,153298,1,0,1:0:0:0:
168,151,153469,6,0,P|200:147|233:153,1,66.5,8|0,1:0|2:0,2:0:0:0:
439,243,153641,1,0,1:0:0:0:
439,243,153812,1,0,1:0:0:0:
396,30,153984,6,0,P|383:60|373:92,1,66.5,8|0,1:0|2:0,2:0:0:0:
308,356,154155,1,0,1:0:0:0:
226,138,154327,6,0,P|295:215|420:164,1,209.000006378174,4|8,1:2|1:0,0:0:0:0:
141,241,154841,2,0,L|58:253,1,52.2500015945435,0|0,1:0|1:0,1:0:0:0:
204,371,155012,1,0,1:0:0:0:
209,345,155098,1,0,1:0:0:0:
215,319,155184,1,0,1:0:0:0:
108,38,155355,2,0,L|87:142,1,104.5,8|0,1:0|1:0,1:0:0:0:
19,180,155612,5,0,1:0:0:0:
19,180,155698,2,0,L|32:253,2,52.25,4|0|0,1:3|1:0|1:0,1:0:0:0:
0,41,156041,1,8,1:0:0:0:
239,144,156212,2,0,L|173:133,1,52.25,4|0,1:3|1:0,1:0:0:0:
319,125,156384,2,0,L|253:114,1,52.25,0|0,1:0|1:0,1:0:0:0:
397,44,156555,1,4,1:3:0:0:
397,44,156641,1,0,1:0:0:0:
397,44,156727,2,0,B|423:118|423:118|392:212,1,156.75,8|0,1:0|1:0,1:0:0:0:
368,276,157069,6,0,P|429:266|484:259,1,104.5,4|0,1:3|1:0,1:0:0:0:
416,361,157412,1,8,1:0:0:0:
304,190,157584,1,4,1:3:0:0:
278,218,157669,1,0,1:0:0:0:
265,255,157755,1,0,1:0:0:0:
267,294,157841,1,0,1:0:0:0:
284,329,157927,1,4,1:3:0:0:
398,192,158098,2,0,L|385:128,1,52.25,8|0,1:0|1:0,1:0:0:0:
199,78,158269,5,0,1:0:0:0:
199,78,158355,1,0,1:0:0:0:
199,78,158441,1,4,1:3:0:0:
179,237,158612,1,4,1:3:0:0:
313,73,158784,1,8,1:0:0:0:
148,152,158955,5,0,1:0:0:0:
109,161,159041,1,0,1:0:0:0:
71,170,159127,1,0,1:0:0:0:
35,156,159212,1,0,1:0:0:0:
0,140,159298,1,0,1:0:0:0:
139,3,159469,2,0,L|144:73,1,52.25,8|0,1:0|1:0,1:0:0:0:
244,161,159641,2,0,L|247:213,1,52.25,4|0,1:3|1:0,1:0:0:0:
147,370,159812,6,0,L|161:240,2,104.5,4|0|8,1:0|1:0|1:0,1:0:0:0:
328,244,160327,1,4,1:3:0:0:
376,227,160412,1,0,1:0:0:0:
427,239,160498,1,0,1:0:0:0:
463,275,160584,1,0,1:0:0:0:
476,325,160669,1,4,1:3:0:0:
304,350,160841,1,8,1:0:0:0:
176,179,161012,5,0,1:0:0:0:
176,179,161098,1,0,1:0:0:0:
176,179,161184,2,0,B|126:183|126:183|61:163,1,104.5,4|4,1:3|1:3,1:0:0:0:
190,43,161527,1,8,1:0:0:0:
273,230,161698,1,4,1:3:0:0:
276,204,161784,1,0,1:0:0:0:
279,178,161869,1,0,1:0:0:0:
283,152,161955,1,0,1:0:0:0:
286,126,162041,1,4,1:3:0:0:
448,0,162212,2,0,L|465:166,1,156.75,8|0,1:0|1:0,1:0:0:0:
502,237,162555,6,0,B|506:264|506:264|426:244|426:244|370:261|370:261|290:245,1,209,4|8,1:3|1:0,1:0:0:0:
162,133,163069,1,4,1:3:0:0:
194,93,163155,1,0,1:0:0:0:
243,76,163241,1,0,1:0:0:0:
293,89,163327,1,0,1:0:0:0:
329,127,163412,1,4,1:3:0:0:
479,352,163584,2,0,L|402:335,1,52.25,8|0,1:0|1:0,1:0:0:0:
260,358,163755,2,0,L|183:341,1,52.25,0|0,1:0|1:0,1:0:0:0:
47,233,163927,5,4,1:3:0:0:
305,201,164098,1,4,1:3:0:0:
112,51,164269,1,8,1:0:0:0:
109,306,164441,5,4,1:3:0:0:
314,103,164612,1,4,1:3:0:0:
274,378,164784,1,8,1:0:0:0:
28,151,164955,5,4,1:3:0:0:
274,281,165127,1,8,1:0:0:0:
433,112,165298,6,0,L|450:-10,2,104.5,4|0|8,1:3|1:0|1:0,1:0:0:0:
265,171,165812,1,4,1:3:0:0:
233,148,165898,1,0,1:0:0:0:
214,114,165984,1,0,1:0:0:0:
213,75,166069,1,0,1:0:0:0:
229,40,166155,1,0,1:0:0:0:
361,14,166327,2,0,L|348:90,1,52.25,8|0,1:0|1:0,1:0:0:0:
331,265,166498,5,0,1:0:0:0:
331,265,166584,1,0,1:0:0:0:
331,265,166669,1,4,1:3:0:0:
152,187,166841,1,4,1:3:0:0:
396,155,167012,1,8,1:0:0:0:
404,341,167184,1,4,1:3:0:0:
369,323,167269,1,0,1:0:0:0:
330,321,167355,1,0,1:0:0:0:
293,335,167441,1,0,1:0:0:0:
266,362,167527,1,0,1:0:0:0:
19,232,167698,2,0,L|139:247,1,104.5,8|0,1:0|1:0,1:0:0:0:
196,292,167955,5,2,1:2:0:0:
196,292,168041,2,0,B|217:136|217:136|158:168,1,209,4|8,1:3|1:0,1:0:0:0:
15,194,168555,1,0,1:0:0:0:
19,232,168641,1,0,1:0:0:0:
23,271,168727,1,0,1:0:0:0:
27,310,168812,1,0,1:0:0:0:
31,349,168898,1,0,1:0:0:0:
296,238,169069,2,0,L|237:226,1,52.25,8|0,1:0|1:0,1:0:0:0:
33,77,169241,5,0,1:0:0:0:
33,77,169327,1,0,1:0:0:0:
33,77,169412,2,0,B|105:103|105:103|208:61,1,156.75,0|0,1:0|1:0,1:0:0:0:
217,52,169755,2,0,L|227:128,1,52.25,8|0,1:0|1:0,1:0:0:0:
137,227,169927,2,0,L|127:151,1,52.25,4|0,1:3|1:0,1:0:0:0:
316,69,170098,1,0,1:0:0:0:
324,117,170184,1,0,1:0:0:0:
310,157,170269,1,0,1:0:0:0:
84,281,170441,5,8,1:0:0:0:
104,247,170527,1,0,1:0:0:0:
137,227,170612,1,0,1:0:0:0:
176,224,170698,1,0,1:0:0:0:
211,240,170784,1,0,1:0:0:0:
403,359,170955,1,0,1:0:0:0:
324,117,171127,1,8,1:0:0:0:
488,228,171298,5,0,1:0:0:0:
488,228,171384,1,0,1:0:0:0:
488,228,171469,2,0,L|430:241,1,52.25,0|0,1:0|1:0,1:0:0:0:
223,361,171641,2,0,L|281:348,1,52.25,0|0,1:0|1:0,1:0:0:0:
358,196,171812,2,0,P|371:128|296:156,1,156.75,8|0,1:0|1:0,1:0:0:0:
271,205,172155,6,0,L|280:275,1,52.25,4|0,1:3|1:0,1:0:0:0:
352,78,172327,2,0,L|343:8,1,52.25,0|0,1:3|1:0,1:0:0:0:
189,121,172498,1,8,1:0:0:0:
441,33,172669,1,0,1:0:0:0:
457,67,172755,1,0,1:0:0:0:
457,106,172841,1,0,1:0:0:0:
439,141,172927,1,0,1:0:0:0:
407,163,173012,1,0,1:0:0:0:
105,12,173184,2,0,L|170:25,1,52.25,8|0,1:0|1:0,1:0:0:0:
248,52,173355,5,0,1:0:0:0:
248,52,173441,1,0,1:0:0:0:
248,52,173527,1,4,1:3:0:0:
338,83,173698,1,0,1:0:0:0:
170,162,173869,5,4,1:3:0:0:
274,141,174041,1,0,1:0:0:0:
89,254,174212,5,4,1:3:0:0:
164,72,174384,1,0,1:0:0:0:
176,339,174555,5,4,1:3:0:0:
82,147,174727,1,0,1:0:0:0:
364,258,174898,5,4,1:3:0:0:
364,258,175069,1,0,1:0:0:0:
76,343,175241,5,4,1:3:0:0:
76,343,175412,1,4,1:3:0:0:
391,92,175584,5,8,1:0:0:0:
305,375,175755,1,0,1:0:0:0:
41,107,175927,5,8,1:0:0:0:
295,253,176098,1,8,1:0:0:0:
447,6,176269,6,0,L|454:111,2,85.4999973907472,4|0|0,1:2|2:0|2:0,0:0:0:0:
