osu file format v14

[General]
AudioFilename: Mark Ronson - Uptown Funk (Audio) ft. Bruno Mars.mp3
AudioLeadIn: 0
PreviewTime: 64966
Countdown: 1
SampleSet: Soft
StackLeniency: 0.7
Mode: 0
LetterboxInBreaks: 1
WidescreenStoryboard: 1

[Editor]
Bookmarks: 167478
DistanceSpacing: 1
BeatDivisor: 4
GridSize: 4
TimelineZoom: 1

[Metadata]
Title:Uptown Funk feat. Bruno Mars (Cut Ver.)
TitleUnicode:Uptown Funk feat. Bruno Mars (Cut Ver.)
Artist:Mark Ronson
ArtistUnicode:Mark Ronson
Creator:CDFA
Version:Normal
Source:
Tags:English Pop Disco Soul Boogie Special Reditum
BeatmapID:1560723
BeatmapSetID:407522

[Difficulty]
HPDrainRate:4
CircleSize:3
OverallDifficulty:4
ApproachRate:5
SliderMultiplier:1.5
SliderTickRate:2

[Events]
//Background and Video events
0,0,"revy-black-lagoon-1080P-wallpaper.jpg",0,0
Video,-325,"aaaa.mp4"
//Break Periods
2,50557,57505
//Storyboard Layer 0 (Background)
//Storyboard Layer 1 (Fail)
//Storyboard Layer 2 (Pass)
//Storyboard Layer 3 (Foreground)
//Storyboard Layer 4 (Overlay)
//Storyboard Sound Samples

[TimingPoints]
270.370407004557,521.739130434783,4,2,0,58,1,0
67052,-100,4,2,0,58,0,1
92096,-100,4,2,0,58,0,0

[Colours]
Combo1 : 128,0,128
Combo2 : 0,0,255
Combo3 : 0,128,64
Combo4 : 128,0,0

[HitObjects]
38,71,16966,6,0,P|87:46|174:95,1,150,4|0,0:0|1:0,0:0:0:0:
180,232,18009,2,0,B|232:236|232:236|304:212,1,112.5,2|2,0:0|0:0,0:0:0:0:
460,144,19052,6,0,P|479:216|455:316,1,150,2|0,0:0|1:0,0:0:0:0:
324,340,20096,2,0,B|292:340|292:340|240:360|240:360|200:360,1,112.5,2|2,0:0|0:0,0:0:0:0:
36,308,21139,6,0,P|28:256|76:152,1,150,2|0,0:0|1:0,0:0:0:0:
165,58,22183,2,0,L|209:131,2,75,2|0|0,0:0|0:0|1:0,0:0:0:0:
312,31,23226,6,0,P|372:19|440:75,1,150,2|0,0:0|1:0,0:0:0:0:
310,150,24270,2,0,P|266:146|218:198,1,112.5,2|2,0:0|0:0,0:0:0:0:
141,361,25313,6,0,P|85:369|37:285,1,150,2|0,0:0|1:0,0:0:0:0:
43,149,26357,2,0,B|90:145|90:145|158:173|158:173|214:165,1,150,2|0,0:0|1:0,0:0:0:0:
327,117,27400,6,0,B|335:153|335:153|327:193|327:193|339:257,1,112.5,2|2,0:0|0:0,0:0:0:0:
412,316,28183,1,0,0:0:0:0:
412,316,28444,1,2,0:0:0:0:
264,348,28966,1,0,1:0:0:0:
144,256,29487,6,0,P|156:204|120:92,1,150,2|0,0:0|1:0,0:0:0:0:
12,24,30531,2,0,L|140:12,1,112.5,2|2,0:0|0:0,0:0:0:0:
236,44,31313,5,0,0:0:0:0:
312,28,31574,2,0,P|384:28|448:104,1,150,2|0,0:0|1:0,0:0:0:0:
472,224,32618,2,0,L|504:304,2,75,2|0|0,0:0|0:0|1:0,0:0:0:0:
340,152,33661,6,0,P|292:144|220:220,1,150,2|0,0:0|1:0,0:0:0:0:
164,348,34705,2,0,P|120:352|72:312,1,75,2|0,0:0|0:0,0:0:0:0:
56,276,35226,1,2,1:0:0:0:
112,136,35748,6,0,P|116:80|44:12,2,150,2|0|2,0:0|1:0|0:0,0:0:0:0:
156,280,37313,1,0,1:0:0:0:
232,288,37574,1,0,0:0:0:0:
292,240,37835,6,0,P|308:192|264:88,1,150,2|0,0:0|1:0,0:0:0:0:
128,80,38879,2,0,L|64:16,2,75,2|0|2,0:0|0:0|1:0,0:0:0:0:
96,228,39922,6,0,B|96:288|96:288|152:380,1,150,2|0,0:0|1:0,0:0:0:0:
292,354,40966,2,0,P|344:356|394:313,1,112.5,2|2,0:0|0:0,0:0:0:0:
467,224,41748,5,0,0:0:0:0:
488,152,42009,2,0,P|496:100|416:28,1,150,2|0,0:0|1:0,0:0:0:0:
300,96,43052,1,2,0:0:0:0:
228,72,43313,1,0,0:0:0:0:
172,120,43574,2,0,B|116:156|116:156|12:116,1,150,2|2,1:0|0:0,0:0:0:0:
152,28,44618,6,0,P|212:24|304:68,1,150,0|2,1:0|0:0,0:0:0:0:
360,192,45661,1,0,1:0:0:0:
400,256,45922,1,0,0:0:0:0:
336,296,46183,6,0,B|248:296|248:296|176:232,1,150,2|0,0:0|1:0,0:0:0:0:
100,144,47226,1,2,0:0:0:0:
116,72,47487,1,0,0:0:0:0:
184,36,47748,2,0,P|232:32|312:112,1,150,2|2,1:0|0:0,0:0:0:0:
256,236,48792,5,0,1:0:0:0:
132,320,49313,2,0,P|64:328|16:236,1,150,2|0,0:0|1:0,0:0:0:0:
32,120,50357,1,4,0:3:0:0:
52,72,58705,6,0,P|100:64|140:92,1,75,8|0,0:0|0:0,0:0:0:0:
172,132,59226,2,0,P|228:152|336:116,1,150,8|8,0:0|0:0,0:0:0:0:
448,64,60270,1,8,0:0:0:0:
472,136,60531,1,0,0:0:0:0:
432,200,60792,6,0,B|412:272|412:272|424:360,1,150,8|8,0:0|0:0,0:0:0:0:
272,346,61835,2,0,L|252:188,1,150,8|8,0:0|0:0,0:0:0:0:
252,48,62879,6,0,P|316:24|392:72,1,150,8|8,0:0|0:0,0:0:0:0:
376,136,63661,1,0,0:0:0:0:
348,204,63922,2,0,B|360:280|360:280|416:336,1,150,8|8,0:0|0:0,0:0:0:0:
492,204,64966,5,4,0:3:0:0:
40,44,66531,5,2,1:3:0:0:
40,44,67052,6,0,B|112:36|112:36|200:64,1,150,4|0,0:0|1:0,0:0:0:0:
242,108,67835,1,0,0:0:0:0:
292,165,68096,2,0,B|368:176|368:176|452:152,1,150,2|0,0:0|1:0,0:0:0:0:
488,16,69139,6,0,B|448:16|448:16|388:64|388:64|336:64,2,150,2|0|2,0:0|1:0|0:0,0:0:0:0:
512,164,70705,1,0,1:0:0:0:
496,236,70966,1,0,0:0:0:0:
424,256,71226,6,2,P|356:252|288:324,1,150,2|0,0:0|1:0,0:0:0:0:
225,329,72009,1,0,0:0:0:0:
156,356,72270,2,0,L|72:376,2,75,2|0|0,0:0|0:0|1:0,0:0:0:0:
256,244,73313,6,0,L|256:108,2,112.5,0|2|2,0:0|0:0|0:0,0:0:0:0:
392,312,74618,2,0,L|392:236,1,75,2|0,0:0|1:0,0:0:0:0:
400,162,75139,1,0,0:0:0:0:
408,87,75400,6,0,P|352:77|288:153,1,150,6|0,0:0|1:0,0:0:0:0:
216,276,76444,2,0,B|148:292|148:292|68:240,1,150,2|0,0:0|1:0,0:0:0:0:
37,186,77226,1,0,0:0:0:0:
81,125,77487,6,0,P|97:85|29:5,2,150,2|0|2,0:0|1:0|0:0,0:0:0:0:
36,272,79052,2,0,P|112:320|192:288,1,150,0|2,1:0|0:0,0:0:0:0:
256,188,80096,1,0,1:0:0:0:
303,246,80357,1,0,0:0:0:0:
345,308,80618,2,0,P|418:316|476:272,1,150,2|0,2:0|1:0,0:0:0:0:
492,124,81661,6,0,B|456:124|456:124|428:152|428:152|384:152,2,112.5,0|2|0,0:0|0:0|0:0,0:0:0:0:
368,40,82966,2,0,L|288:40,1,75,2|0,0:0|1:0,0:0:0:0:
142,40,83748,6,0,B|128:80|128:80|136:152|136:152|116:208,2,150,2|0|2,0:0|1:0|0:0,0:0:0:0:
292,20,85313,1,0,1:0:0:0:
368,20,85574,1,0,0:0:0:0:
360,96,85835,6,0,P|368:168|448:232,2,150,2|0|2,0:0|1:0|0:0,0:0:0:0:
496,160,87400,2,0,L|448:336,1,150,0|2,1:0|0:0,0:0:0:0:
308,312,88444,5,0,1:0:0:0:
248,268,88705,1,0,0:0:0:0:
184,308,88966,2,0,P|120:312|56:232,1,150,2|0,0:0|1:0,0:0:0:0:
56,104,90009,5,4,0:0:0:0:
256,192,90270,12,0,92096,1:0:0:0:
