osu file format v14

[General]
AudioFilename: Mark Ronson - Uptown Funk (Audio) ft. Bruno Mars.mp3
AudioLeadIn: 0
PreviewTime: 64966
Countdown: 1
SampleSet: Soft
StackLeniency: 0.5
Mode: 0
LetterboxInBreaks: 1
WidescreenStoryboard: 0

[Editor]
Bookmarks: 167471
DistanceSpacing: 1
BeatDivisor: 4
GridSize: 4
TimelineZoom: 1

[Metadata]
Title:Uptown Funk feat. Bruno Mars (Cut Ver.)
TitleUnicode:Uptown Funk feat. Bruno Mars (Cut Ver.)
Artist:Mark Ronson
ArtistUnicode:Mark Ronson
Creator:CDFA
Version:Hard
Source:
Tags:English Pop Disco Soul Boogie Special Reditum
BeatmapID:885270
BeatmapSetID:407522

[Difficulty]
HPDrainRate:6
CircleSize:4
OverallDifficulty:6
ApproachRate:8
SliderMultiplier:2.5
SliderTickRate:1

[Events]
//Background and Video events
0,0,"revy-black-lagoon-1080P-wallpaper.jpg",0,0
Video,-325,"aaaa.mp4"
//Break Periods
2,50557,57955
//Storyboard Layer 0 (Background)
//Storyboard Layer 1 (Fail)
//Storyboard Layer 2 (Pass)
//Storyboard Layer 3 (Foreground)
//Storyboard Layer 4 (Overlay)
//Storyboard Sound Samples

[TimingPoints]
270.370407004557,521.739130434783,4,2,0,58,1,0
35225,-80,4,2,0,58,0,0
35748,-100,4,2,0,58,0,0
39400,-80,4,2,0,58,0,0
39791,-100,4,2,0,58,0,0
43574,-80,4,2,0,58,0,0
43966,-100,4,2,0,58,0,0
67052,-100,4,2,0,58,0,1
92096,-100,4,2,0,58,0,0

[Colours]
Combo1 : 128,0,128
Combo2 : 0,0,255
Combo3 : 0,128,64
Combo4 : 128,0,0

[HitObjects]
56,64,16966,6,0,P|136:28|196:112,1,187.5,6|2,0:3|0:0,0:0:0:0:
196,156,17487,2,0,P|208:216|268:240,1,125,0|2,1:0|0:0,0:0:0:0:
388,228,18009,2,0,P|452:240|492:352,1,187.5,4|2,0:3|0:0,0:0:0:0:
440,376,18531,1,0,1:0:0:0:
324,328,18792,1,2,0:0:0:0:
200,344,19052,5,4,0:3:0:0:
128,240,19313,1,0,0:0:0:0:
96,184,19444,2,0,L|144:56,1,125,2|2,0:0|0:0,0:0:0:0:
124,4,19835,1,0,0:0:0:0:
256,80,20096,2,0,P|324:92|432:40,2,187.5,4|2|2,0:3|0:0|0:0,0:0:0:0:
136,48,21139,6,0,P|68:68|60:184,1,187.5,4|0,0:3|0:0,0:0:0:0:
80,228,21661,1,0,1:0:0:0:
164,320,21922,1,0,0:0:0:0:
276,264,22183,2,0,P|340:248|472:296,2,187.5,4|2|2,0:3|0:0|0:0,0:0:0:0:
164,320,23226,2,0,P|160:244|184:196,1,125,4|0,0:3|0:0,0:0:0:0:
216,148,23618,1,0,0:0:0:0:
276,124,23748,2,0,B|340:136|340:136|440:112,1,125,0|0,1:0|0:0,0:0:0:0:
488,32,24270,2,0,P|424:132|444:216,1,187.5,4|0,0:3|0:0,0:0:0:0:
456,252,24792,1,0,1:0:0:0:
396,360,25052,1,2,0:3:0:0:
284,308,25313,6,0,P|204:300|96:336,1,187.5,4|0,0:3|0:0,0:0:0:0:
44,356,25835,2,0,B|24:296|24:296|24:212,1,125,0|0,1:1|0:0,0:0:0:0:
136,180,26357,2,0,P|208:160|252:24,2,187.5,4|2|0,0:3|0:0|0:0,0:0:0:0:
28,116,27400,6,0,P|36:40|96:20,1,125,4|0,0:3|0:0,0:0:0:0:
132,44,27792,2,0,P|212:88|316:24,1,187.5,2|2,0:0|0:0,0:0:0:0:
412,12,28444,1,4,0:3:0:0:
500,104,28705,1,2,0:0:0:0:
476,228,28966,1,0,1:0:0:0:
372,296,29226,5,2,0:0:0:0:
292,200,29487,2,0,P|240:184|116:244,1,187.5,4|2,0:3|0:0,0:0:0:0:
100,292,30009,1,0,1:0:0:0:
208,356,30270,1,0,0:0:0:0:
332,336,30531,2,0,P|396:296|408:240,1,125,4|0,0:3|0:0,0:0:0:0:
380,196,30922,2,0,P|368:132|464:52,1,187.5,2|0,0:0|0:0,0:0:0:0:
500,168,31574,6,0,B|500:244|500:244|464:364,2,187.5,4|2|0,0:3|0:0|0:0,0:0:0:0:
374,158,32618,1,4,0:3:0:0:
180,124,32879,1,2,0:0:0:0:
374,158,33139,1,8,1:0:0:0:
198,245,33400,1,0,0:0:0:0:
44,292,33661,6,0,P|28:232|56:100,1,187.5,4|2,0:3|0:0,0:0:0:0:
104,80,34183,2,0,B|168:68|168:68|240:92,1,125,8|2,1:1|0:0,0:0:0:0:
284,196,34705,2,0,B|268:256|268:256|284:344,1,125,4|2,0:3|0:0,0:0:0:0:
399,364,35226,6,2,B|494:350|494:350|505:251|452:302|453:202,1,234.375,8|0,1:0|0:0,1:1:0:0:
464,180,35748,6,0,P|436:120|504:8,2,187.5,4|2|0,0:3|0:0|0:0,0:0:0:0:
492,300,36792,2,0,L|356:292,1,125,4|0,0:3|0:0,0:0:0:0:
324,244,37183,2,0,L|188:232,1,125,2|2,0:0|0:0,0:0:0:0:
156,188,37574,2,0,L|24:176,1,125,0|4,0:0|0:3,0:0:0:0:
16,52,38096,5,2,0:0:0:0:
136,16,38357,1,8,1:0:0:0:
208,116,38618,2,0,B|264:144|264:144|344:144,1,125,2|4,0:0|0:3,0:0:0:0:
412,52,39139,1,2,0:0:0:0:
288,68,39400,6,2,B|243:156|243:156|283:182|283:182|236:275,1,234.375,8|0,1:0|0:0,1:1:0:0:
196,288,39922,6,0,P|120:292|40:204,1,187.5,4|0,0:3|0:0,0:0:0:0:
64,160,40444,1,8,1:0:0:0:
36,40,40705,1,2,0:0:0:0:
160,24,40966,2,0,B|236:24|236:24|268:40|268:40|372:40,2,187.5,4|2|0,0:3|0:0|0:0,0:0:0:0:
120,144,42009,6,0,P|132:220|104:300,1,125,4|2,0:3|0:0,0:0:0:0:
32,352,42531,2,0,P|96:344|180:356,1,125,8|2,1:0|0:0,0:0:0:0:
280,368,43052,1,4,0:3:0:0:
388,304,43313,1,2,0:0:0:0:
251,227,43574,6,2,B|229:148|229:148|259:71|259:71|304:94|345:69,1,234.375,8|0,1:0|0:0,1:0:0:0:
388,44,44096,6,0,L|176:32,1,187.5,4|2,0:3|0:0,0:0:0:0:
140,28,44618,1,8,1:0:0:0:
92,68,44748,1,0,0:0:0:0:
68,128,44879,2,0,L|88:256,1,125,0|4,0:0|0:3,0:0:0:0:
60,308,45270,1,0,0:0:0:0:
184,284,45531,1,2,0:0:0:0:
212,228,45661,2,0,L|192:92,1,125,8|0,1:0|0:0,0:0:0:0:
292,28,46183,6,0,P|352:32|424:80,1,125,4|2,0:3|0:0,0:0:0:0:
432,184,46705,2,0,P|388:236|384:324,1,125,8|2,1:0|0:0,0:0:0:0:
482,359,47226,2,0,P|374:299|242:311,1,250,4|10,0:3|1:0,0:0:0:0:
128,336,48009,5,2,0:0:0:0:
128,336,48139,1,0,0:0:0:0:
128,336,48270,2,0,P|112:260|136:136,2,187.5,4|2|0,0:3|0:0|0:0,0:0:0:0:
252,348,49313,2,0,B|316:352|316:352|400:336,1,125,4|0,0:3|0:0,0:0:0:0:
405,284,49705,1,0,0:0:0:0:
375,229,49835,2,0,B|363:165|363:165|387:81,1,125,8|0,1:0|0:0,0:0:0:0:
479,31,50357,1,4,0:3:0:0:
44,48,58705,6,0,L|168:40,1,125,6|8,0:3|0:1,0:0:0:0:
268,116,59226,2,0,L|104:128,1,125,6|8,0:3|0:1,0:0:0:0:
241,203,59748,2,0,L|365:195,1,125,6|8,0:3|0:1,0:0:0:0:
463,272,60270,2,0,L|299:284,1,125,6|8,0:3|0:1,0:0:0:0:
216,296,60792,5,6,0:3:0:0:
120,220,61052,1,8,0:1:0:0:
108,96,61313,1,6,0:3:0:0:
192,4,61574,1,8,0:1:0:0:
320,4,61835,1,6,0:3:0:0:
404,96,62096,1,8,0:1:0:0:
392,220,62357,1,6,0:3:0:0:
296,296,62618,1,8,0:1:0:0:
256,176,62879,5,14,0:3:0:0:
256,192,63139,12,2,64966,1:3:0:0:
44,40,66531,5,8,1:1:0:0:
44,40,66661,1,4,1:3:0:0:
36,228,67052,6,0,L|20:292,2,62.5,4|0|2,1:2|0:0|0:0,0:0:0:0:
84,188,67444,1,0,0:0:0:0:
136,224,67574,1,0,1:0:0:0:
176,352,67835,2,0,L|192:268,2,62.5,2|0|4,0:0|0:0|0:3,0:0:0:0:
116,368,68226,1,0,0:0:0:0:
80,316,68357,1,2,0:0:0:0:
108,196,68618,1,8,1:1:0:0:
216,260,68879,1,0,0:0:0:0:
328,208,69139,6,0,P|332:152|220:52,1,187.5,4|2,0:3|0:0,0:0:0:0:
188,60,69661,1,8,1:0:0:0:
128,168,69922,1,0,0:0:0:0:
12,124,70183,2,0,P|8:200|72:296,1,187.5,4|2,0:3|0:0,0:0:0:0:
128,308,70705,1,8,1:0:0:0:
176,268,70835,1,0,0:0:0:0:
236,280,70966,1,0,0:0:0:0:
252,339,71096,1,0,0:0:0:0:
312,323,71226,6,0,B|372:311|372:311|404:243,2,125,4|2|8,0:3|0:0|1:0,0:0:0:0:
136,143,72270,2,0,L|396:143,1,250,4|8,0:3|1:0,0:0:0:0:
184,348,73313,6,0,B|104:348|104:348|60:312,1,125,4|0,0:3|0:0,0:0:0:0:
63,256,73705,2,0,B|83:196|83:196|71:128,1,125,2|2,0:0|0:0,0:0:0:0:
52,76,74096,2,0,P|116:60|208:80,1,125,0|4,0:0|0:3,0:0:0:0:
256,164,74618,5,0,1:0:0:0:
256,196,74748,1,0,1:0:0:0:
256,228,74879,1,0,1:0:0:0:
256,260,75009,1,0,1:0:0:0:
256,292,75139,1,0,1:0:0:0:
256,324,75270,1,0,1:0:0:0:
256,356,75400,6,0,P|324:364|400:312,1,125,4|2,0:0|0:0,0:0:0:0:
384,280,75792,2,0,P|368:208|396:92,1,187.5,0|2,0:0|0:0,0:0:0:0:
492,20,76444,1,4,0:3:0:0:
500,80,76574,2,0,L|468:228,1,125
484,264,76966,1,8,1:0:0:0:
408,364,77226,1,2,0:0:0:0:
300,300,77487,6,0,P|208:268|100:324,1,187.5,4|0,0:3|0:0,0:0:0:0:
76,336,78009,1,8,1:0:0:0:
20,224,78270,1,0,0:0:0:0:
88,120,78531,2,0,B|164:128|200:88|200:88|256:136,1,187.5,4|2,0:3|0:0,0:0:0:0:
299,169,79052,1,8,1:0:0:0:
314,229,79183,1,0,0:0:0:0:
274,276,79313,1,0,0:0:0:0:
214,254,79444,1,0,0:0:0:0:
169,298,79574,6,0,B|101:307|101:307|17:259,1,125,4|2,0:3|0:0,0:0:0:0:
28,155,80096,1,8,1:0:0:0:
113,63,80357,1,2,0:0:0:0:
185,165,80618,2,0,L|347:165,1,125,4|2,0:3|0:0,0:0:0:0:
373,57,81139,1,8,1:0:0:0:
497,70,81400,1,0,0:0:0:0:
496,196,81661,6,0,L|344:168,1,125,4|0,0:3|0:0,0:0:0:0:
312,184,82052,2,0,L|180:164,1,125,2|2,0:0|0:0,0:0:0:0:
124,176,82444,2,0,L|-8:156,1,125,0|4,0:0|0:3,0:0:0:0:
8,32,82966,5,0,1:0:0:0:
40,40,83096,1,0,1:0:0:0:
72,48,83226,1,0,1:0:0:0:
104,56,83357,1,0,1:0:0:0:
136,64,83487,1,0,1:0:0:0:
168,72,83618,1,0,1:0:0:0:
200,80,83748,5,4,0:3:0:0:
460,100,84270,1,8,1:0:0:0:
504,352,84792,1,4,0:3:0:0:
504,352,85052,5,0,1:0:0:0:
472,344,85183,1,0,1:0:0:0:
440,336,85313,1,0,1:0:0:0:
408,328,85444,1,0,1:0:0:0:
376,320,85574,1,0,1:0:0:0:
344,312,85705,1,0,1:0:0:0:
312,304,85835,5,4,0:3:0:0:
52,100,86357,1,8,1:0:0:0:
8,352,86879,1,4,0:3:0:0:
8,352,87139,5,0,1:0:0:0:
40,344,87270,1,0,1:0:0:0:
72,336,87400,1,0,1:0:0:0:
104,328,87531,1,0,1:0:0:0:
136,320,87661,1,0,1:0:0:0:
168,312,87792,1,0,1:0:0:0:
200,304,87922,5,4,0:3:0:0:
460,284,88444,1,8,1:0:0:0:
504,32,88966,1,4,0:3:0:0:
504,32,89226,5,0,1:0:0:0:
472,40,89357,1,0,1:0:0:0:
440,48,89487,1,0,1:0:0:0:
408,56,89618,1,0,1:0:0:0:
376,64,89748,1,0,1:0:0:0:
344,72,89879,1,0,1:0:0:0:
312,80,90009,5,4,0:3:0:0:
256,292,90270,1,0,0:0:0:0:
200,80,90531,1,4,0:3:0:0:
256,292,90792,1,0,0:0:0:0:
256,42,91052,2,0,L|256:306,1,250,8|8,1:1|1:0,0:0:0:0:
256,356,91705,1,4,0:3:0:0:
256,42,92096,5,8,0:0:0:0:
