osu file format v14

[General]
AudioFilename: Mark Ronson - Uptown Funk (Audio) ft. Bruno Mars.mp3
AudioLeadIn: 0
PreviewTime: 64966
Countdown: 1
SampleSet: Soft
StackLeniency: 0.7
Mode: 0
LetterboxInBreaks: 1
WidescreenStoryboard: 1

[Editor]
Bookmarks: 167471
DistanceSpacing: 1
BeatDivisor: 4
GridSize: 4
TimelineZoom: 1

[Metadata]
Title:Uptown Funk feat. Bruno Mars (Cut Ver.)
TitleUnicode:Uptown Funk feat. Bruno Mars (Cut Ver.)
Artist:Mark Ronson
ArtistUnicode:Mark Ronson
Creator:CDFA
Version:Advanced
Source:
Tags:English Pop Disco Soul Boogie Special Reditum
BeatmapID:1553739
BeatmapSetID:407522

[Difficulty]
HPDrainRate:6
CircleSize:4
OverallDifficulty:6
ApproachRate:7
SliderMultiplier:2
SliderTickRate:1

[Events]
//Background and Video events
0,0,"revy-black-lagoon-1080P-wallpaper.jpg",0,0
Video,-325,"aaaa.mp4"
//Break Periods
2,50557,57805
//Storyboard Layer 0 (Background)
//Storyboard Layer 1 (Fail)
//Storyboard Layer 2 (Pass)
//Storyboard Layer 3 (Foreground)
//Storyboard Layer 4 (Overlay)
//Storyboard Sound Samples

[TimingPoints]
270.370407004557,521.739130434783,4,2,0,58,1,0
67052,-100,4,2,0,58,0,1
92096,-100,4,2,0,58,0,0

[Colours]
Combo1 : 128,0,128
Combo2 : 0,0,255
Combo3 : 0,128,64
Combo4 : 128,0,0

[HitObjects]
48,64,16966,6,0,P|96:48|192:96,1,150,4|2,0:0|0:0,0:0:0:0:
256,216,17748,1,0,0:0:0:0:
256,216,18009,2,0,B|248:256|248:256|268:316|268:316|256:368,2,150,4|2|0,0:3|0:0|0:0,0:0:0:0:
324,144,19052,6,0,P|366:99|462:91,1,150,4|2,0:3|0:0,0:0:0:0:
496,176,19705,1,0,0:0:0:0:
452,200,19835,2,0,L|480:324,1,100,0|4,0:0|0:3,0:0:0:0:
392,352,20357,2,0,L|368:244,1,100,2|0,0:0|1:3,0:0:0:0:
260,88,21139,6,0,P|192:76|140:132,1,150,0|2,0:0|0:0,0:0:0:0:
140,230,21792,1,0,0:0:0:0:
180,204,21922,2,0,L|284:192,1,100,0|4,0:0|0:3,0:0:0:0:
408,268,22574,2,0,L|240:288,1,150,2|0,0:0|0:0,0:0:0:0:
312,200,23226,6,0,L|472:184,2,150,4|2|0,0:3|0:0|0:0,0:0:0:0:
212,208,24270,2,0,P|152:200|104:228,1,100,4|0,0:3|0:0,0:0:0:0:
116,316,24792,2,0,L|76:112,1,200,0|4,1:0|0:3,0:0:0:0:
200,32,25705,6,0,L|240:208,1,150,2|0,0:0|0:0,0:0:0:0:
260,276,26357,2,0,P|312:288|388:216,1,150,4|2,0:3|0:0,0:0:0:0:
420,88,27139,1,0,0:0:0:0:
336,36,27400,6,0,P|248:24|184:92,1,150,4|2,0:3|0:0,0:0:0:0:
148,196,28183,1,0,0:0:0:0:
128,296,28444,2,0,B|180:292|180:292|244:248,2,100,4|0|0,0:3|0:0|1:0,0:0:0:0:
44,116,29487,6,0,P|80:64|192:72,1,150,4|2,0:3|0:0,0:0:0:0:
256,168,30270,1,0,0:0:0:0:
324,96,30531,2,0,B|360:96|360:96|424:128|424:128|472:128,1,150,4|0,0:3|0:0,0:0:0:0:
508,100,31052,1,0,1:0:0:0:
324,20,31574,6,0,L|172:20,1,150,2|0,0:0|0:0,0:0:0:0:
124,20,32096,2,0,B|121:72|121:72|81:112,1,100,0|0,1:0|0:0,0:0:0:0:
12,172,32618,2,0,P|32:268|144:292,1,200,2|0,0:0|1:0,0:0:0:0:
261,157,33661,6,0,P|312:136|368:156,1,100,4|0,0:0|0:0,0:0:0:0:
420,224,34183,1,0,1:0:0:0:
348,292,34444,1,0,0:0:0:0:
252,260,34705,2,0,P|184:252|92:352,1,200,2|2,0:0|1:0,0:0:0:0:
20,152,35748,6,0,B|4:84|4:84|20:4,2,150,4|2|0,0:3|0:0|0:0,0:0:0:0:
91,223,36792,2,0,P|168:228|248:136,1,200,2|0,0:0|1:0,0:0:0:0:
416,36,37835,6,0,B|456:76|456:76|464:132,1,100,2|0,0:0|0:0,0:0:0:0:
464,220,38357,1,0,1:0:0:0:
384,280,38618,1,0,0:0:0:0:
296,232,38879,2,0,P|208:204|124:284,1,200,2|2,0:0|1:0,0:0:0:0:
36,88,39922,6,0,P|80:60|200:80,1,150,4|2,0:3|0:0,0:0:0:0:
304,140,40705,1,0,0:0:0:0:
404,140,40966,2,0,B|404:188|404:188|368:228|368:228|368:284,1,150,4|2,0:3|0:0,0:0:0:0:
240,352,41748,5,0,0:0:0:0:
164,284,42009,2,0,L|164:156,1,100,4|0,0:3|0:0,0:0:0:0:
212,96,42531,1,0,1:0:0:0:
300,48,42792,1,0,0:0:0:0:
324,144,43052,2,0,P|328:200|384:236,1,100,2|0,0:0|0:0,0:0:0:0:
456,216,43574,2,0,L|232:244,1,200,2|4,1:0|0:3,0:0:0:0:
80,148,44618,6,0,L|292:120,1,200,0|0,1:0|0:0,0:0:0:0:
378,121,45400,1,2,0:0:0:0:
432,204,45661,2,0,P|436:256|380:288,1,100,0|0,1:0|0:0,0:0:0:0:
304,276,46183,6,0,P|232:264|192:304,1,100,2|0,0:0|0:0,0:0:0:0:
132,340,46705,1,0,1:0:0:0:
44,288,46966,1,0,0:0:0:0:
116,220,47226,2,0,P|140:148|84:12,1,200,2|2,0:0|1:0,0:0:0:0:
248,172,48270,6,0,P|308:224|400:144,1,200,2|0,0:0|1:0,0:0:0:0:
344,80,49052,1,0,0:0:0:0:
244,96,49313,2,0,B|232:200|232:200|176:296,1,200,8|4,0:3|0:3,0:0:0:0:
80,112,50357,1,4,0:3:0:0:
48,64,58705,6,0,P|104:48|168:72,1,100,8|8,0:0|0:0,0:0:0:0:
220,120,59226,2,0,P|308:156|384:88,1,200,8|8,0:0|0:0,0:0:0:0:
452,24,60009,1,8,0:0:0:0:
496,112,60270,2,0,B|496:168|496:168|472:212,1,100,8|8,0:0|0:0,0:0:0:0:
380,244,60792,6,0,P|316:232|280:256,1,100,8|8,0:0|0:0,0:0:0:0:
212,312,61313,1,8,0:0:0:0:
120,272,61574,1,8,0:0:0:0:
148,176,61835,2,0,P|168:128|156:64,2,100,8|8|8,0:0|0:0|0:0,0:0:0:0:
52,204,62618,1,8,0:0:0:0:
12,112,62879,1,12,0:0:0:0:
256,192,63139,12,14,64966,0:3:0:0:
56,40,66531,6,0,L|64:112,1,50,0|0,1:0|1:0,0:0:0:0:
84,237,67052,6,0,P|132:213|216:257,2,150,4|2|0,0:0|0:0|0:0,0:0:0:0:
60,332,68096,2,0,L|72:116,1,200,4|0,0:3|1:0,0:0:0:0:
147,67,68879,6,0,L|213:15,2,50,0|0|2,0:0|0:0|0:0,0:0:0:0:
213,142,69400,1,0,0:0:0:0:
288,212,69661,2,0,P|340:192|392:216,1,100,0|0,1:0|0:0,0:0:0:0:
400,304,70183,2,0,L|356:84,1,200,2|0,0:0|1:0,0:0:0:0:
342,61,70835,1,0,0:0:0:0:
324,16,70966,1,0,0:0:0:0:
232,56,71226,6,0,B|172:68|172:68|124:44|76:80|92:140,1,200,2|0,0:0|1:0,0:0:0:0:
160,208,72009,1,0,0:0:0:0:
92,284,72270,2,0,P|96:340|140:356,1,100,4|0,0:3|0:0,0:0:0:0:
224,320,72792,2,0,P|288:296|328:308,1,100,0|0,1:0|0:0,0:0:0:0:
416,316,73313,6,0,P|448:252|436:144,2,150,0|2|0,0:0|0:0|0:0,0:0:0:0:
340,252,74357,1,4,0:3:0:0:
244,220,74618,1,0,0:0:0:0:
168,284,74879,2,0,L|128:320,2,50,0|0|0,1:0|0:0|0:0,0:0:0:0:
152,184,75400,6,0,P|124:120|144:28,2,150,4|2|0,0:0|0:0|0:0,0:0:0:0:
242,139,76444,1,4,0:3:0:0:
291,144,76574,2,0,L|347:251,1,100
388,240,76966,2,0,L|280:28,1,200,0|2,1:0|0:0,0:0:0:0:
204,24,77748,5,0,0:0:0:0:
152,108,78009,2,0,P|92:140|48:120,1,100,0|0,1:0|0:0,0:0:0:0:
60,32,78531,2,0,L|12:256,1,200,2|0,0:0|1:0,0:0:0:0:
60,320,79313,1,2,0:0:0:0:
60,320,79444,1,0,0:0:0:0:
60,320,79574,2,0,L|186:314,1,100,0|2,0:0|0:0,0:0:0:0:
233,246,80096,5,0,1:0:0:0:
277,156,80357,1,2,0:0:0:0:
218,75,80618,2,0,P|158:63|130:99,1,100,4|0,0:3|0:0,0:0:0:0:
105,182,81139,1,0,1:0:0:0:
176,368,81661,6,0,L|328:368,2,150,4|2|0,0:3|0:0|0:0,0:0:0:0:
167,267,82705,1,4,0:3:0:0:
132,173,82966,1,0,0:0:0:0:
36,184,83226,2,0,L|-16:216,2,50,0|0|0,1:0|0:0|0:0,0:0:0:0:
84,272,83748,6,0,P|164:276|200:192,2,150,4|2|0,0:3|0:0|0:0,0:0:0:0:
32,188,84792,1,4,0:3:0:0:
83,102,85052,1,2,0:0:0:0:
140,20,85313,1,0,1:1:0:0:
428,112,85835,6,0,P|348:108|312:192,2,150,4|2|0,0:3|0:0|0:0,0:0:0:0:
480,196,86879,1,4,0:3:0:0:
429,282,87139,1,2,0:0:0:0:
372,364,87400,1,0,1:1:0:0:
84,112,87922,6,0,P|164:108|200:192,2,150,4|2|0,0:3|0:0|0:0,0:0:0:0:
32,196,88966,1,4,0:3:0:0:
83,281,89226,1,2,0:0:0:0:
140,364,89487,1,0,1:1:0:0:
196,172,90009,6,0,L|224:272,1,100,0|0,1:0|0:0,0:0:0:0:
316,160,90531,2,0,L|284:48,1,100,0|0,1:2|0:0,0:0:0:0:
116,168,91052,2,0,L|316:160,2,200,0|8|2,1:0|1:2|1:3,0:0:0:0:
