osu file format v14

[General]
AudioFilename: audio.mp3
AudioLeadIn: 0
PreviewTime: 16511
Countdown: 0
SampleSet: Soft
StackLeniency: 0.4
Mode: 0
LetterboxInBreaks: 0
WidescreenStoryboard: 1

[Editor]
Bookmarks: 16780,25147,50245,66977,92075,108807,125546,133923,142300,150677,163243,188506,205348
DistanceSpacing: 0.1
BeatDivisor: 4
GridSize: 32
TimelineZoom: 1

[Metadata]
Title:Hawaiian Roller Coaster Ride
TitleUnicode:Hawaiian Roller Coaster Ride
Artist:Mark Keali'i Ho'omalu & Kamehameha Schools Children's Chorus
ArtistUnicode:Mark Keali'i Ho'omalu & Kamehameha Schools Children's Chorus
Creator:YokesPai
Version:Normal
Source:Lilo & Stitch
Tags:english hawaiian folk country disney alan silvestri clover cup quarter finals qf dt4
BeatmapID:3325575
BeatmapSetID:1525457

[Difficulty]
HPDrainRate:3
CircleSize:3
OverallDifficulty:4
ApproachRate:6
SliderMultiplier:1.6
SliderTickRate:1

[Events]
//Background and Video events
Video,360,"video.mp4"
0,0,"bg.jpg",0,0
//Break Periods
2,108807,124496
2,134123,149627
//Storyboard Layer 0 (Background)
//Storyboard Layer 1 (Fail)
//Storyboard Layer 2 (Pass)
//Storyboard Layer 3 (Foreground)
//Storyboard Layer 4 (Overlay)
//Storyboard Sound Samples

[TimingPoints]
14669,526.315789473684,4,2,0,50,1,0
16781,522.875816993464,4,2,0,50,1,0
66977,-90.9090909090909,4,2,0,50,0,0
119264,523.560209424084,4,2,0,50,1,0
125546,-90.9090909090909,4,2,0,50,0,0
125808,-90.9090909090909,4,2,1,47,0,0
125873,-90.9090909090909,4,2,0,43,0,0
125939,-90.9090909090909,4,2,1,38,0,0
126070,-90.9090909090909,4,2,1,50,0,0
126331,-90.9090909090909,4,2,0,45,0,0
126462,-90.9090909090909,4,2,0,32,0,0
126724,-90.9090909090909,4,2,1,36,0,0
126790,-90.9090909090909,4,2,0,41,0,0
126855,-90.9090909090909,4,2,1,45,0,0
127117,-90.9090909090909,4,2,0,55,0,0
127640,-90.9090909090909,4,2,0,40,0,0
128164,-90.9090909090909,4,2,0,32,0,0
128426,-90.9090909090909,4,2,0,25,0,0
128557,-90.9090909090909,4,2,0,25,0,0
129735,-90.9090909090909,4,2,0,50,0,0
154866,-100,4,2,0,50,0,0
163243,526.315789473684,4,2,0,50,1,0
163243,-90.9090909090909,4,2,0,50,0,0

[Colours]
Combo1 : 242,61,0
Combo2 : 43,149,255
Combo3 : 0,128,192
Combo4 : 255,111,62

[HitObjects]
256,192,14669,5,0,3:0:0:0:
256,192,15195,1,0,3:0:0:0:
256,192,15721,1,0,3:0:0:0:
256,192,16247,1,0,3:0:0:0:
122,279,16781,6,0,B|83:208|120:119|129:129|137:83|118:50,1,200,2|0,1:2|3:2,0:0:0:0:
29,89,17696,2,0,L|34:9,2,80,0|0|0,3:0|3:0|3:0,0:0:0:0:
8,113,18349,1,2,1:2:0:0:
0,289,18872,6,0,B|59:264|133:282|86:294|147:317|195:298,1,200,2|0,1:2|3:2,0:0:0:0:
290,289,19787,2,0,L|281:374,2,80,0|0|0,3:0|3:0|3:0,0:0:0:0:
311,265,20441,1,0,1:0:0:0:
467,346,20964,6,0,B|500:292|490:229|474:235|468:186|495:141,1,200,2|0,1:2|3:2,0:0:0:0:
512,59,21879,2,0,L|394:63,2,80,0|0|0,3:0|3:0|3:0,0:0:0:0:
509,27,22532,1,2,1:2:0:0:
335,50,23055,6,0,B|288:79|224:58|248:46|189:25|133:55,1,200,2|0,1:2|3:2,0:0:0:0:
78,122,23970,2,0,L|0:104,2,80,0|0|0,3:0|3:0|3:0,0:0:0:0:
89,152,24624,1,0,1:0:0:0:
215,276,25147,6,0,P|214:331|247:384,1,120,4|2,3:2|3:2,0:0:0:0:
342,368,25800,1,2,3:2:0:0:
438,377,26062,1,0,3:0:0:0:
455,350,26192,2,0,L|465:222,2,120,4|0|0,3:0|3:0|3:0,0:0:0:0:
361,372,27238,5,4,3:2:0:0:
325,200,27761,1,2,3:2:0:0:
480,115,28284,1,4,3:0:0:0:
486,27,28545,1,2,0:0:0:0:
398,21,28807,1,2,3:2:0:0:
245,108,29330,6,0,P|224:58|138:23,1,120,4|0,3:2|3:0,0:0:0:0:
78,53,29983,1,0,3:0:0:0:
25,133,30245,1,0,3:0:0:0:
14,163,30375,2,0,L|20:286,2,120,4|0|0,3:0|3:0|0:0,0:0:0:0:
109,177,31421,5,4,0:0:0:0:
174,341,31944,1,2,0:0:0:0:
338,276,32467,1,4,3:0:0:0:
409,340,32728,1,2,0:0:0:0:
491,292,32990,1,2,3:2:0:0:
471,198,33251,1,0,3:0:0:0:
377,189,33513,6,0,B|357:148|416:116|396:74,2,120,4|0|0,3:2|0:0|0:0,0:0:0:0:
286,159,34558,2,0,B|306:118|247:86|267:44,2,120,4|0|0,3:0|3:0|3:0,0:0:0:0:
194,132,35604,2,0,B|174:173|233:205|213:247,2,120,4|2|0,3:2|0:0|3:0,0:0:0:0:
103,162,36650,1,4,3:0:0:0:
89,67,36911,1,2,0:0:0:0:
5,20,37173,1,2,3:2:0:0:
26,194,37696,6,0,P|28:262|21:309,1,80,4|0,3:2|3:0,0:0:0:0:
16,304,38088,1,0,3:0:0:0:
1,332,38218,2,0,P|48:340|103:341,1,80,2|0,3:2|3:0,0:0:0:0:
175,334,38741,1,0,0:0:0:0:
260,179,39264,1,2,3:2:0:0:
194,109,39526,1,0,3:0:0:0:
245,28,39787,6,0,P|295:20|337:22,1,80,4|0,3:2|3:0,0:0:0:0:
356,26,40179,1,0,3:0:0:0:
386,15,40310,2,0,P|381:85|387:130,1,80,2|0,3:2|0:0,0:0:0:0:
458,153,40833,1,0,0:0:0:0:
490,326,41356,1,2,3:2:0:0:
414,384,41617,1,0,3:0:0:0:
373,297,41879,5,4,3:2:0:0:
209,236,42401,2,0,L|218:329,1,80,2|0,3:2|0:0,0:0:0:0:
127,351,42924,2,0,L|118:258,1,80,4|0,3:0|0:0,0:0:0:0:
29,239,43447,1,2,3:2:0:0:
3,146,43709,1,0,3:0:0:0:
95,120,43970,6,0,L|89:34,1,80,4|0,3:2|3:0,0:0:0:0:
182,15,44493,2,0,L|187:94,1,80,2|0,3:2|0:0,0:0:0:0:
245,172,45016,2,0,P|313:175|406:196,2,160,4|2|4,3:0|3:2|3:2,0:0:0:0:
278,82,46323,2,0,L|281:40,1,40,0|0,3:0|3:0,0:0:0:0:
370,5,46715,1,0,3:0:0:0:
453,54,46977,2,0,L|458:151,2,80,0|0|0,3:0|3:0|3:0,0:0:0:0:
469,26,47630,1,2,3:2:0:0:
512,213,48153,6,0,L|504:345,1,120,4|0,3:2|3:0,0:0:0:0:
418,375,48807,1,0,3:0:0:0:
346,312,49068,2,0,L|264:301,2,80,0|0|0,3:0|3:0|3:0,0:0:0:0:
369,289,49722,1,2,3:2:0:0:
279,138,50245,6,0,P|271:78|275:24,1,80,4|0,3:2|3:0,0:0:0:0:
281,28,50637,1,0,3:0:0:0:
250,20,50767,2,0,P|202:19|164:23,1,80,2|0,0:0|3:0,0:0:0:0:
97,84,51290,1,0,0:0:0:0:
9,237,51813,1,2,3:2:0:0:
101,264,52075,1,0,3:0:0:0:
65,353,52336,6,0,P|130:363|181:363,1,80,4|0,3:2|3:0,0:0:0:0:
176,359,52728,1,0,0:0:0:0:
206,348,52859,2,0,P|251:341|299:340,1,80,2|0,3:2|3:0,0:0:0:0:
381,346,53382,1,0,0:0:0:0:
268,190,53905,1,2,3:2:0:0:
317,108,54166,1,0,3:0:0:0:
283,18,54428,6,0,P|342:10|398:8,1,80,4|0,3:2|0:0,0:0:0:0:
446,55,54950,2,0,P|451:112|459:147,1,80,2|0,3:2|0:0,0:0:0:0:
476,159,55343,2,0,L|490:223,1,40,2|4,3:2|3:0,0:0:0:0:
506,284,55735,2,0,L|502:339,2,40,0|2|2,0:0|3:2|3:2,0:0:0:0:
328,358,56519,6,0,P|279:347|199:346,1,120,2|0,1:2|0:0,0:0:0:0:
181,360,57042,1,2,3:2:0:0:
87,379,57303,2,0,B|71:337|82:285|93:307|102:253|74:204,1,160,2|0,3:2|0:0,0:0:0:0:
0,171,58088,1,2,3:2:0:0:
101,27,58611,5,4,3:2:0:0:
178,84,58872,1,0,3:0:0:0:
241,12,59133,1,2,3:2:0:0:
297,90,59395,2,0,L|289:151,2,40,0|0|4,3:0|0:0|3:0,0:0:0:0:
365,22,59918,2,0,L|404:23,2,40,0|0|2,3:0|3:0|3:2,0:0:0:0:
487,98,60571,6,0,P|496:162|493:246,1,120,2|0,3:2|3:0,0:0:0:0:
470,310,61225,1,2,3:2:0:0:
389,361,61486,2,0,B|351:381|303:355|322:356|285:333|234:360,1,160,0|0,3:0|3:0,0:0:0:0:
142,384,62271,1,2,3:2:0:0:
135,353,62401,1,2,3:2:0:0:
26,258,62794,6,0,L|53:157,1,80,4|0,3:2|3:0,0:0:0:0:
78,174,63186,2,0,L|51:73,1,80,0|0,3:0|3:0,0:0:0:0:
33,75,63578,1,0,3:0:0:0:
93,0,63839,1,4,3:0:0:0:
160,69,64101,1,0,3:0:0:0:
252,41,64362,1,2,3:2:0:0:
343,72,64624,1,0,3:0:0:0:
256,192,64885,12,2,66454,0:0:0:0:
343,72,66977,6,0,P|396:8|467:28,1,132.00000402832,4|0,3:2|3:0,0:0:0:0:
509,76,67630,1,0,3:0:0:0:
485,170,67892,1,0,3:0:0:0:
503,195,68022,2,0,P|515:253|510:337,2,132.00000402832,4|0|0,3:0|3:0|3:0,0:0:0:0:
404,232,69068,6,0,L|391:295,1,44.0000013427735,4|0,3:0|3:0,0:0:0:0:
303,305,69460,2,0,L|294:348,1,44.0000013427735,0|2,3:0|0:0,0:0:0:0:
188,348,69852,1,0,3:0:0:0:
109,278,70113,1,2,3:2:0:0:
209,245,70375,1,4,3:0:0:0:
176,145,70637,1,4,3:0:0:0:
3,116,71160,6,0,P|11:48|68:2,1,132.00000402832,4|0,3:2|3:0,0:0:0:0:
86,2,71682,1,2,0:0:0:0:
164,59,71944,1,0,3:0:0:0:
256,15,72205,2,0,L|264:125,1,88.000002685547,4|0,3:0|3:0,0:0:0:0:
346,152,72728,1,2,0:0:0:0:
161,211,73251,6,0,L|157:265,1,44.0000013427735,4|0,3:2|3:0,0:0:0:0:
239,308,73643,2,0,L|243:362,1,44.0000013427735,0|2,3:0|0:2,0:0:0:0:
337,374,74035,1,0,3:0:0:0:
434,383,74297,1,4,3:0:0:0:
478,287,74558,1,0,3:0:0:0:
440,188,74820,1,2,0:0:0:0:
484,92,75081,1,0,3:0:0:0:
428,13,75343,6,0,P|364:27|288:27,2,132.00000402832,4|0|0,3:2|3:0|0:0,0:0:0:0:
394,113,76388,2,0,P|359:167|304:221,2,132.00000402832,4|0|0,3:0|3:0|3:0,0:0:0:0:
325,45,77434,1,4,3:2:0:0:
195,109,77826,1,2,0:2:0:0:
94,4,78218,1,2,0:2:0:0:
16,62,78480,1,4,3:0:0:0:
77,137,78741,1,2,0:0:0:0:
2,198,79003,1,2,0:0:0:0:
54,384,79526,6,0,P|114:371|155:342,2,88.000002685547,4|0|2,3:2|3:0|3:2,0:0:0:0:
88,281,80310,2,0,L|93:227,2,44.0000013427735,0|0|4,3:0|3:0|3:0,0:0:0:0:
185,279,80833,2,0,L|190:225,2,44.0000013427735,0|2|2,3:0|0:0|0:0,0:0:0:0:
294,375,81486,6,0,P|327:325|392:284,1,132.00000402832,0|0,3:0|3:0,0:0:0:0:
481,308,82140,2,0,B|467:247|484:270|471:216,1,88.000002685547,2|0,0:0|3:0,0:0:0:0:
450,199,82532,1,0,3:0:0:0:
498,114,82794,2,0,L|509:65,1,44.0000013427735,0|0,3:0|3:0,0:0:0:0:
494,51,83055,2,0,L|439:55,2,44.0000013427735,0|2|0,3:0|0:0|3:0,0:0:0:0:
356,5,83709,5,4,3:2:0:0:
356,5,83970,2,0,P|341:47|286:86,1,88.000002685547,0|2,3:0|3:2,0:0:0:0:
226,30,84493,1,2,0:0:0:0:
154,107,84754,2,0,B|29:77|147:90|-9:52,2,132.00000402832,4|2|0,3:0|0:0|0:0,0:0:0:0:
237,158,85800,5,4,3:2:0:0:
152,204,86062,1,0,0:0:0:0:
86,134,86323,1,2,3:2:0:0:
1,180,86585,1,2,3:2:0:0:
12,276,86846,2,0,B|50:322|107:311|83:300|141:290|183:333,2,176.000005371094,4|2|4,3:0|3:2|3:2,0:0:0:0:
78,162,88284,6,0,P|133:156|192:135,1,88.000002685547,0|0,3:0|3:0,0:0:0:0:
224,76,88807,2,0,P|254:122|253:164,2,88.000002685547,0|0|0,3:0|3:0|3:0,0:0:0:0:
196,63,89460,1,2,1:2:0:0:
364,18,89983,6,0,P|367:60|388:103,1,88.000002685547,4|0,3:2|3:0,0:0:0:0:
411,120,90375,2,0,P|426:156|431:206,1,88.000002685547,0|0,3:0|3:0,0:0:0:0:
412,299,90898,2,0,P|461:303|500:319,2,88.000002685547,0|0|0,3:0|3:0|3:0,0:0:0:0:
383,310,91552,1,2,1:2:0:0:
222,383,92075,6,0,L|214:271,1,88.000002685547,4|2,3:2|0:0,0:0:0:0:
123,264,92597,1,2,3:2:0:0:
38,310,92859,1,2,0:0:0:0:
2,220,93120,2,0,L|5:168,1,44.0000013427735,4|0,3:0|3:0,0:0:0:0:
23,154,93382,2,0,P|55:139|72:135,2,44.0000013427735,0|0|2,3:0|3:0|1:2,0:0:0:0:
125,0,94166,6,0,P|183:16|247:20,1,88.000002685547,4|0,3:2|0:0,0:0:0:0:
241,13,94558,2,0,L|293:2,1,44.0000013427735,2|2,0:0|3:2,0:0:0:0:
350,74,94950,1,2,0:0:0:0:
377,59,95081,2,0,P|426:56|469:60,1,88.000002685547,2|0,0:0|3:0,0:0:0:0:
490,78,95473,2,0,L|494:125,2,44.0000013427735,0|0|2,3:0|3:0|1:2,0:0:0:0:
506,272,96258,5,4,3:2:0:0:
452,352,96519,1,0,3:0:0:0:
365,310,96780,1,2,3:2:0:0:
270,331,97042,1,2,3:2:0:0:
189,384,97303,1,4,3:0:0:0:
135,304,97564,1,0,3:0:0:0:
48,346,97825,1,2,3:2:0:0:
25,154,98349,5,4,3:2:0:0:
104,98,98611,1,0,3:2:0:0:
147,11,98872,1,2,3:2:0:0:
215,80,99133,1,2,3:2:0:0:
263,164,99395,1,4,3:0:0:0:
342,108,99657,1,0,3:0:0:0:
385,21,99918,1,2,3:2:0:0:
512,168,100441,6,0,P|505:220|502:266,2,88.000002685547,4|0|2,3:2|3:0|0:0,0:0:0:0:
412,176,101225,1,0,3:0:0:0:
404,206,101356,2,0,P|400:256|404:299,1,88.000002685547,0|0,3:0|3:0,0:0:0:0:
325,357,101879,1,0,3:0:0:0:
309,330,102010,2,0,P|292:282|284:240,1,88.000002685547,2|0,0:0|3:0,0:0:0:0:
197,197,102532,5,4,3:2:0:0:
259,122,102794,2,0,L|268:73,2,44.0000013427735,0|2|2,3:0|0:0|0:0,0:0:0:0:
172,80,103316,2,0,L|165:22,1,44.0000013427735,0|0,3:0|3:0,0:0:0:0:
75,4,103709,2,0,L|67:47,1,44.0000013427735,0|0,3:0|3:0,0:0:0:0:
45,69,103970,1,0,3:0:0:0:
15,77,104101,2,0,P|5:125|3:178,1,88.000002685547,2|0,0:0|3:0,0:0:0:0:
34,256,104624,6,0,L|30:350,2,88.000002685547,4|0|2,3:2|3:0|0:0,0:0:0:0:
126,225,105408,1,0,3:0:0:0:
154,238,105539,2,0,P|167:291|171:330,1,88.000002685547,2|0,0:0|3:0,0:0:0:0:
252,377,106062,2,0,L|301:367,1,44.0000013427735,0|2,3:0|0:0,0:0:0:0:
386,338,106454,1,0,3:0:0:0:
406,361,106584,1,0,3:0:0:0:
256,192,106715,12,2,108284,0:0:0:0:
406,361,125546,6,2,B|548:349|524:169|344:146|156:336,1,528.000016113282,2|2,0:0|0:0,0:1:0:0:
82,155,127640,2,2,B|-60:143|-36:-37|144:-60|332:130,1,528.000016113282,2|2,0:0|0:0,0:1:0:0:
496,228,129735,2,0,B|489:350|510:241|504:362,2,132.00000402832,2|0|0,0:0|0:0|0:0,0:0:0:0:
410,184,130782,2,0,B|395:41|423:147|408:-2,1,176.000005371094,2|2,0:0|0:0,0:0:0:0:
303,171,131829,2,0,B|445:183|421:363|241:386|53:196,1,528.000016113282,2|2,0:0|3:2,0:0:0:0:
0,0,133923,1,4,3:2:0:0:
0,0,150677,6,0,B|49:60|39:143|25:98|16:174|49:213,1,220.000006713867,4|0,3:2|3:0,0:0:0:0:
128,259,151593,2,0,L|119:362,2,88.000002685547,0|0|0,3:0|3:0|3:0,0:0:0:0:
151,238,152248,1,2,3:2:0:0:
301,361,152771,6,0,B|350:301|340:218|326:263|317:187|350:148,1,220.000006713867,4|0,3:2|3:0,0:0:0:0:
429,102,153687,2,0,L|420:-1,2,88.000002685547,0|0|0,3:0|3:0|3:0,0:0:0:0:
452,123,154342,1,2,3:2:0:0:
510,201,154604,1,0,3:0:0:0:
490,295,154866,6,0,B|414:309|437:286|358:297,1,120,4|0,3:2|3:0,0:0:0:0:
298,358,155520,1,0,3:0:0:0:
214,311,155782,2,0,L|220:226,2,80,0|0|0,3:0|3:0|3:0,0:0:0:0:
194,336,156436,1,2,3:2:0:0:
57,226,156960,6,0,B|41:148|18:185|2:91,1,120,4|0,3:2|3:0,0:0:0:0:
53,33,157614,1,0,3:0:0:0:
144,65,157876,2,0,L|169:168,2,80,0|0|0,3:0|3:0|3:0,0:0:0:0:
158,36,158531,1,2,3:2:0:0:
252,16,158792,1,0,0:0:0:0:
331,70,159054,6,0,P|395:57|419:44,1,80,4|0,3:2|3:0,0:0:0:0:
430,27,159447,2,0,P|451:60|460:114,1,80,0|0,3:0|3:0,0:0:0:0:
441,194,159970,2,0,L|447:281,2,80,0|0|0,3:0|3:0|3:0,0:0:0:0:
410,185,160625,1,2,3:2:0:0:
311,330,161148,5,4,3:2:0:0:
282,316,161279,1,0,3:0:0:0:
265,289,161410,2,0,L|260:232,1,40,0|0,3:0|3:0,0:0:0:0:
182,194,161803,1,0,3:0:0:0:
239,117,162065,2,0,L|245:32,2,80,0|0|0,3:0|3:0|3:0,0:0:0:0:
210,103,162719,1,2,3:2:0:0:
22,62,163243,6,0,P|0:133|57:199,1,132.00000402832,4|0,3:2|3:0,0:0:0:0:
121,198,163900,1,0,3:0:0:0:
79,286,164164,1,0,3:0:0:0:
86,316,164295,2,0,P|148:332|245:346,2,132.00000402832,4|0|0,3:0|3:0|3:0,0:0:0:0:
151,232,165348,6,0,L|203:204,1,44.0000013427735,4|0,3:0|3:0,0:0:0:0:
270,266,165743,2,0,L|303:232,1,44.0000013427735,0|2,3:0|0:0,0:0:0:0:
393,264,166137,1,0,3:0:0:0:
488,280,166400,1,4,3:0:0:0:
483,174,166664,1,0,3:0:0:0:
511,72,166927,1,2,3:2:0:0:
330,4,167453,6,0,P|314:49|230:72,1,132.00000402832,4|0,3:2|3:0,0:0:0:0:
161,17,168111,1,0,3:0:0:0:
82,73,168374,1,0,3:0:0:0:
56,56,168506,2,0,P|39:126|34:201,2,132.00000402832,4|0|0,3:0|3:0|3:0,0:0:0:0:
142,110,169558,6,0,L|148:158,1,44.0000013427735,4|0,3:2|3:0,0:0:0:0:
240,182,169953,2,0,L|234:230,1,44.0000013427735,0|2,3:0|0:0,0:0:0:0:
294,302,170348,1,0,3:0:0:0:
214,356,170611,1,4,3:0:0:0:
123,303,170874,1,0,3:0:0:0:
32,250,171137,1,2,0:0:0:0:
14,146,171400,1,0,3:0:0:0:
11,49,171664,6,0,P|87:44|174:20,2,132.00000402832,4|0|0,3:2|3:0|3:0,0:0:0:0:
66,139,172716,2,0,P|131:179|216:208,2,132.00000402832,4|0|0,3:0|3:0|3:0,0:0:0:0:
123,60,173769,1,4,3:2:0:0:
265,91,174164,1,2,0:2:0:0:
384,8,174558,1,2,0:2:0:0:
470,53,174821,1,4,3:0:0:0:
416,134,175085,1,0,0:0:0:0:
502,179,175348,1,2,0:0:0:0:
440,363,175874,6,0,P|395:369|334:372,1,88.000002685547,4|0,3:2|3:0,0:0:0:0:
323,363,176269,1,0,3:0:0:0:
307,337,176400,1,2,3:2:0:0:
246,262,176664,1,0,3:0:0:0:
234,234,176795,2,0,P|240:157|248:133,2,88.000002685547,0|0|2,3:0|3:0|0:0,0:0:0:0:
217,260,177453,1,2,0:0:0:0:
48,355,177979,6,0,P|7:307|1:273,1,88.000002685547,4|0,3:2|3:0,0:0:0:0:
69,214,178506,2,0,P|62:151|77:119,1,88.000002685547,2|0,0:0|3:0,0:0:0:0:
93,107,178900,1,0,3:0:0:0:
186,78,179164,2,0,L|194:26,1,44.0000013427735,0|0,0:0|3:0,0:0:0:0:
288,17,179558,1,2,0:0:0:0:
470,82,180085,5,4,3:2:0:0:
470,82,180611,2,0,P|478:135|481:194,1,88.000002685547,2|0,3:2|0:0,0:0:0:0:
395,214,181137,2,0,L|389:305,2,88.000002685547,4|0|2,3:0|0:0|3:2,0:0:0:0:
309,168,181927,1,0,0:0:0:0:
234,107,182190,6,0,P|212:62|208:19,1,88.000002685547,4|0,3:2|0:0,0:0:0:0:
123,71,182716,2,0,P|79:46|51:13,1,88.000002685547,2|2,3:2|3:2,0:0:0:0:
2,100,183243,2,0,P|26:160|28:280,2,176.000005371094,4|2|4,3:0|3:2|3:2,0:0:0:0:
147,110,184690,6,0,P|149:170|145:216,1,88.000002685547,0|0,3:0|3:0,0:0:0:0:
117,290,185216,2,0,P|159:306|212:290,2,88.000002685547,0|0|0,3:0|3:0|3:0,0:0:0:0:
95,268,185874,1,2,1:2:0:0:
286,235,186400,6,0,P|339:219|384:230,1,88.000002685547,4|0,3:2|3:0,0:0:0:0:
391,247,186795,2,0,P|444:263|489:252,1,88.000002685547,0|0,3:0|3:0,0:0:0:0:
507,166,187321,2,0,L|510:74,2,88.000002685547,0|0|0,3:0|3:0|3:0,0:0:0:0:
478,177,187979,1,2,1:2:0:0:
378,10,188506,6,0,L|266:7,1,88.000002685547,4|0,3:2|0:0,0:0:0:0:
262,20,188900,1,2,0:0:0:0:
234,33,189032,1,2,3:2:0:0:
90,19,189427,2,0,P|105:89|104:114,2,88.000002685547,2|0|0,0:0|3:0|3:0,0:0:0:0:
62,6,190085,1,2,1:2:0:0:
1,189,190611,6,0,P|67:203|115:200,1,88.000002685547,4|0,3:2|0:0,0:0:0:0:
177,166,191137,1,2,3:2:0:0:
272,183,191400,1,2,0:0:0:0:
285,155,191532,2,0,P|335:142|435:138,1,132.00000402832,2|0,0:0|3:0,0:0:0:0:
500,184,192190,1,2,1:2:0:0:
469,375,192716,5,4,3:2:0:0:
373,383,192979,1,0,3:0:0:0:
334,294,193243,1,2,3:2:0:0:
238,280,193506,2,0,L|183:273,2,44.0000013427735,2|0|4,3:2|3:0|3:0,0:0:0:0:
202,370,194032,2,0,L|147:363,2,44.0000013427735,0|0|2,3:0|3:0|3:2,0:0:0:0:
10,339,194821,6,0,P|17:295|13:232,1,88.000002685547,2|2,1:2|3:2,0:0:0:0:
3,219,195216,1,0,3:0:0:0:
14,190,195348,1,2,3:2:0:0:
73,113,195611,1,2,3:2:0:0:
62,84,195743,2,0,P|38:47|5:16,2,88.000002685547,0|0|0,3:0|3:0|3:0,0:0:0:0:
92,90,196400,1,2,3:2:0:0:
267,8,196927,5,4,3:2:0:0:
349,60,197190,1,0,3:0:0:0:
444,41,197453,1,2,0:0:0:0:
499,121,197716,1,0,3:0:0:0:
448,203,197979,1,4,3:0:0:0:
499,286,198243,1,0,3:0:0:0:
429,353,198506,1,2,0:0:0:0:
311,268,198900,6,0,P|238:272|188:298,1,88.000002685547,0|0,3:0|3:0,0:0:0:0:
199,294,199295,1,0,3:0:0:0:
138,369,199558,2,0,L|35:388,1,88.000002685547,2|0,0:0|3:0,0:0:0:0:
24,371,199953,2,0,L|43:268,1,88.000002685547,0|0,3:0|3:0,0:0:0:0:
46,254,200348,1,0,3:0:0:0:
131,208,200611,1,2,0:0:0:0:
191,24,201137,6,0,L|316:6,1,88.000002685547,4|0,3:2|3:0,0:0:0:0:
294,38,201532,2,0,L|419:56,1,88.000002685547,2|2,0:0|0:2,0:0:0:0:
425,30,201927,1,0,3:0:0:0:
504,100,202190,1,4,3:0:0:0:
435,180,202453,1,0,3:0:0:0:
340,135,202716,1,2,0:0:0:0:
253,195,202979,1,0,3:0:0:0:
246,225,203111,1,0,3:0:0:0:
256,192,203243,12,0,204821,0:0:0:0:
