osu file format v14

[General]
AudioFilename: audio.mp3
AudioLeadIn: 0
PreviewTime: 16511
Countdown: 0
SampleSet: Soft
StackLeniency: 0.4
Mode: 0
LetterboxInBreaks: 0
WidescreenStoryboard: 1

[Editor]
Bookmarks: 16780,25147,50245,66977,92075,108807,125546,133923,142300,150677,163243,188506,205348
DistanceSpacing: 0.1
BeatDivisor: 6
GridSize: 32
TimelineZoom: 1

[Metadata]
Title:Hawaiian Roller Coaster Ride
TitleUnicode:Hawaiian Roller Coaster Ride
Artist:Mark Keali'i Ho'omalu & Kamehameha Schools Children's Chorus
ArtistUnicode:Mark Keali'i Ho'omalu & Kamehameha Schools Children's Chorus
Creator:YokesPai
Version:Hard
Source:Lilo & Stitch
Tags:english hawaiian folk country disney alan silvestri clover cup quarter finals qf dt4
BeatmapID:3318940
BeatmapSetID:1525457

[Difficulty]
HPDrainRate:5
CircleSize:3.8
OverallDifficulty:6.4
ApproachRate:7.2
SliderMultiplier:1.6
SliderTickRate:1

[Events]
//Background and Video events
Video,360,"video.mp4"
0,0,"bg.jpg",0,0
//Break Periods
2,108807,124676
2,134123,149807
//Storyboard Layer 0 (Background)
//Storyboard Layer 1 (Fail)
//Storyboard Layer 2 (Pass)
//Storyboard Layer 3 (Foreground)
//Storyboard Layer 4 (Overlay)
//Storyboard Sound Samples

[TimingPoints]
14669,526.315789473684,4,2,0,50,1,0
16781,522.875816993464,4,2,0,50,1,0
66977,-83.3333333333333,4,2,0,50,0,0
87892,-100,4,2,0,50,0,0
92075,-83.3333333333333,4,2,0,50,0,0
119264,523.560209424084,4,2,0,50,1,0
125546,-83.3333333333333,4,2,0,50,0,0
125808,-83.3333333333333,4,2,1,47,0,0
125873,-83.3333333333333,4,2,0,43,0,0
125939,-83.3333333333333,4,2,1,38,0,0
126070,-83.3333333333333,4,2,1,50,0,0
126331,-83.3333333333333,4,2,0,45,0,0
126462,-100,4,2,0,32,0,0
126724,-100,4,2,1,36,0,0
126790,-100,4,2,0,41,0,0
126855,-100,4,2,1,45,0,0
127117,-100,4,2,0,55,0,0
127378,-100,4,2,0,47,0,0
127640,-83.3333333333333,4,2,0,40,0,0
128164,-83.3333333333333,4,2,0,32,0,0
128426,-83.3333333333333,4,2,0,25,0,0
128557,-100,4,2,0,25,0,0
129473,-100,4,2,0,50,0,0
129735,-83.3333333333333,4,2,0,50,0,0
130520,-100,4,2,0,50,0,0
130782,-83.3333333333333,4,2,0,50,0,0
131305,-100,4,2,0,50,0,0
131829,-83.3333333333333,4,2,0,50,0,0
142300,-100,4,2,0,50,0,0
150677,-83.3333333333333,4,2,0,50,0,0
154866,-100,4,2,0,50,0,0
163243,526.315789473684,4,2,0,50,1,0
163243,-83.3333333333333,4,2,0,50,0,0
184295,-100,4,2,0,50,0,0
188506,-83.3333333333333,4,2,0,50,0,0
200743,-100,4,2,0,50,0,0
201137,-83.3333333333333,4,2,0,50,0,0
201532,-71.4285714285714,4,2,0,50,0,0
201927,-83.3333333333333,4,2,0,50,0,0

[Colours]
Combo1 : 242,61,0
Combo2 : 43,149,255
Combo3 : 0,128,192
Combo4 : 255,111,62

[HitObjects]
173,17,14669,21,0,3:0:0:0:
173,17,15195,1,0,3:0:0:0:
173,17,15721,1,0,3:0:0:0:
173,17,16247,1,0,3:0:0:0:
173,17,16781,38,0,L|167:117,1,80,2|2,1:2|1:2,0:0:0:0:
89,127,17173,2,0,L|95:227,1,80,0|0,3:0|3:0,0:0:0:0:
169,327,17696,1,0,3:0:0:0:
16,242,17957,1,0,3:0:0:0:
92,365,18218,1,0,3:0:0:0:
92,365,18349,1,2,1:2:0:0:
179,224,18611,1,0,3:0:0:0:
256,335,18872,6,0,L|262:380,1,40,2|0,1:2|3:0,0:0:0:0:
276,384,19133,1,0,3:0:0:0:
289,378,19264,1,0,3:0:0:0:
299,258,19526,2,0,P|336:249|388:257,1,80,0|0,3:0|3:0,0:0:0:0:
512,384,20048,2,0,L|509:293,1,80,0|0,3:0|3:0,0:0:0:0:
512,291,20441,1,0,1:0:0:0:
391,249,20702,1,0,3:0:0:0:
511,104,20964,6,0,P|503:45|486:13,1,80,2|0,1:2|0:0,0:0:0:0:
481,18,21356,1,0,3:0:0:0:
380,126,21617,1,0,3:0:0:0:
317,29,21879,2,0,P|302:83|289:104,1,80,0|0,3:0|3:0,0:0:0:0:
277,110,22271,1,0,3:0:0:0:
264,112,22401,1,0,3:0:0:0:
250,110,22532,1,2,1:2:0:0:
217,20,22794,1,0,3:0:0:0:
103,45,23055,6,0,L|110:92,1,40,2|0,1:2|3:0,0:0:0:0:
117,97,23316,1,0,3:0:0:0:
117,109,23447,1,0,3:0:0:0:
21,66,23709,1,0,3:0:0:0:
60,180,23970,1,0,3:0:0:0:
195,157,24231,2,0,P|204:203|203:246,1,80,0|0,3:0|3:0,0:0:0:0:
141,294,24624,2,0,L|16:303,1,120,0|0,1:0|0:0,0:0:0:0:
12,317,25147,6,0,P|21:362|64:384,1,80,4|0,3:2|0:0,0:0:0:0:
60,381,25539,1,2,3:2:0:0:
135,281,25800,1,2,3:2:0:0:
225,365,26062,1,0,3:0:0:0:
239,373,26192,2,0,L|234:283,1,80,4|0,3:0|3:0,0:0:0:0:
317,273,26584,2,0,L|324:147,1,120,0|0,3:0|0:0,0:0:0:0:
313,143,27107,1,0,3:0:0:0:
283,117,27238,5,4,3:2:0:0:
280,100,27369,1,0,3:0:0:0:
371,24,27630,1,0,3:0:0:0:
384,34,27761,2,0,L|392:119,1,80,2|0,3:2|3:0,0:0:0:0:
489,224,28284,2,0,L|496:144,1,80,4|0,3:0|0:0,0:0:0:0:
512,0,28807,1,2,3:2:0:0:
336,384,29330,6,0,P|318:330|291:276,1,80,4|0,3:2|0:0,0:0:0:0:
294,302,29722,1,0,3:0:0:0:
189,224,29983,2,0,P|151:266|117:316,1,80,0|0,3:0|3:0,0:0:0:0:
138,301,30375,1,4,3:0:0:0:
18,371,30637,1,0,3:0:0:0:
5,362,30767,2,0,B|-1:314|12:263|26:280|61:230|34:162,1,200,0|4,3:0|0:0,0:0:0:0:
24,161,31552,5,0,3:0:0:0:
0,27,31813,1,0,3:0:0:0:
7,13,31944,2,0,P|44:0|78:0,1,40,2|0,3:2|0:0,0:0:0:0:
126,15,32205,1,0,3:0:0:0:
117,144,32467,1,4,3:0:0:0:
206,32,32728,1,0,0:0:0:0:
301,99,32990,1,2,3:2:0:0:
377,12,33251,1,0,3:0:0:0:
490,39,33513,6,0,B|504:62|504:62|515:111|509:163,1,120,4|0,3:2|0:0,0:0:0:0:
505,170,34035,1,2,3:2:0:0:
407,114,34297,1,0,3:0:0:0:
407,114,34558,2,0,B|393:137|393:137|382:186|388:238,1,120,4|0,3:0|3:0,0:0:0:0:
394,244,35081,1,2,0:0:0:0:
490,189,35343,1,0,3:0:0:0:
490,189,35604,2,0,B|504:212|504:212|515:261|509:313,2,120,4|2|0,3:2|0:0|3:0,0:0:0:0:
401,243,36650,2,0,B|406:286|395:335|395:335|381:358,1,120,4|2,3:0|0:0,0:0:0:0:
367,365,37173,1,2,3:2:0:0:
170,199,37696,5,4,3:2:0:0:
114,345,37957,1,0,3:0:0:0:
119,356,38088,1,0,3:0:0:0:
89,383,38218,1,2,3:2:0:0:
3,243,38480,2,0,L|-1:182,1,40,0|0,3:0|3:0,0:0:0:0:
165,192,38872,1,0,3:0:0:0:
165,192,39133,2,0,L|169:131,1,40,0|2,3:0|3:2,0:0:0:0:
8,66,39526,1,0,3:0:0:0:
8,66,39787,6,0,P|72:57|100:44,1,80,4|0,3:2|3:0,0:0:0:0:
238,102,40310,2,0,P|302:111|330:124,1,80,2|0,3:2|0:0,0:0:0:0:
325,130,40702,1,0,3:0:0:0:
453,51,40964,2,0,L|448:3,1,40,0|0,3:0|3:0,0:0:0:0:
339,141,41356,2,0,L|334:180,1,40,2|0,3:2|0:0,0:0:0:0:
419,185,41617,1,0,3:0:0:0:
423,200,41748,1,0,3:0:0:0:
427,215,41879,1,4,3:2:0:0:
413,361,42401,6,0,P|378:328|336:312,1,80,2|0,3:2|0:0,0:0:0:0:
226,290,42924,2,0,L|216:370,2,80,4|0|2,3:0|0:0|3:2,0:0:0:0:
309,226,43709,1,0,3:0:0:0:
215,301,43970,6,0,L|129:311,1,80,4|0,3:2|3:0,0:0:0:0:
13,339,44493,1,2,3:2:0:0:
15,219,44754,1,2,0:0:0:0:
119,153,45016,2,0,P|80:84|118:19,2,160,4|2|4,3:0|3:2|3:2,0:0:0:0:
209,82,46323,6,0,L|203:34,1,40,0|0,3:0|3:0,0:0:0:0:
308,126,46715,1,0,3:0:0:0:
187,224,46977,1,0,3:0:0:0:
314,145,47238,1,0,3:0:0:0:
261,267,47499,1,0,3:0:0:0:
256,282,47630,2,0,P|308:296|342:300,1,80,2|0,3:2|3:0,0:0:0:0:
475,360,48153,6,0,L|480:307,1,40,4|0,3:2|3:0,0:0:0:0:
488,307,48414,1,0,3:0:0:0:
503,303,48545,1,0,3:0:0:0:
385,255,48807,1,0,3:0:0:0:
478,167,49068,1,0,3:0:0:0:
478,167,49330,2,0,L|480:117,1,40,0|0,3:0|0:0,0:0:0:0:
405,90,49591,1,0,3:0:0:0:
391,82,49722,1,2,3:2:0:0:
490,20,49983,1,0,3:0:0:0:
331,18,50245,5,4,3:2:0:0:
336,153,50506,1,0,3:0:0:0:
333,168,50637,1,0,3:0:0:0:
350,204,50767,1,2,0:0:0:0:
259,95,51029,2,0,L|252:39,1,40,0|0,3:0|3:0,0:0:0:0:
190,187,51421,1,0,3:0:0:0:
172,55,51682,2,0,L|167:15,1,40,0|2,3:0|3:2,0:0:0:0:
32,19,52075,1,0,3:0:0:0:
71,153,52336,6,0,P|27:190|8:246,2,80,4|0|2,3:2|3:0|3:2,0:0:0:0:
219,291,53120,1,0,3:0:0:0:
191,262,53251,2,0,P|154:245|111:249,1,80,0|0,3:0|3:0,0:0:0:0:
48,299,53643,1,0,3:0:0:0:
192,367,53905,1,2,3:2:0:0:
330,270,54166,1,0,3:0:0:0:
330,270,54428,6,0,P|371:267|417:269,1,80,4|0,3:2|0:0,0:0:0:0:
483,370,54950,1,2,3:2:0:0:
491,235,55212,1,2,3:2:0:0:
494,217,55343,1,2,3:2:0:0:
464,191,55473,1,4,3:0:0:0:
333,75,55735,2,0,P|333:100|339:120,1,40,2|2,3:2|3:2,0:0:0:0:
349,126,55996,1,2,3:2:0:0:
366,129,56127,1,0,3:0:0:0:
489,72,56388,1,2,3:2:0:0:
487,61,56519,6,0,P|426:58|371:61,1,80,2|0,1:2|3:0,0:0:0:0:
342,112,56911,2,0,L|339:151,1,40,2|2,3:2|3:2,0:0:0:0:
213,129,57303,1,2,3:2:0:0:
199,91,57434,2,0,P|200:51|213:13,1,80,0|0,3:0|3:0,0:0:0:0:
94,6,57957,1,0,3:0:0:0:
87,22,58088,2,0,P|88:61|101:99,1,80,2|0,3:2|3:0,0:0:0:0:
3,143,58611,5,4,3:2:0:0:
113,206,58872,1,0,3:0:0:0:
25,297,59133,1,2,3:2:0:0:
135,360,59395,2,0,L|182:354,2,40,0|0|4,3:0|0:0|3:0,0:0:0:0:
197,212,59918,1,0,3:0:0:0:
215,214,60048,1,0,3:0:0:0:
238,247,60179,1,2,3:2:0:0:
256,249,60309,1,2,3:2:0:0:
383,223,60571,6,0,P|375:269|374:305,1,80,2|0,3:2|3:0,0:0:0:0:
401,379,60964,1,0,3:0:0:0:
502,279,61225,2,0,L|495:199,1,80,2|0,3:2|3:0,0:0:0:0:
425,150,61617,2,0,L|432:70,1,80,0|0,3:0|3:0,0:0:0:0:
500,3,62009,1,0,3:0:0:0:
499,19,62140,1,0,3:0:0:0:
511,57,62271,1,2,3:2:0:0:
512,73,62402,1,2,3:2:0:0:
335,5,62794,6,0,P|285:33|254:33,1,80,4|0,3:2|3:0,0:0:0:0:
229,106,63186,2,0,P|155:94|126:93,1,80,0|0,3:0|3:0,0:0:0:0:
77,131,63578,1,0,3:0:0:0:
68,157,63709,1,0,3:0:0:0:
73,184,63839,1,4,3:0:0:0:
206,206,64101,1,0,3:0:0:0:
192,335,64362,1,2,3:2:0:0:
33,348,64624,1,0,3:0:0:0:
30,332,64754,1,0,3:0:0:0:
256,192,64885,12,2,66454,0:0:0:0:
83,285,66977,6,0,P|162:253|212:257,1,95.9999970703126,4|0,3:2|0:0,0:0:0:0:
249,278,67369,2,0,P|303:314|340:328,2,95.9999970703126,0|0|0,3:0|3:0|3:0,0:0:0:0:
238,195,68022,1,4,3:0:0:0:
410,223,68284,1,0,3:0:0:0:
406,270,68414,2,0,P|441:182|437:120,1,143.999995605469,0|0,3:0|3:0,0:0:0:0:
431,122,68937,1,2,0:0:0:0:
467,98,69068,5,4,3:2:0:0:
473,83,69199,1,0,3:0:0:0:
353,21,69460,1,0,3:0:0:0:
359,36,69591,1,2,3:2:0:0:
280,142,69852,1,0,3:0:0:0:
280,142,70114,2,0,P|231:109|176:106,1,95.9999970703126,4|0,3:0|3:0,0:0:0:0:
102,211,70637,2,0,L|110:115,1,95.9999970703126,2|0,3:2|0:0,0:0:0:0:
4,17,71160,5,4,3:2:0:0:
8,32,71290,1,0,3:0:0:0:
62,147,71552,1,0,3:0:0:0:
20,172,71682,2,0,P|12:237|15:291,1,95.9999970703126,2|0,0:0|3:0,0:0:0:0:
183,238,72205,1,4,3:0:0:0:
68,336,72467,1,0,3:0:0:0:
242,301,72728,2,0,B|344:292|277:320|383:311,1,143.999995605469,2|2,0:0|0:0,0:0:0:0:
447,368,73251,5,4,3:2:0:0:
456,357,73382,1,0,3:0:0:0:
383,227,73643,1,0,3:0:0:0:
380,211,73774,1,0,3:0:0:0:
494,166,74036,1,0,3:0:0:0:
510,35,74297,1,4,3:0:0:0:
386,71,74558,1,0,3:0:0:0:
277,0,74820,1,2,0:0:0:0:
277,0,75081,1,0,3:0:0:0:
234,113,75343,6,0,P|215:64|137:25,1,143.999995605469,4|0,3:2|3:0,0:0:0:0:
125,32,75865,2,0,L|120:96,1,47.9999985351563,2|0,0:0|0:0,0:0:0:0:
113,160,76127,1,0,3:0:0:0:
0,332,76388,6,0,P|19:283|97:244,1,143.999995605469,4|0,3:0|3:0,0:0:0:0:
109,251,76911,2,0,L|114:314,1,47.9999985351563,2|0,0:0|0:0,0:0:0:0:
121,379,77172,1,0,3:0:0:0:
245,303,77434,6,0,P|256:252|252:200,1,95.9999970703126,4|0,3:2|0:0,0:0:0:0:
323,163,77826,1,2,0:2:0:0:
337,209,77957,2,0,P|309:247|236:284,1,95.9999970703126,2|2,0:0|0:2,0:0:0:0:
349,384,78480,1,4,3:0:0:0:
403,262,78741,1,2,0:0:0:0:
512,358,79003,1,2,0:0:0:0:
512,89,79526,6,0,P|452:108|395:109,1,95.9999970703126,4|0,3:2|3:0,0:0:0:0:
326,28,80048,2,0,P|266:9|209:8,1,95.9999970703126,2|0,3:2|3:0,0:0:0:0:
222,12,80441,1,0,3:0:0:0:
204,55,80571,1,4,3:0:0:0:
58,14,80833,1,0,3:0:0:0:
60,30,80964,1,2,0:0:0:0:
70,45,81094,1,2,0:0:0:0:
68,61,81225,1,0,3:0:0:0:
146,200,81486,6,0,P|84:194|7:210,1,95.9999970703126,0|0,3:0|0:0,0:0:0:0:
38,206,81879,1,0,3:0:0:0:
12,365,82140,1,2,0:0:0:0:
30,369,82271,1,2,0:0:0:0:
46,363,82401,1,0,3:0:0:0:
62,360,82532,1,0,3:0:0:0:
217,302,82794,2,0,L|220:252,1,47.9999985351563,2|0,0:0|3:0,0:0:0:0:
224,241,83055,1,0,3:0:0:0:
234,228,83186,1,2,0:0:0:0:
231,214,83316,1,0,3:0:0:0:
481,369,83709,6,0,P|452:306|453:253,1,95.9999970703126,4|0,3:2|3:0,0:0:0:0:
510,163,84231,2,0,P|503:93|476:48,1,95.9999970703126,2|0,3:2|0:0,0:0:0:0:
339,92,84754,2,0,B|300:130|319:188|366:154|348:241,2,143.999995605469,4|2|0,3:0|0:0|0:0,0:0:0:0:
276,45,85669,1,2,0:0:0:0:
306,9,85800,6,0,P|270:41|196:60,1,95.9999970703126,4|0,3:2|0:0,0:0:0:0:
67,54,86323,2,0,P|112:69|166:123,1,95.9999970703126,2|2,3:2|3:2,0:0:0:0:
248,189,86846,2,0,B|234:174|200:181|209:188|171:199|139:191,1,95.9999970703126,4|0,3:0|0:0,0:0:0:0:
77,167,87238,1,2,0:0:0:0:
39,197,87369,2,0,L|31:295,1,95.9999970703126,2|0,3:2|3:0,0:0:0:0:
148,384,87892,5,4,3:2:0:0:
276,288,88153,1,0,3:0:0:0:
275,301,88284,1,0,3:0:0:0:
403,373,88545,2,0,L|394:279,1,80,0|0,3:0|3:0,0:0:0:0:
479,215,89068,2,0,L|488:121,1,80,0|0,3:0|3:0,0:0:0:0:
494,124,89460,1,2,1:2:0:0:
411,2,89722,1,0,3:0:0:0:
342,99,89983,5,4,3:2:0:0:
333,107,90114,1,0,3:0:0:0:
293,107,90245,1,0,3:0:0:0:
284,99,90376,1,0,3:0:0:0:
180,22,90637,2,0,L|96:32,1,80,0|0,3:0|3:0,0:0:0:0:
0,124,91160,2,0,L|84:134,1,80,0|0,3:0|3:0,0:0:0:0:
91,140,91552,1,2,1:2:0:0:
13,233,91813,1,0,3:0:0:0:
10,246,91944,1,0,3:0:0:0:
7,259,92075,5,4,3:2:0:0:
163,245,92336,1,2,0:0:0:0:
32,338,92597,1,2,3:2:0:0:
171,255,92859,1,2,0:0:0:0:
218,361,93120,1,4,3:0:0:0:
226,326,93250,1,0,3:0:0:0:
249,298,93381,1,0,3:0:0:0:
280,282,93512,1,0,3:0:0:0:
316,280,93642,1,2,1:2:0:0:
324,294,93774,1,0,3:0:0:0:
502,368,94166,6,0,P|479:315|475:277,1,95.9999970703126,4|0,3:2|0:0,0:0:0:0:
441,203,94558,1,2,0:0:0:0:
487,188,94689,2,0,P|489:130|481:94,1,95.9999970703126,2|2,3:2|0:0,0:0:0:0:
441,18,95081,2,0,B|361:12|409:32|304:19,1,95.9999970703126,2|0,0:0|3:0,0:0:0:0:
265,9,95473,1,0,3:0:0:0:
262,24,95604,1,0,3:0:0:0:
278,71,95735,1,2,1:2:0:0:
281,86,95866,1,0,3:0:0:0:
79,14,96258,5,4,3:2:0:0:
95,52,96388,1,0,3:0:0:0:
136,49,96519,1,0,3:0:0:0:
66,143,96780,1,2,3:2:0:0:
50,181,96910,1,2,3:2:0:0:
9,178,97041,1,2,3:2:0:0:
128,235,97303,5,4,3:0:0:0:
140,265,97433,1,0,3:0:0:0:
173,263,97564,1,0,3:0:0:0:
60,309,97826,1,2,3:2:0:0:
48,339,97956,1,2,3:2:0:0:
15,337,98087,1,2,3:2:0:0:
150,383,98349,6,0,B|162:366|162:366|257:360,1,95.9999970703126,4|0,3:2|3:2,0:0:0:0:
363,302,98872,2,0,B|375:319|375:319|470:325,1,95.9999970703126,2|2,3:2|3:2,0:0:0:0:
510,197,99395,1,4,3:0:0:0:
473,207,99526,1,0,2:0:0:0:
452,174,99656,1,0,3:0:0:0:
476,144,99788,1,0,2:0:0:0:
512,158,99918,2,0,P|488:97|487:62,1,95.9999970703126,2|2,3:2|3:2,0:0:0:0:
350,8,100441,5,4,3:2:0:0:
398,112,100702,1,0,3:0:0:0:
266,39,100964,1,2,0:0:0:0:
137,116,101225,1,0,3:0:0:0:
132,132,101356,1,0,3:0:0:0:
184,12,101617,1,0,3:0:0:0:
57,91,101879,1,0,3:0:0:0:
40,94,102010,1,2,0:0:0:0:
156,215,102271,1,0,3:0:0:0:
14,325,102532,6,0,B|46:310|46:310|121:314,1,95.9999970703126,4|0,3:2|3:0,0:0:0:0:
170,365,102924,1,2,0:0:0:0:
205,333,103055,2,0,B|237:348|237:348|312:344,1,95.9999970703126,2|0,0:0|3:0,0:0:0:0:
381,348,103447,2,0,L|485:340,1,95.9999970703126,0|0,3:0|3:0,0:0:0:0:
505,264,103839,1,0,3:0:0:0:
492,225,103970,1,0,3:0:0:0:
453,213,104101,2,0,L|357:221,1,95.9999970703126,2|0,0:0|3:0,0:0:0:0:
222,178,104624,6,0,P|221:233|158:278,1,95.9999970703126,4|0,3:2|3:0,0:0:0:0:
56,265,105147,2,0,P|24:219|48:146,1,95.9999970703126,2|0,0:0|3:0,0:0:0:0:
36,168,105539,1,2,0:0:0:0:
100,67,105800,2,0,P|144:95|212:88,1,95.9999970703126,0|0,3:0|3:0,0:0:0:0:
248,42,106192,2,0,L|307:35,1,47.9999985351563,2|0,0:0|0:0,0:0:0:0:
377,25,106454,1,0,3:0:0:0:
383,39,106584,1,0,3:0:0:0:
256,192,106715,12,2,108284,0:0:0:0:
368,105,125546,6,2,B|268:88|311:-122|610:3|466:371,1,575.999982421876,2|2,0:0|0:0,0:1:0:0:
323,279,127379,1,2,0:0:0:0:
323,279,127640,2,2,B|423:296|380:506|81:381|225:13,1,575.999982421876,2|2,0:0|0:0,0:1:0:0:
45,70,129473,1,2,0:0:0:0:
45,70,129735,2,0,P|54:137|18:210,2,143.999995605469,2|0|0,0:0|0:0|0:0,0:0:0:0:
117,239,130782,2,0,P|113:306|149:372,1,127.99999609375,2|0,0:0|0:0,0:0:0:0:
1,383,131480,1,2,0:0:0:0:
201,276,131829,2,0,B|101:293|144:503|443:378|299:10,1,575.999982421876,2|2,0:0|3:2,0:0:0:0:
301,15,133923,1,4,3:2:0:0:
301,15,150677,6,0,L|288:138,1,95.9999970703126,4|0,3:2|3:0,0:0:0:0:
366,144,151070,2,0,L|379:267,1,95.9999970703126,0|0,3:0|3:0,0:0:0:0:
451,363,151593,1,0,3:0:0:0:
368,245,151855,1,0,3:0:0:0:
462,163,152117,1,0,3:0:0:0:
468,150,152248,1,2,3:2:0:0:
407,64,152510,1,0,3:0:0:0:
268,29,152771,6,0,L|281:152,1,95.9999970703126,4|0,3:2|3:0,0:0:0:0:
203,158,153164,2,0,L|190:281,1,95.9999970703126,0|0,3:0|3:0,0:0:0:0:
49,267,153688,1,0,3:0:0:0:
170,335,153949,1,0,3:0:0:0:
275,268,154211,1,0,3:0:0:0:
279,282,154342,1,2,3:2:0:0:
369,337,154604,1,0,3:0:0:0:
489,306,154866,6,0,P|495:257|493:217,1,80,4|0,3:2|3:0,0:0:0:0:
485,216,155258,2,0,L|485:120,1,80,0|0,3:0|3:0,0:0:0:0:
509,18,155782,2,0,L|397:35,1,80,0|0,3:0|3:0,0:0:0:0:
321,81,156305,1,0,3:0:0:0:
318,65,156436,2,0,P|276:52|206:48,1,80,2|0,3:2|3:0,0:0:0:0:
56,2,156960,5,4,3:2:0:0:
44,11,157091,1,0,3:0:0:0:
10,33,157222,1,0,3:0:0:0:
7,47,157353,2,0,P|13:114|22:141,1,80,0|0,3:0|3:0,0:0:0:0:
128,170,157876,2,0,L|126:264,2,80,0|0|0,3:0|3:0|3:0,0:0:0:0:
138,159,158531,1,2,3:2:0:0:
27,237,158792,1,0,3:0:0:0:
133,357,159054,6,0,B|160:367|186:342|213:354,1,80,4|0,3:2|3:0,0:0:0:0:
220,365,159447,1,0,3:0:0:0:
314,290,159709,2,0,L|309:204,2,80,0|0|0,3:0|3:0|3:0,0:0:0:0:
421,360,160494,1,0,3:0:0:0:
434,354,160625,1,2,3:2:0:0:
509,258,160887,1,0,3:0:0:0:
452,144,161148,6,0,L|447:94,1,40,4|0,3:2|3:0,0:0:0:0:
494,39,161410,1,0,3:0:0:0:
498,26,161541,2,0,P|447:17|393:19,1,80,0|0,3:0|3:0,0:0:0:0:
364,124,162065,2,0,P|313:133|259:131,1,80,0|0,3:0|3:0,0:0:0:0:
215,36,162588,1,0,3:0:0:0:
218,22,162719,1,2,3:2:0:0:
91,4,162981,1,0,3:0:0:0:
97,43,163112,1,0,3:0:0:0:
74,73,163243,6,0,P|105:137|129:160,1,95.9999970703126,4|0,3:2|0:0,0:0:0:0:
203,159,163637,1,0,3:0:0:0:
43,195,163900,1,0,3:0:0:0:
65,338,164164,1,0,3:0:0:0:
37,370,164295,2,0,P|101:357|151:355,1,95.9999970703126,4|0,3:0|3:0,0:0:0:0:
200,311,164690,2,0,B|242:341|287:320|270:319|297:304|348:328,1,143.999995605469,0|0,3:0|3:0,0:0:0:0:
459,384,165348,5,4,3:2:0:0:
464,369,165479,1,0,3:0:0:0:
383,249,165743,1,0,3:0:0:0:
379,233,165874,1,2,3:2:0:0:
500,157,166137,1,0,3:0:0:0:
430,31,166400,2,0,P|418:89|419:148,2,95.9999970703126,4|0|2,3:0|3:0|3:2,0:0:0:0:
135,21,167453,6,0,P|186:10|244:7,1,95.9999970703126,4|0,3:2|0:0,0:0:0:0:
286,66,167848,2,0,P|270:115|243:167,1,95.9999970703126,0|0,3:0|3:0,0:0:0:0:
130,250,168374,1,0,3:0:0:0:
199,295,168506,2,0,P|183:344|156:396,1,95.9999970703126,4|0,3:0|3:0,0:0:0:0:
83,380,168900,2,0,P|47:341|6:253,1,143.999995605469,0|0,3:0|3:0,0:0:0:0:
20,115,169558,5,4,3:2:0:0:
13,101,169690,1,0,3:0:0:0:
114,13,169953,1,0,3:0:0:0:
120,27,170085,1,2,0:0:0:0:
218,94,170348,1,0,3:0:0:0:
325,4,170611,2,0,P|323:65|331:108,2,95.9999970703126,4|0|2,3:0|3:0|0:0,0:0:0:0:
398,145,171400,1,0,3:0:0:0:
497,15,171664,6,0,B|488:48|488:48|486:110|496:165,1,143.999995605469,4|0,3:2|3:0,0:0:0:0:
499,173,172190,1,2,0:0:0:0:
322,179,172453,1,0,3:0:0:0:
490,184,172716,2,0,B|499:220|499:220|504:292|485:336,1,143.999995605469,4|0,3:0|3:0,0:0:0:0:
481,338,173243,1,2,0:0:0:0:
362,375,173506,1,0,3:0:0:0:
331,339,173637,1,0,3:0:0:0:
284,322,173769,6,0,B|248:316|248:316|195:328|129:328,1,143.999995605469,4|2,3:2|0:2,0:0:0:0:
131,325,174295,1,2,0:0:0:0:
114,143,174558,1,2,0:2:0:0:
27,232,174821,2,0,B|63:226|63:226|116:238|182:238,1,143.999995605469,4|0,3:0|0:0,0:0:0:0:
180,235,175347,1,2,0:0:0:0:
122,134,175611,1,0,3:0:0:0:
112,87,175743,1,0,3:0:0:0:
72,60,175874,5,4,3:2:0:0:
220,21,176137,2,0,L|284:4,2,47.9999985351563,0|0|2,3:0|3:0|3:2,0:0:0:0:
297,143,176664,1,0,3:0:0:0:
300,158,176795,1,0,3:0:0:0:
378,55,177058,1,0,3:0:0:0:
506,29,177321,1,2,0:0:0:0:
509,12,177453,1,2,0:0:0:0:
449,159,177716,1,0,3:0:0:0:
510,310,177979,6,0,P|474:355|421:381,1,95.9999970703126,4|0,3:2|3:0,0:0:0:0:
303,319,178506,2,0,P|267:274|214:248,1,95.9999970703126,2|0,0:0|3:0,0:0:0:0:
153,260,178900,1,0,3:0:0:0:
44,368,179164,1,2,0:0:0:0:
47,384,179295,1,0,3:0:0:0:
73,242,179558,2,0,L|75:136,1,95.9999970703126,2|0,0:0|3:0,0:0:0:0:
81,130,179953,1,0,3:0:0:0:
31,65,180085,6,0,P|90:31|163:28,1,95.9999970703126,4|0,3:2|3:0,0:0:0:0:
237,104,180611,2,0,P|296:138|369:141,1,95.9999970703126,2|0,3:2|0:0,0:0:0:0:
437,56,181137,1,4,3:0:0:0:
336,144,181400,1,2,0:0:0:0:
254,25,181664,1,2,3:2:0:0:
126,110,181927,1,0,0:0:0:0:
97,78,182058,1,2,0:0:0:0:
55,67,182190,6,0,P|20:124|12:157,1,95.9999970703126,4|0,3:2|0:0,0:0:0:0:
150,195,182716,2,0,P|185:252|193:285,1,95.9999970703126,2|2,3:2|3:2,0:0:0:0:
27,378,183243,2,0,B|88:315|162:356|140:362|186:381|243:373,1,191.999994140625,4|2,3:0|3:2,0:0:0:0:
344,334,184032,1,0,3:0:0:0:
368,370,184164,1,2,3:2:0:0:
408,373,184295,5,4,3:2:0:0:
500,296,184558,1,0,3:0:0:0:
504,280,184690,1,0,3:0:0:0:
401,237,184953,2,0,L|383:148,1,80,0|0,3:0|3:0,0:0:0:0:
485,100,185479,2,0,L|503:11,1,80,0|0,3:0|3:0,0:0:0:0:
494,7,185874,1,2,1:2:0:0:
377,49,186137,1,0,3:0:0:0:
263,1,186400,5,4,3:2:0:0:
261,17,186532,1,0,3:0:0:0:
221,64,186664,1,0,3:0:0:0:
223,80,186796,1,0,3:0:0:0:
85,29,187058,6,0,L|5:17,1,80,0|0,3:0|3:0,0:0:0:0:
35,155,187585,2,0,L|114:143,1,80,0|0,3:0|3:0,0:0:0:0:
127,149,187979,1,2,1:2:0:0:
212,75,188243,1,0,3:0:0:0:
341,39,188506,6,0,P|368:98|374:147,1,95.9999970703126,4|0,3:2|0:0,0:0:0:0:
434,182,188900,1,2,0:0:0:0:
505,225,189032,2,0,P|478:284|472:333,1,95.9999970703126,2|0,3:2|0:0,0:0:0:0:
405,360,189427,2,0,B|358:384|358:343|309:365,2,95.9999970703126,2|0|0,0:0|3:0|3:0,0:0:0:0:
399,344,190085,1,2,1:2:0:0:
267,286,190348,1,0,3:0:0:0:
239,312,190479,1,0,3:0:0:0:
224,348,190611,6,0,P|180:379|112:384,1,95.9999970703126,4|0,3:2|0:0,0:0:0:0:
63,357,191006,1,2,0:0:0:0:
51,345,191137,2,0,P|70:282|61:218,1,95.9999970703126,2|2,3:2|0:0,0:0:0:0:
92,171,191532,1,2,0:0:0:0:
15,49,191795,1,0,3:0:0:0:
23,35,191927,1,0,3:0:0:0:
140,100,192190,2,0,L|243:92,1,95.9999970703126,2|0,1:2|3:0,0:0:0:0:
358,17,192716,5,4,3:2:0:0:
333,168,192979,1,0,3:0:0:0:
473,104,193243,1,2,3:2:0:0:
492,247,193506,1,2,3:2:0:0:
496,263,193637,1,0,3:0:0:0:
466,331,193769,1,4,3:0:0:0:
308,368,194032,2,0,L|314:310,1,47.9999985351563,0|0,3:0|3:0,0:0:0:0:
246,274,194295,1,2,3:2:0:0:
231,279,194427,1,2,3:2:0:0:
192,151,194690,1,2,3:2:0:0:
205,156,194821,6,0,P|238:87|227:44,1,95.9999970703126,2|2,1:2|3:2,0:0:0:0:
155,13,195216,1,0,3:0:0:0:
158,28,195348,2,0,P|107:38|38:33,1,95.9999970703126,2|2,3:2|3:2,0:0:0:0:
6,96,195743,2,0,B|0:147|32:141|29:194,2,95.9999970703126,0|0|0,3:0|3:0|3:0,0:0:0:0:
12,82,196400,1,2,3:2:0:0:
115,190,196664,1,2,3:2:0:0:
108,227,196795,1,0,3:0:0:0:
84,258,196927,5,4,3:2:0:0:
200,327,197190,1,0,3:0:0:0:
295,213,197453,1,2,0:0:0:0:
419,304,197716,2,0,L|422:365,1,47.9999985351563,0|0,3:0|3:0,0:0:0:0:
498,324,197979,1,4,3:0:0:0:
503,170,198243,2,0,L|500:122,1,47.9999985351563,0|0,3:0|3:0,0:0:0:0:
442,72,198506,1,2,0:0:0:0:
470,1,198637,1,0,3:0:0:0:
342,73,198900,5,0,3:0:0:0:
329,82,199032,2,0,P|281:77|236:59,1,95.9999970703126,4|0,3:2|3:0,0:0:0:0:
103,8,199558,1,2,0:0:0:0:
3,96,199821,1,0,3:0:0:0:
4,113,199953,1,0,3:0:0:0:
119,177,200216,2,0,P|123:200|124:224,1,47.9999985351563,0|0,3:0|3:0,0:0:0:0:
117,238,200479,1,2,0:0:0:0:
87,269,200611,1,2,0:0:0:0:
85,283,200743,1,2,0:0:0:0:
255,368,201137,6,0,P|279:323|324:262,1,95.9999970703126,4|0,3:2|3:0,0:0:0:0:
384,296,201532,2,0,P|420:247|411:170,1,111.999996582031,2|2,0:0|0:2,0:0:0:0:
358,146,201927,2,0,P|357:109|363:82,1,47.9999985351563,0|2,3:0|0:0,0:0:0:0:
432,72,202190,1,4,3:0:0:0:
306,2,202453,1,0,3:0:0:0:
205,111,202716,1,2,0:0:0:0:
64,39,202979,1,0,3:0:0:0:
60,53,203111,1,0,3:0:0:0:
256,192,203243,12,0,204821,0:0:0:0:
