osu file format v14

[General]
AudioFilename: Mark Governor, Glenn Nishida - Stadium Rave (Gens) [Music].mp3
AudioLeadIn: 0
PreviewTime: 14885
Countdown: 0
SampleSet: None
StackLeniency: 0.7
Mode: 0
LetterboxInBreaks: 0
WidescreenStoryboard: 0

[Editor]
Bookmarks: 15125,16086,31459,46831,54517,62203
DistanceSpacing: 0.8
BeatDivisor: 8
GridSize: 4
TimelineZoom: 1

[Metadata]
Title:Stadium Rave
TitleUnicode:Stadium Rave
Artist:Mark Governor, Glenn Nishida
ArtistUnicode:Mark Governor, Glenn Nishida
Creator:Gens
Version:Insane
Source:SpongeBob SquarePants
Tags:
BeatmapID:1839493
BeatmapSetID:879620

[Difficulty]
HPDrainRate:5
CircleSize:4
OverallDifficulty:5
ApproachRate:8
SliderMultiplier:3.2
SliderTickRate:1

[Events]
//Background and Video events
0,0,"Mark Governor Glenn Nishida - Stadium Rave (Gens) [Background].png",0,0
//Break Periods
//Storyboard Layer 0 (Background)
//Storyboard Layer 1 (Fail)
//Storyboard Layer 2 (Pass)
//Storyboard Layer 3 (Foreground)
//Storyboard Sound Samples

[TimingPoints]
2876,480.384307445957,4,1,0,50,1,0
15246,480.384307445957,4,1,0,40,1,0
16207,480.384307445957,4,1,0,50,1,1
31098,-100,4,1,0,50,0,0
31579,-100,4,1,0,45,0,0
46231,-100,4,1,0,50,0,0
46951,-100,4,1,0,50,0,1
54157,-100,4,1,0,50,0,0
54637,-100,4,1,0,40,0,0
62323,-100,4,1,0,50,0,1
62324,-100,4,1,0,50,0,0

[HitObjects]
424,384,15246,5,4,0:0:0:0:
256,288,15486,1,0,0:0:0:0:
88,192,15726,1,8,0:0:0:0:
256,96,15966,1,0,0:0:0:0:
424,0,16206,6,0,P|502:83|464:191,1,240,6|2,0:0|0:0,0:0:0:0:
325,329,16807,2,0,L|256:368,1,80,0|2,0:0|0:0,0:0:0:0:
88,272,17167,1,2,0:0:0:0:
160,92,17407,1,2,0:0:0:0:
352,92,17648,1,8,0:0:0:0:
424,272,17888,1,0,0:0:0:0:
256,368,18128,6,0,P|136:368|88:272,1,240,6|2,0:0|0:0,0:0:0:0:
256,192,18729,2,0,L|325:153,1,80,0|2,0:0|0:0,0:0:0:0:
160,8,19089,1,0,0:0:0:0:
352,8,19329,1,0,0:0:0:0:
160,8,19569,1,6,0:0:0:0:
88,0,20050,6,0,P|10:83|48:191,1,240,6|2,0:0|0:0,0:0:0:0:
187,329,20651,2,0,L|256:368,1,80,0|2,0:0|0:0,0:0:0:0:
424,272,21011,1,2,0:0:0:0:
352,92,21251,1,2,0:0:0:0:
160,92,21492,1,8,0:0:0:0:
88,272,21732,1,0,0:0:0:0:
256,368,21971,6,0,P|376:368|424:272,1,240,6|2,0:0|0:0,0:0:0:0:
256,192,22572,2,0,L|187:153,1,80,0|2,0:0|0:0,0:0:0:0:
352,8,22932,1,2,0:0:0:0:
160,8,23172,1,2,0:0:0:0:
352,8,23412,1,6,0:0:0:0:
368,352,23893,6,0,B|336:380|304:372|280:312|232:312|208:372|176:380|144:352,1,240,6|2,0:0|0:0,0:0:0:0:
256,192,24493,2,0,L|256:112,1,80,0|2,0:0|0:0,0:0:0:0:
88,16,24853,1,2,0:0:0:0:
88,16,25094,1,2,0:0:0:0:
8,192,25334,2,0,P|40:264|112:288,1,160,8|0,0:0|0:0,0:0:0:0:
304,288,25814,6,0,P|365:192|304:96,1,240,6|2,0:0|0:0,0:0:0:0:
111,111,26415,2,0,P|110:72|128:37,1,80,0|2,0:0|0:0,0:0:0:0:
320,16,26775,1,0,0:0:0:0:
460,192,27015,1,0,0:0:0:0:
320,368,27255,1,6,0:0:0:0:
144,32,27736,6,0,B|176:4|208:12|232:72|280:72|304:12|336:4|368:32,1,240,6|2,0:0|0:0,0:0:0:0:
256,192,28336,2,0,L|256:272,1,80,0|2,0:0|0:0,0:0:0:0:
424,368,28696,1,2,0:0:0:0:
424,368,28937,1,2,0:0:0:0:
504,192,29177,2,0,P|472:120|400:96,1,160,8|0,0:0|0:0,0:0:0:0:
208,96,29657,6,0,P|147:192|208:288,1,240,6|2,0:0|0:0,0:0:0:0:
400,272,30258,2,0,P|401:311|383:346,1,80,0|2,0:0|0:0,0:0:0:0:
192,368,30618,1,2,0:0:0:0:
52,192,30858,1,2,0:0:0:0:
192,16,31098,1,6,0:0:0:0:
454,264,31579,6,0,P|372:347|255:351,1,240,4|0,0:0|0:0,0:0:0:0:
255,352,32179,2,0,L|173:328,1,80,0|8,0:0|0:0,0:0:0:0:
0,260,32540,1,2,0:0:0:0:
0,260,32780,1,2,0:0:0:0:
432,52,33020,5,4,0:0:0:0:
431,51,33500,2,0,P|325:89|321:202,1,240,4|0,0:0|0:0,0:0:0:0:
322,202,34101,2,0,L|398:234,1,80,0|8,0:0|0:0,0:0:0:0:
512,80,34461,1,2,0:0:0:0:
512,80,34701,1,2,0:0:0:0:
57,264,34941,5,4,0:0:0:0:
57,264,35422,2,0,P|139:347|256:351,1,240,4|0,0:0|0:0,0:0:0:0:
257,352,36022,2,0,L|339:328,1,80,0|8,0:0|0:0,0:0:0:0:
512,260,36383,1,2,0:0:0:0:
512,260,36623,1,2,0:0:0:0:
80,52,36863,5,4,0:0:0:0:
80,51,37343,2,0,P|186:89|190:202,1,240,4|0,0:0|0:0,0:0:0:0:
190,202,37944,2,0,L|114:234,1,80,0|8,0:0|0:0,0:0:0:0:
0,80,38304,1,2,0:0:0:0:
0,80,38544,1,2,0:0:0:0:
480,120,38785,5,4,0:0:0:0:
480,120,39265,2,0,B|424:28|336:100|280:8,1,240,4|0,0:0|0:0,0:0:0:0:
280,8,39865,2,0,L|203:30,1,80,0|8,0:0|0:0,0:0:0:0:
24,100,40226,1,2,0:0:0:0:
24,100,40466,1,2,0:0:0:0:
448,328,40706,5,4,0:0:0:0:
447,328,41186,2,0,P|336:302|304:192,1,240,4|0,0:0|0:0,0:0:0:0:
305,192,41787,2,0,L|324:107,1,80,0|8,0:0|0:0,0:0:0:0:
512,128,42147,1,2,0:0:0:0:
512,128,42387,1,2,0:0:0:0:
32,120,42627,5,4,0:0:0:0:
32,120,43108,2,0,B|88:28|176:100|232:8,1,240,4|0,0:0|0:0,0:0:0:0:
232,8,43708,2,0,L|308:30,1,80,0|8,0:0|0:0,0:0:0:0:
488,100,44069,1,2,0:0:0:0:
488,100,44309,1,2,0:0:0:0:
64,328,44549,5,4,0:0:0:0:
64,328,45030,2,0,P|191:284|207:191,1,240
207,192,45630,2,0,L|188:107,1,80,0|8,0:0|0:0,0:0:0:0:
0,128,45990,1,2,0:0:0:0:
0,128,46230,1,2,0:0:0:0:
256,56,46471,1,8,0:0:0:0:
512,128,46711,1,0,0:0:0:0:
312,272,46951,6,0,P|256:357|200:272,1,240,6|2,0:0|0:0,0:0:0:0:
316,120,47552,2,0,L|380:64,1,80,0|2,0:0|0:0,0:0:0:0:
480,228,47912,1,2,0:0:0:0:
352,372,48152,1,2,0:0:0:0:
160,376,48392,1,8,0:0:0:0:
32,228,48632,1,0,0:0:0:0:
152,88,48873,6,0,P|256:37|360:88,1,240,6|2,0:0|0:0,0:0:0:0:
216,192,49473,2,0,L|296:192,1,80,0|2,0:0|0:0,0:0:0:0:
104,192,49833,1,0,0:0:0:0:
408,192,50074,1,0,0:0:0:0:
104,192,50314,1,6,0:0:0:0:
200,112,50794,6,0,P|256:27|312:112,1,240,6|2,0:0|0:0,0:0:0:0:
196,264,51395,2,0,L|132:320,1,80,0|2,0:0|0:0,0:0:0:0:
32,156,51755,1,2,0:0:0:0:
160,12,51995,1,2,0:0:0:0:
352,8,52235,1,8,0:0:0:0:
480,156,52475,1,0,0:0:0:0:
360,296,52716,6,0,P|256:347|152:296,1,240,6|2,0:0|0:0,0:0:0:0:
296,192,53316,2,0,L|216:192,1,80,0|2,0:0|0:0,0:0:0:0:
408,192,53676,1,2,0:0:0:0:
104,192,53917,1,2,0:0:0:0:
408,192,54157,1,6,0:0:0:0:
512,128,54637,6,0,B|452:91|420:165|360:128,1,160,4|0,0:0|0:0,0:0:0:0:
292,84,54998,2,0,P|216:63|140:84,1,160,8|0,0:0|0:0,0:0:0:0:
76,132,55358,2,0,L|12:180,1,80,8|0,0:0|0:0,0:0:0:0:
0,256,55598,6,0,B|60:293|92:219|152:256,1,160,4|0,0:0|0:0,0:0:0:0:
220,300,55959,2,0,P|296:321|372:300,1,160,8|0,0:0|0:0,0:0:0:0:
436,252,56319,2,0,L|500:204,1,80,8|0,0:0|0:0,0:0:0:0:
512,128,56559,6,0,B|452:91|420:165|360:128,1,160,4|0,0:0|0:0,0:0:0:0:
292,84,56920,2,0,P|216:63|140:84,1,160,8|0,0:0|0:0,0:0:0:0:
76,132,57280,2,0,L|12:180,1,80,8|0,0:0|0:0,0:0:0:0:
0,256,57520,6,0,B|60:293|92:219|152:256,1,160,4|0,0:0|0:0,0:0:0:0:
220,300,57881,2,0,P|296:321|372:300,1,160,8|0,0:0|0:0,0:0:0:0:
436,252,58241,2,0,L|500:204,1,80,8|0,0:0|0:0,0:0:0:0:
512,132,58480,6,0,P|498:53|431:17,1,160,4|0,0:0|0:0,0:0:0:0:
350,31,58841,2,0,P|299:89|314:165,1,160,8|0,0:0|0:0,0:0:0:0:
384,207,59201,2,0,P|423:208|460:193,1,80,8|0,0:0|0:0,0:0:0:0:
408,132,59441,6,0,P|394:53|327:17,1,160,4|0,0:0|0:0,0:0:0:0:
246,31,59802,2,0,P|195:89|210:165,1,160,8|0,0:0|0:0,0:0:0:0:
280,207,60162,2,0,P|319:208|356:193,1,80,8|0,0:0|0:0,0:0:0:0:
304,132,60402,6,0,P|290:53|223:17,1,160,4|0,0:0|0:0,0:0:0:0:
142,31,60763,2,0,P|91:89|106:165,1,160,8|0,0:0|0:0,0:0:0:0:
176,207,61123,2,0,P|215:208|252:193,1,80,8|0,0:0|0:0,0:0:0:0:
200,132,61363,6,0,P|158:28|49:46,1,240,4|8,0:0|0:0,0:0:0:0:
24,344,62083,1,0,0:0:0:0:
24,344,62323,1,4,0:0:0:0:
