osu file format v14

[General]
AudioFilename: audio.ogg
AudioLeadIn: 0
PreviewTime: 91
Countdown: 0
SampleSet: Normal
StackLeniency: 0.7
Mode: 1
LetterboxInBreaks: 0
WidescreenStoryboard: 0

[Editor]
Bookmarks: 7095,18389
DistanceSpacing: 1.8
BeatDivisor: 16
GridSize: 32
TimelineZoom: 1.5

[Metadata]
Title:Stop Posting About The Precious Thing
TitleUnicode:Stop Posting About The Precious Thing
Artist:Marisa
ArtistUnicode:Marisa
Creator:Faputa
Version:Sussy Oni
Source:東方Project
Tags:藤咲かりん Fujisaki Karin ARM with "loving" YOUNO ඞ Amongus Among Us Amogus meme tiktok biggayrapper Sussy Sus Remix Electronic English Novelty Touhou Project otomad 音mad IOSYS Team Shanghai Alice 上海アリス幻樂団 Marisa Stole the Precious Thing 魔理沙は大変なものを盗んでいきました Marisa wa Taihenna Taihen'na Taihen na Mono o Nusundeikimashita Doll Judgement ~ The Girl who Played with People's Shapes 人形裁判 ~ 人の形弄びし少女 Ningyou Saiban ~ Hito no katachi moteasobishi shoujo 東方妖々夢 ~ Perfect Cherry Blossom. Youyoumu Romantic Children 東方怪綺談 ~ Mystic Square. Kaikidan
BeatmapID:3891569
BeatmapSetID:1889476

[Difficulty]
HPDrainRate:7
CircleSize:2
OverallDifficulty:7
ApproachRate:10
SliderMultiplier:1.4
SliderTickRate:1

[Events]
//Background and Video events
0,0,"amogus.jpg",0,60
Video,44,"amongus.mp4"
//Break Periods
//Storyboard Layer 0 (Background)
//Storyboard Layer 1 (Fail)
//Storyboard Layer 2 (Pass)
//Storyboard Layer 3 (Foreground)
//Storyboard Layer 4 (Overlay)
//Storyboard Sound Samples

[TimingPoints]
-4147,352.941176470588,4,1,0,50,1,0
4408,-99.3804125888897,4,1,0,50,0,0
4496,-98.7684556714016,4,1,0,50,0,0
4584,-98.163989150845,4,1,0,50,0,0
4673,-97.560132706663,4,1,0,50,0,0
4761,-96.9703215169002,4,1,0,50,0,0
4849,-96.3875990166621,4,1,0,50,0,0
4937,-95.8118381754005,4,1,0,50,0,0
5026,-95.2364887659402,4,1,0,50,0,0
5114,-94.6743577704742,4,1,0,50,0,0
5202,-94.118823764753,4,1,0,50,0,0
5290,-93.5697712959894,4,1,0,50,0,0
5379,-93.0209568999605,4,1,0,50,0,0
5467,-92.484602280173,4,1,0,50,0,0
5555,-91.9543973941368,4,1,0,50,0,0
5643,-91.4302370773416,4,1,0,50,0,0
5732,-90.9061634572036,4,1,0,50,0,0
5820,-90.3938520653218,4,1,0,50,0,0
5908,-89.8872826848373,4,1,0,50,0,0
5996,-89.3863593185992,4,1,0,50,0,0
6084,-88.8909880974873,4,1,0,50,0,0
6173,-88.3955410821643,4,1,0,50,0,0
6261,-87.9110612855008,4,1,0,50,0,0
6349,-87.4318632309217,4,1,0,50,0,0
6437,-86.9578610152785,4,1,0,50,0,0
6526,-86.4836713436677,4,1,0,50,0,0
6614,-86.0198671460784,4,1,0,50,0,0
6702,-85.561011092926,4,1,0,50,0,0
6790,-85.1070244196563,4,1,0,50,0,0
6879,-84.6527527887729,4,1,0,50,0,0
6967,-84.2083283617707,4,1,0,50,0,0
7102,-84.2083283617707,4,1,0,60,0,0
7147,-83.3333333333333,4,1,0,60,0,1
28323,-83.3333333333333,4,1,0,60,0,1
28408,-84.2080152671756,4,1,0,60,0,1
28496,-85.1012536162006,4,1,0,60,0,1
28584,-86.0136452241715,4,1,0,60,0,1
28673,-86.9565217391304,4,1,0,60,0,1
28761,-87.9093512638526,4,1,0,60,0,1
28849,-88.8832934659448,4,1,0,60,0,1
28937,-89.8790579248886,4,1,0,60,0,1
29026,-90.9090909090909,4,1,0,60,0,1
29114,-91.9510289137796,4,1,0,60,0,1
29202,-93.0171277997365,4,1,0,60,0,1
29290,-94.1082378032525,4,1,0,60,0,1
29379,-95.2380952380952,4,1,0,60,0,1
29467,-96.382252559727,4,1,0,60,0,1
29555,-97.5542351803233,4,1,0,60,0,1
29647,-98.5221674876847,4,1,0,60,0,1
29735,-100,4,1,0,60,0,0
29823,-100,4,1,0,40,0,0
30970,-100,4,1,0,30,0,0
32382,-100,4,1,0,20,0,0
33793,-100,4,1,0,10,0,0

[HitObjects]
256,192,88,5,0,0:0:0:0:
256,192,176,1,0,0:0:0:0:
256,192,264,1,0,0:0:0:0:
256,192,440,1,8,0:0:0:0:
256,192,617,1,8,0:0:0:0:
256,192,793,1,0,0:0:0:0:
256,192,882,1,0,0:0:0:0:
256,192,970,1,0,0:0:0:0:
256,192,1146,1,8,0:0:0:0:
256,192,1323,1,8,0:0:0:0:
256,192,1499,1,0,0:0:0:0:
256,192,1587,1,0,0:0:0:0:
256,192,1676,1,0,0:0:0:0:
256,192,1852,1,8,0:0:0:0:
256,192,1940,1,0,0:0:0:0:
256,192,2029,1,8,0:0:0:0:
256,192,2205,1,0,0:0:0:0:
256,192,2293,1,0,0:0:0:0:
256,192,2382,1,0,0:0:0:0:
256,192,2558,1,8,0:0:0:0:
256,192,2646,1,0,0:0:0:0:
256,192,2735,1,8,0:0:0:0:
256,192,2823,1,8,0:0:0:0:
256,192,2911,1,0,0:0:0:0:
256,192,2999,1,0,0:0:0:0:
256,192,3087,1,0,0:0:0:0:
256,192,3264,1,8,0:0:0:0:
256,192,3352,1,0,0:0:0:0:
256,192,3440,1,8,0:0:0:0:
256,192,3617,1,0,0:0:0:0:
256,192,3705,1,0,0:0:0:0:
256,192,3793,1,0,0:0:0:0:
256,192,3970,1,8,0:0:0:0:
256,192,4058,1,0,0:0:0:0:
256,192,4146,1,8,0:0:0:0:
256,192,4235,1,8,0:0:0:0:
256,192,4323,1,0,0:0:0:0:
256,192,4411,1,0,0:0:0:0:
256,192,4499,1,8,0:0:0:0:
256,192,4587,1,0,0:0:0:0:
256,192,4676,1,8,0:0:0:0:
256,192,4764,1,0,0:0:0:0:
256,192,4852,1,8,0:0:0:0:
256,192,4940,1,8,0:0:0:0:
256,192,5029,1,0,0:0:0:0:
256,192,5117,1,0,0:0:0:0:
256,192,5205,1,8,0:0:0:0:
256,192,5293,1,0,0:0:0:0:
256,192,5382,1,8,0:0:0:0:
256,192,5470,1,0,0:0:0:0:
256,192,5558,1,8,0:0:0:0:
256,192,5646,1,8,0:0:0:0:
256,192,5735,1,0,0:0:0:0:
256,192,5823,1,0,0:0:0:0:
256,192,5911,1,0,0:0:0:0:
256,192,5999,1,0,0:0:0:0:
256,192,6087,1,8,0:0:0:0:
256,192,6176,1,8,0:0:0:0:
256,192,6264,1,8,0:0:0:0:
256,192,6352,1,8,0:0:0:0:
256,192,6440,1,0,0:0:0:0:
256,192,6529,1,0,0:0:0:0:
256,192,6617,1,8,0:0:0:0:
256,192,6705,1,8,0:0:0:0:
256,192,6793,1,0,0:0:0:0:
256,192,6882,1,0,0:0:0:0:
256,192,6970,1,0,0:0:0:0:
256,192,7058,1,0,0:0:0:0:
256,192,7147,1,12,0:0:0:0:
256,192,7323,1,8,0:0:0:0:
256,192,7499,1,0,0:0:0:0:
256,192,7587,1,0,0:0:0:0:
256,192,7676,1,8,0:0:0:0:
256,192,7852,1,0,0:0:0:0:
256,192,7940,1,0,0:0:0:0:
256,192,8029,1,8,0:0:0:0:
256,192,8117,1,0,0:0:0:0:
256,192,8293,1,0,0:0:0:0:
256,192,8382,1,8,0:0:0:0:
256,192,8470,1,8,0:0:0:0:
256,192,8558,1,0,0:0:0:0:
256,192,8735,1,8,0:0:0:0:
256,192,8823,1,8,0:0:0:0:
256,192,8911,1,0,0:0:0:0:
256,192,8999,1,0,0:0:0:0:
256,192,9087,1,8,0:0:0:0:
256,192,9264,1,0,0:0:0:0:
256,192,9352,1,0,0:0:0:0:
256,192,9440,1,8,0:0:0:0:
256,192,9529,1,8,0:0:0:0:
256,192,9617,1,0,0:0:0:0:
256,192,9705,1,0,0:0:0:0:
256,192,9793,1,8,0:0:0:0:
256,192,9882,1,0,0:0:0:0:
256,192,9970,1,8,0:0:0:0:
256,192,10146,1,0,0:0:0:0:
256,192,10323,1,8,0:0:0:0:
256,192,10411,1,0,0:0:0:0:
256,192,10499,1,8,0:0:0:0:
256,192,10587,1,8,0:0:0:0:
256,192,10676,1,0,0:0:0:0:
256,192,10764,1,0,0:0:0:0:
256,192,10852,1,8,0:0:0:0:
256,192,10940,1,8,0:0:0:0:
256,192,11029,1,0,0:0:0:0:
256,192,11117,1,0,0:0:0:0:
256,192,11205,1,8,0:0:0:0:
256,192,11293,1,0,0:0:0:0:
256,192,11382,1,8,0:0:0:0:
256,192,11470,1,8,0:0:0:0:
256,192,11558,1,0,0:0:0:0:
256,192,11646,1,8,0:0:0:0:
256,192,11735,1,0,0:0:0:0:
256,192,11823,1,0,0:0:0:0:
256,192,11911,1,8,0:0:0:0:
256,192,11999,1,0,0:0:0:0:
256,192,12087,1,8,0:0:0:0:
256,192,12176,1,8,0:0:0:0:
256,192,12264,1,0,0:0:0:0:
256,192,12352,1,0,0:0:0:0:
256,192,12440,1,8,0:0:0:0:
256,192,12529,1,0,0:0:0:0:
256,192,12617,1,8,0:0:0:0:
256,192,12705,1,8,0:0:0:0:
256,192,12793,1,0,0:0:0:0:
256,192,12970,1,8,0:0:0:0:
256,192,13146,1,0,0:0:0:0:
256,192,13235,1,0,0:0:0:0:
256,192,13323,1,8,0:0:0:0:
256,192,13499,1,0,0:0:0:0:
256,192,13587,1,0,0:0:0:0:
256,192,13676,1,8,0:0:0:0:
256,192,13764,1,0,0:0:0:0:
256,192,13852,1,8,0:0:0:0:
256,192,14029,1,0,0:0:0:0:
256,192,14117,1,0,0:0:0:0:
256,192,14205,1,8,0:0:0:0:
256,192,14382,1,8,0:0:0:0:
256,192,14470,1,0,0:0:0:0:
256,192,14558,1,8,0:0:0:0:
256,192,14735,1,0,0:0:0:0:
256,192,14823,1,8,0:0:0:0:
256,192,14911,1,0,0:0:0:0:
256,192,14999,1,0,0:0:0:0:
256,192,15087,1,8,0:0:0:0:
256,192,15176,1,8,0:0:0:0:
256,192,15264,1,0,0:0:0:0:
256,192,15440,1,8,0:0:0:0:
256,192,15617,1,0,0:0:0:0:
256,192,15793,1,8,0:0:0:0:
256,192,15882,1,8,0:0:0:0:
256,192,15970,1,0,0:0:0:0:
256,192,16146,1,8,0:0:0:0:
256,192,16499,1,0,0:0:0:0:
256,192,16587,1,0,0:0:0:0:
256,192,16676,1,8,0:0:0:0:
256,192,16852,1,0,0:0:0:0:
256,192,17029,1,8,0:0:0:0:
256,192,17205,1,0,0:0:0:0:
256,192,17293,1,0,0:0:0:0:
256,192,17382,1,8,0:0:0:0:
256,192,17470,1,8,0:0:0:0:
256,192,17558,1,0,0:0:0:0:
256,192,17646,1,0,0:0:0:0:
256,192,17735,1,8,0:0:0:0:
256,192,17823,1,0,0:0:0:0:
256,192,17911,1,0,0:0:0:0:
256,192,17999,1,8,0:0:0:0:
256,192,18087,1,8,0:0:0:0:
256,192,18176,1,0,0:0:0:0:
256,192,18264,1,0,0:0:0:0:
256,192,18440,1,12,0:0:0:0:
256,192,18617,1,8,0:0:0:0:
256,192,18793,1,0,0:0:0:0:
256,192,18881,1,0,0:0:0:0:
256,192,18970,1,8,0:0:0:0:
256,192,19146,1,0,0:0:0:0:
256,192,19234,1,0,0:0:0:0:
256,192,19323,1,8,0:0:0:0:
256,192,19411,1,0,0:0:0:0:
256,192,19587,1,0,0:0:0:0:
256,192,19676,1,8,0:0:0:0:
256,192,19764,1,8,0:0:0:0:
256,192,19852,1,0,0:0:0:0:
256,192,20029,1,8,0:0:0:0:
256,192,20117,1,8,0:0:0:0:
256,192,20205,1,0,0:0:0:0:
256,192,20293,1,0,0:0:0:0:
256,192,20381,1,8,0:0:0:0:
256,192,20558,1,0,0:0:0:0:
256,192,20646,1,0,0:0:0:0:
256,192,20734,1,8,0:0:0:0:
256,192,20823,1,8,0:0:0:0:
256,192,20911,1,0,0:0:0:0:
256,192,20999,1,0,0:0:0:0:
256,192,21087,1,8,0:0:0:0:
256,192,21176,1,0,0:0:0:0:
256,192,21264,1,8,0:0:0:0:
256,192,21440,1,0,0:0:0:0:
256,192,21617,1,8,0:0:0:0:
256,192,21705,1,0,0:0:0:0:
256,192,21793,1,8,0:0:0:0:
256,192,21881,1,8,0:0:0:0:
256,192,21970,1,0,0:0:0:0:
256,192,22058,1,0,0:0:0:0:
256,192,22146,1,8,0:0:0:0:
256,192,22234,1,8,0:0:0:0:
256,192,22323,1,0,0:0:0:0:
256,192,22411,1,0,0:0:0:0:
256,192,22499,1,8,0:0:0:0:
256,192,22587,1,0,0:0:0:0:
256,192,22676,1,8,0:0:0:0:
256,192,22764,1,8,0:0:0:0:
256,192,22852,1,0,0:0:0:0:
256,192,22940,1,0,0:0:0:0:
256,192,23029,1,8,0:0:0:0:
256,192,23117,1,8,0:0:0:0:
256,192,23205,1,8,0:0:0:0:
256,192,23293,1,0,0:0:0:0:
256,192,23381,1,8,0:0:0:0:
256,192,23470,1,0,0:0:0:0:
256,192,23558,1,0,0:0:0:0:
256,192,23646,1,8,0:0:0:0:
256,192,23734,1,0,0:0:0:0:
256,192,23823,1,0,0:0:0:0:
256,192,23911,1,8,0:0:0:0:
256,192,23999,1,8,0:0:0:0:
256,192,24087,1,0,0:0:0:0:
256,192,24264,1,0,0:0:0:0:
256,192,24352,1,0,0:0:0:0:
256,192,24440,1,8,0:0:0:0:
256,192,24617,1,0,0:0:0:0:
256,192,24705,1,0,0:0:0:0:
256,192,24793,1,8,0:0:0:0:
256,192,24882,1,8,0:0:0:0:
256,192,24970,1,0,0:0:0:0:
256,192,25058,1,0,0:0:0:0:
256,192,25146,1,8,0:0:0:0:
256,192,25235,1,0,0:0:0:0:
256,192,25323,1,0,0:0:0:0:
256,192,25411,1,0,0:0:0:0:
256,192,25499,1,8,0:0:0:0:
256,192,25676,1,0,0:0:0:0:
256,192,25764,1,0,0:0:0:0:
256,192,25852,1,8,0:0:0:0:
256,192,26029,1,8,0:0:0:0:
256,192,26117,1,8,0:0:0:0:
256,192,26205,1,0,0:0:0:0:
256,192,26293,1,8,0:0:0:0:
256,192,26382,1,0,0:0:0:0:
256,192,26470,1,0,0:0:0:0:
256,192,26558,1,8,0:0:0:0:
256,192,26646,1,8,0:0:0:0:
256,192,26735,1,8,0:0:0:0:
256,192,26823,1,8,0:0:0:0:
256,192,26911,1,0,0:0:0:0:
256,192,27087,1,8,0:0:0:0:
256,192,27176,1,0,0:0:0:0:
256,192,27264,1,0,0:0:0:0:
256,192,27440,1,8,0:0:0:0:
256,192,27529,1,0,0:0:0:0:
256,192,27617,1,8,0:0:0:0:
256,192,27705,1,0,0:0:0:0:
256,192,27793,1,8,0:0:0:0:
256,192,27882,1,8,0:0:0:0:
256,192,27970,1,0,0:0:0:0:
256,192,28058,1,0,0:0:0:0:
256,192,28146,1,8,0:0:0:0:
256,192,28235,1,0,0:0:0:0:
256,192,28323,1,8,0:0:0:0:
256,192,28411,1,8,0:0:0:0:
256,192,28499,1,0,0:0:0:0:
256,192,28587,1,0,0:0:0:0:
256,192,28676,1,8,0:0:0:0:
256,192,28764,1,8,0:0:0:0:
256,192,28852,1,8,0:0:0:0:
256,192,28940,1,8,0:0:0:0:
256,192,29029,1,0,0:0:0:0:
256,192,29117,1,0,0:0:0:0:
256,192,29205,1,8,0:0:0:0:
256,192,29293,1,0,0:0:0:0:
256,192,29382,1,8,0:0:0:0:
256,192,29470,1,8,0:0:0:0:
256,192,29558,1,0,0:0:0:0:
256,192,29647,1,0,0:0:0:0:
256,192,29735,1,12,0:0:0:0:
256,192,29911,12,12,35029,0:0:0:0:
