osu file format v14

[General]
AudioFilename: audio.ogg
AudioLeadIn: 0
PreviewTime: 91
Countdown: 0
SampleSet: Normal
StackLeniency: 0.7
Mode: 1
LetterboxInBreaks: 0
WidescreenStoryboard: 1

[Editor]
Bookmarks: 7095,18389
DistanceSpacing: 1.8
BeatDivisor: 4
GridSize: 32
TimelineZoom: 0.7999998

[Metadata]
Title:Stop Posting About The Precious Thing
TitleUnicode:Stop Posting About The Precious Thing
Artist:Marisa
ArtistUnicode:Marisa
Creator:Faputa
Version:Oni
Source:東方Project
Tags:藤咲かりん Fujisaki Karin ARM with "loving" YOUNO ඞ Amongus Among Us Amogus meme tiktok biggayrapper Sussy Sus Remix Electronic English Novelty Touhou Project otomad 音mad IOSYS Team Shanghai Alice 上海アリス幻樂団 Marisa Stole the Precious Thing 魔理沙は大変なものを盗んでいきました Marisa wa Taihenna Taihen'na Taihen na Mono o Nusundeikimashita Doll Judgement ~ The Girl who Played with People's Shapes 人形裁判 ~ 人の形弄びし少女 Ningyou Saiban ~ Hito no katachi moteasobishi shoujo 東方妖々夢 ~ Perfect Cherry Blossom. Youyoumu Romantic Children 東方怪綺談 ~ Mystic Square. Kaikidan
BeatmapID:3891568
BeatmapSetID:1889476

[Difficulty]
HPDrainRate:6
CircleSize:2
OverallDifficulty:6
ApproachRate:10
SliderMultiplier:1.4
SliderTickRate:1

[Events]
//Background and Video events
0,0,"amogus.jpg",0,60
Video,44,"amongus.mp4"
//Break Periods
//Storyboard Layer 0 (Background)
//Storyboard Layer 1 (Fail)
//Storyboard Layer 2 (Pass)
//Storyboard Layer 3 (Foreground)
//Storyboard Layer 4 (Overlay)
//Storyboard Sound Samples

[TimingPoints]
-4147,352.941176470588,4,1,0,50,1,0
4673,-98.7650001749292,4,1,0,50,0,0
4761,-98.4618604164487,4,1,0,50,0,0
4849,-98.1605758197434,4,1,0,50,0,0
5026,-97.560132706663,4,1,0,50,0,0
5205,-96.6183574879227,4,1,0,50,0,0
5379,-96.3843081020178,4,1,0,50,0,0
5467,-96.0955849814481,4,1,0,50,0,0
5555,-95.8085864585101,4,1,0,50,0,0
5732,-95.2364887659402,4,1,0,50,0,0
5908,-94.6743577704742,4,1,0,50,0,0
6084,-94.118823764753,4,1,0,50,0,0
6173,-93.8403749626034,4,1,0,50,0,0
6261,-93.5666699811077,4,1,0,50,0,0
6349,-93.2945569913084,4,1,0,50,0,0
6437,-93.0240221438692,4,1,0,50,0,0
6614,-92.484602280173,4,1,0,50,0,0
6702,-92.218737749902,4,1,0,50,0,0
6790,-91.9543973941368,4,1,0,50,0,0
6967,-91.4272759659293,4,1,0,50,0,0
7058,-91.4272759659293,4,1,0,60,0,0
7147,-90.9090909090909,4,1,0,60,0,1
28323,-90.9090909090909,4,1,0,60,0,1
28408,-91.4270914270914,4,1,0,60,0,1
28496,-91.9510289137796,4,1,0,60,0,1
28584,-92.4810060256746,4,1,0,60,0,1
28673,-93.0232558139535,4,1,0,60,0,1
28849,-94.1145104312471,4,1,0,60,0,1
29026,-95.2380952380952,4,1,0,60,0,1
29202,-96.382252559727,4,1,0,60,0,1
29290,-96.9647026507348,4,1,0,60,0,1
29379,-97.5609756097561,4,1,0,60,0,1
29555,-98.7619780373505,4,1,0,60,0,1
29735,-100,4,1,0,60,0,0
29823,-100,4,1,0,40,0,0
30970,-100,4,1,0,30,0,0
32382,-100,4,1,0,20,0,0
33793,-100,4,1,0,10,0,0

[HitObjects]
256,192,88,5,0,0:0:0:0:
256,192,440,1,8,0:0:0:0:
256,192,617,1,8,0:0:0:0:
256,192,793,1,0,0:0:0:0:
256,192,1146,1,8,0:0:0:0:
256,192,1323,1,8,0:0:0:0:
256,192,1499,1,0,0:0:0:0:
256,192,1587,1,0,0:0:0:0:
256,192,1676,1,0,0:0:0:0:
256,192,1852,1,8,0:0:0:0:
256,192,2205,1,0,0:0:0:0:
256,192,2293,1,0,0:0:0:0:
256,192,2382,1,0,0:0:0:0:
256,192,2558,1,8,0:0:0:0:
256,192,2911,1,0,0:0:0:0:
256,192,2999,1,0,0:0:0:0:
256,192,3087,1,0,0:0:0:0:
256,192,3264,1,8,0:0:0:0:
256,192,3617,1,0,0:0:0:0:
256,192,3705,1,0,0:0:0:0:
256,192,3793,1,0,0:0:0:0:
256,192,3970,1,8,0:0:0:0:
256,192,4323,1,0,0:0:0:0:
256,192,4500,1,0,0:0:0:0:
256,192,4676,1,8,0:0:0:0:
256,192,4764,1,0,0:0:0:0:
256,192,4852,1,8,0:0:0:0:
256,192,5029,1,0,0:0:0:0:
256,192,5205,1,0,0:0:0:0:
256,192,5382,1,8,0:0:0:0:
256,192,5470,1,0,0:0:0:0:
256,192,5558,1,8,0:0:0:0:
256,192,5735,1,0,0:0:0:0:
256,192,5911,1,0,0:0:0:0:
256,192,6087,1,8,0:0:0:0:
256,192,6176,1,8,0:0:0:0:
256,192,6264,1,8,0:0:0:0:
256,192,6352,1,8,0:0:0:0:
256,192,6440,1,0,0:0:0:0:
256,192,6617,1,8,0:0:0:0:
256,192,6705,1,8,0:0:0:0:
256,192,6793,1,0,0:0:0:0:
256,192,6970,1,0,0:0:0:0:
256,192,7147,1,12,0:0:0:0:
256,192,7499,1,8,0:0:0:0:
256,192,7676,1,8,0:0:0:0:
256,192,7852,1,0,0:0:0:0:
256,192,8029,1,8,0:0:0:0:
256,192,8117,1,0,0:0:0:0:
256,192,8293,1,0,0:0:0:0:
256,192,8382,1,8,0:0:0:0:
256,192,8558,1,0,0:0:0:0:
256,192,8735,1,8,0:0:0:0:
256,192,8823,1,8,0:0:0:0:
256,192,8911,1,0,0:0:0:0:
256,192,9087,1,8,0:0:0:0:
256,192,9264,1,0,0:0:0:0:
256,192,9352,1,0,0:0:0:0:
256,192,9440,1,8,0:0:0:0:
256,192,9529,1,8,0:0:0:0:
256,192,9617,1,0,0:0:0:0:
256,192,9793,1,8,0:0:0:0:
256,192,9970,1,0,0:0:0:0:
256,192,10323,1,8,0:0:0:0:
256,192,10499,1,0,0:0:0:0:
256,192,10587,1,0,0:0:0:0:
256,192,10676,1,8,0:0:0:0:
256,192,10852,1,8,0:0:0:0:
256,192,11029,1,0,0:0:0:0:
256,192,11205,1,8,0:0:0:0:
256,192,11293,1,8,0:0:0:0:
256,192,11382,1,0,0:0:0:0:
256,192,11558,1,8,0:0:0:0:
256,192,11735,1,8,0:0:0:0:
256,192,11911,1,0,0:0:0:0:
256,192,11999,1,0,0:0:0:0:
256,192,12087,1,8,0:0:0:0:
256,192,12264,1,0,0:0:0:0:
256,192,12440,1,8,0:0:0:0:
256,192,12529,1,8,0:0:0:0:
256,192,12617,1,0,0:0:0:0:
256,192,12705,1,0,0:0:0:0:
256,192,12793,1,8,0:0:0:0:
256,192,13146,1,0,0:0:0:0:
256,192,13323,1,8,0:0:0:0:
256,192,13499,1,0,0:0:0:0:
256,192,13587,1,0,0:0:0:0:
256,192,13676,1,0,0:0:0:0:
256,192,13852,1,8,0:0:0:0:
256,192,14029,1,0,0:0:0:0:
256,192,14117,1,0,0:0:0:0:
256,192,14205,1,8,0:0:0:0:
256,192,14382,1,0,0:0:0:0:
256,192,14558,1,8,0:0:0:0:
256,192,14735,1,8,0:0:0:0:
256,192,14823,1,8,0:0:0:0:
256,192,14911,1,0,0:0:0:0:
256,192,15087,1,8,0:0:0:0:
256,192,15264,1,0,0:0:0:0:
256,192,15440,1,8,0:0:0:0:
256,192,15617,1,0,0:0:0:0:
256,192,15793,1,8,0:0:0:0:
256,192,15882,1,8,0:0:0:0:
256,192,15970,1,8,0:0:0:0:
256,192,16146,1,0,0:0:0:0:
256,192,16499,1,0,0:0:0:0:
256,192,16587,1,0,0:0:0:0:
256,192,16676,1,8,0:0:0:0:
256,192,16852,1,8,0:0:0:0:
256,192,17029,1,0,0:0:0:0:
256,192,17205,1,8,0:0:0:0:
256,192,17558,1,0,0:0:0:0:
256,192,17735,1,8,0:0:0:0:
256,192,17911,1,0,0:0:0:0:
256,192,17999,1,8,0:0:0:0:
256,192,18264,1,0,0:0:0:0:
256,192,18440,1,12,0:0:0:0:
256,192,18793,1,8,0:0:0:0:
256,192,18970,1,8,0:0:0:0:
256,192,19146,1,0,0:0:0:0:
256,192,19323,1,8,0:0:0:0:
256,192,19411,1,0,0:0:0:0:
256,192,19587,1,0,0:0:0:0:
256,192,19676,1,8,0:0:0:0:
256,192,19852,1,0,0:0:0:0:
256,192,20029,1,8,0:0:0:0:
256,192,20117,1,8,0:0:0:0:
256,192,20205,1,0,0:0:0:0:
256,192,20381,1,8,0:0:0:0:
256,192,20558,1,0,0:0:0:0:
256,192,20646,1,0,0:0:0:0:
256,192,20734,1,8,0:0:0:0:
256,192,20823,1,8,0:0:0:0:
256,192,20911,1,0,0:0:0:0:
256,192,21087,1,8,0:0:0:0:
256,192,21264,1,0,0:0:0:0:
256,192,21617,1,8,0:0:0:0:
256,192,21793,1,0,0:0:0:0:
256,192,21881,1,0,0:0:0:0:
256,192,21970,1,8,0:0:0:0:
256,192,22146,1,8,0:0:0:0:
256,192,22323,1,0,0:0:0:0:
256,192,22499,1,8,0:0:0:0:
256,192,22587,1,8,0:0:0:0:
256,192,22676,1,0,0:0:0:0:
256,192,22852,1,8,0:0:0:0:
256,192,23029,1,8,0:0:0:0:
256,192,23205,1,0,0:0:0:0:
256,192,23293,1,0,0:0:0:0:
256,192,23381,1,8,0:0:0:0:
256,192,23558,1,0,0:0:0:0:
256,192,23646,1,8,0:0:0:0:
256,192,23911,1,0,0:0:0:0:
256,192,24087,1,8,0:0:0:0:
256,192,24440,1,8,0:0:0:0:
256,192,24617,1,0,0:0:0:0:
256,192,24705,1,0,0:0:0:0:
256,192,24793,1,8,0:0:0:0:
256,192,24882,1,8,0:0:0:0:
256,192,24970,1,0,0:0:0:0:
256,192,25146,1,8,0:0:0:0:
256,192,25323,1,0,0:0:0:0:
256,192,25499,1,8,0:0:0:0:
256,192,25676,1,0,0:0:0:0:
256,192,25852,1,8,0:0:0:0:
256,192,26029,1,8,0:0:0:0:
256,192,26117,1,8,0:0:0:0:
256,192,26205,1,0,0:0:0:0:
256,192,26382,1,0,0:0:0:0:
256,192,26558,1,8,0:0:0:0:
256,192,26646,1,8,0:0:0:0:
256,192,26735,1,8,0:0:0:0:
256,192,26911,1,0,0:0:0:0:
256,192,27087,1,0,0:0:0:0:
256,192,27264,1,8,0:0:0:0:
256,192,27440,1,8,0:0:0:0:
256,192,27617,1,0,0:0:0:0:
256,192,27705,1,0,0:0:0:0:
256,192,27793,1,0,0:0:0:0:
256,192,27882,1,0,0:0:0:0:
256,192,27970,1,8,0:0:0:0:
256,192,28146,1,0,0:0:0:0:
256,192,28323,1,8,0:0:0:0:
256,192,28411,1,8,0:0:0:0:
256,192,28499,1,0,0:0:0:0:
256,192,28587,1,0,0:0:0:0:
256,192,28676,1,8,0:0:0:0:
256,192,28852,1,8,0:0:0:0:
256,192,29029,1,0,0:0:0:0:
256,192,29205,1,8,0:0:0:0:
256,192,29293,1,8,0:0:0:0:
256,192,29382,1,0,0:0:0:0:
256,192,29558,1,0,0:0:0:0:
256,192,29735,1,12,0:0:0:0:
256,192,29911,12,12,35029,0:0:0:0:
