osu file format v14

[General]
AudioFilename: audio.ogg
AudioLeadIn: 0
PreviewTime: 91
Countdown: 0
SampleSet: Normal
StackLeniency: 0.7
Mode: 1
LetterboxInBreaks: 0
WidescreenStoryboard: 1

[Editor]
Bookmarks: 7095,18389
DistanceSpacing: 1.8
BeatDivisor: 4
GridSize: 32
TimelineZoom: 1.5

[Metadata]
Title:Stop Posting About The Precious Thing
TitleUnicode:Stop Posting About The Precious Thing
Artist:Marisa
ArtistUnicode:Marisa
Creator:Faputa
Version:Muzukashii
Source:東方Project
Tags:藤咲かりん Fujisaki Karin ARM with "loving" YOUNO ඞ Amongus Among Us Amogus meme tiktok biggayrapper Sussy Sus Remix Electronic English Novelty Touhou Project otomad 音mad IOSYS Team Shanghai Alice 上海アリス幻樂団 Marisa Stole the Precious Thing 魔理沙は大変なものを盗んでいきました Marisa wa Taihenna Taihen'na Taihen na Mono o Nusundeikimashita Doll Judgement ~ The Girl who Played with People's Shapes 人形裁判 ~ 人の形弄びし少女 Ningyou Saiban ~ Hito no katachi moteasobishi shoujo 東方妖々夢 ~ Perfect Cherry Blossom. Youyoumu Romantic Children 東方怪綺談 ~ Mystic Square. Kaikidan
BeatmapID:3891567
BeatmapSetID:1889476

[Difficulty]
HPDrainRate:7
CircleSize:2
OverallDifficulty:5
ApproachRate:10
SliderMultiplier:1.4
SliderTickRate:1

[Events]
//Background and Video events
0,0,"amogus.jpg",0,60
Video,44,"amongus.mp4"
//Break Periods
//Storyboard Layer 0 (Background)
//Storyboard Layer 1 (Fail)
//Storyboard Layer 2 (Pass)
//Storyboard Layer 3 (Foreground)
//Storyboard Layer 4 (Overlay)
//Storyboard Sound Samples

[TimingPoints]
-4147,352.941176470588,4,1,0,50,1,0
4849,-99.0717506887294,4,1,0,50,0,0
5026,-98.7650001749292,4,1,0,50,0,0
5555,-97.8594332264494,4,1,0,50,0,0
5732,-97.560132706663,4,1,0,50,0,0
5908,-97.2643329658214,4,1,0,50,0,0
6084,-96.9703215169002,4,1,0,50,0,0
6261,-96.6764267735142,4,1,0,50,0,0
6437,-96.3859535312495,4,1,0,50,0,0
6526,-96.2397299969318,4,1,0,50,0,0
6614,-96.0955849814481,4,1,0,50,0,0
6790,-95.8085864585101,4,1,0,50,0,0
6967,-95.5216810191686,4,1,0,50,0,0
7058,-95.5216810191686,4,1,0,60,0,0
7147,-95.2380952380952,4,1,0,60,0,1
28323,-95.2380952380952,4,1,0,60,0,1
28496,-95.8067580404397,4,1,0,60,0,1
28584,-96.0936436640806,4,1,0,60,0,1
28673,-96.3855421686747,4,1,0,60,0,1
28849,-96.9680321395461,4,1,0,60,0,1
28937,-97.2619252626141,4,1,0,60,0,1
29026,-97.5609756097561,4,1,0,60,0,1
29202,-98.1578032672923,4,1,0,60,0,1
29379,-98.7654320987654,4,1,0,60,0,1
29555,-99.3771334060598,4,1,0,60,0,1
29735,-100,4,1,0,60,0,0
29823,-100,4,1,0,40,0,0
30970,-100,4,1,0,30,0,0
32382,-100,4,1,0,20,0,0
33793,-100,4,1,0,10,0,0

[HitObjects]
256,192,88,5,0,0:0:0:0:
256,192,440,1,8,0:0:0:0:
256,192,617,1,8,0:0:0:0:
256,192,793,1,0,0:0:0:0:
256,192,1146,1,8,0:0:0:0:
256,192,1323,1,8,0:0:0:0:
256,192,1499,1,0,0:0:0:0:
256,192,1676,1,0,0:0:0:0:
256,192,1852,1,8,0:0:0:0:
256,192,2205,1,0,0:0:0:0:
256,192,2382,1,0,0:0:0:0:
256,192,2558,1,8,0:0:0:0:
256,192,2911,1,0,0:0:0:0:
256,192,3087,1,0,0:0:0:0:
256,192,3264,1,8,0:0:0:0:
256,192,3617,1,0,0:0:0:0:
256,192,3793,1,0,0:0:0:0:
256,192,3970,1,8,0:0:0:0:
256,192,4146,1,8,0:0:0:0:
256,192,4323,1,0,0:0:0:0:
256,192,4852,1,8,0:0:0:0:
256,192,5029,1,0,0:0:0:0:
256,192,5558,1,8,0:0:0:0:
256,192,5735,1,0,0:0:0:0:
256,192,5911,1,0,0:0:0:0:
256,192,6087,1,8,0:0:0:0:
256,192,6264,1,8,0:0:0:0:
256,192,6440,1,0,0:0:0:0:
256,192,6529,1,0,0:0:0:0:
256,192,6617,1,0,0:0:0:0:
256,192,6793,1,8,0:0:0:0:
256,192,6970,1,0,0:0:0:0:
256,192,7147,1,12,0:0:0:0:
256,192,7499,1,0,0:0:0:0:
256,192,7676,1,8,0:0:0:0:
256,192,7852,1,0,0:0:0:0:
256,192,8117,1,8,0:0:0:0:
256,192,8382,1,0,0:0:0:0:
256,192,8470,1,0,0:0:0:0:
256,192,8558,1,0,0:0:0:0:
256,192,9087,1,8,0:0:0:0:
256,192,9264,1,0,0:0:0:0:
256,192,9440,1,8,0:0:0:0:
256,192,9529,1,8,0:0:0:0:
256,192,9617,1,8,0:0:0:0:
256,192,9793,1,8,0:0:0:0:
256,192,9970,1,0,0:0:0:0:
256,192,10323,1,8,0:0:0:0:
256,192,10499,1,8,0:0:0:0:
256,192,10676,1,0,0:0:0:0:
256,192,10852,1,0,0:0:0:0:
256,192,11205,1,8,0:0:0:0:
256,192,11382,1,8,0:0:0:0:
256,192,11558,1,0,0:0:0:0:
256,192,11735,1,0,0:0:0:0:
256,192,12087,1,8,0:0:0:0:
256,192,12440,1,0,0:0:0:0:
256,192,12617,1,0,0:0:0:0:
256,192,12793,1,8,0:0:0:0:
256,192,13323,1,8,0:0:0:0:
256,192,13499,1,0,0:0:0:0:
256,192,13676,1,0,0:0:0:0:
256,192,13852,1,8,0:0:0:0:
256,192,14029,1,0,0:0:0:0:
256,192,14205,1,8,0:0:0:0:
256,192,14558,1,8,0:0:0:0:
256,192,14735,1,0,0:0:0:0:
256,192,14823,1,0,0:0:0:0:
256,192,14911,1,0,0:0:0:0:
256,192,15087,1,0,0:0:0:0:
256,192,15264,1,8,0:0:0:0:
256,192,15440,1,8,0:0:0:0:
256,192,15617,1,0,0:0:0:0:
256,192,15970,1,8,0:0:0:0:
256,192,16146,1,0,0:0:0:0:
256,192,16499,1,0,0:0:0:0:
256,192,16676,1,8,0:0:0:0:
256,192,16852,1,8,0:0:0:0:
256,192,17029,1,0,0:0:0:0:
256,192,17205,1,8,0:0:0:0:
256,192,17735,1,8,0:0:0:0:
256,192,17999,1,8,0:0:0:0:
256,192,18264,1,0,0:0:0:0:
256,192,18440,1,12,0:0:0:0:
256,192,18793,1,0,0:0:0:0:
256,192,18970,1,8,0:0:0:0:
256,192,19146,1,0,0:0:0:0:
256,192,19411,1,8,0:0:0:0:
256,192,19676,1,0,0:0:0:0:
256,192,19764,1,0,0:0:0:0:
256,192,19852,1,0,0:0:0:0:
256,192,20381,1,8,0:0:0:0:
256,192,20558,1,0,0:0:0:0:
256,192,20734,1,8,0:0:0:0:
256,192,20823,1,8,0:0:0:0:
256,192,20911,1,8,0:0:0:0:
256,192,21087,1,8,0:0:0:0:
256,192,21264,1,0,0:0:0:0:
256,192,21617,1,8,0:0:0:0:
256,192,21793,1,8,0:0:0:0:
256,192,21970,1,0,0:0:0:0:
256,192,22146,1,0,0:0:0:0:
256,192,22499,1,8,0:0:0:0:
256,192,22676,1,8,0:0:0:0:
256,192,22852,1,0,0:0:0:0:
256,192,23029,1,8,0:0:0:0:
256,192,23381,1,8,0:0:0:0:
256,192,23646,1,0,0:0:0:0:
256,192,23911,1,0,0:0:0:0:
256,192,24087,1,8,0:0:0:0:
256,192,24440,1,8,0:0:0:0:
256,192,24617,1,0,0:0:0:0:
256,192,25146,1,8,0:0:0:0:
256,192,25323,1,0,0:0:0:0:
256,192,25499,1,8,0:0:0:0:
256,192,25852,1,0,0:0:0:0:
256,192,26029,1,8,0:0:0:0:
256,192,26382,1,0,0:0:0:0:
256,192,26558,1,8,0:0:0:0:
256,192,26911,1,0,0:0:0:0:
256,192,27087,1,0,0:0:0:0:
256,192,27264,1,8,0:0:0:0:
256,192,27440,1,8,0:0:0:0:
256,192,27617,1,0,0:0:0:0:
256,192,27705,1,0,0:0:0:0:
256,192,27793,1,0,0:0:0:0:
256,192,27970,1,8,0:0:0:0:
256,192,28146,1,0,0:0:0:0:
256,192,28323,1,8,0:0:0:0:
256,192,28499,1,0,0:0:0:0:
256,192,28587,1,0,0:0:0:0:
256,192,28676,1,0,0:0:0:0:
256,192,28852,1,8,0:0:0:0:
256,192,28940,1,8,0:0:0:0:
256,192,29029,1,8,0:0:0:0:
256,192,29205,1,0,0:0:0:0:
256,192,29382,1,8,0:0:0:0:
256,192,29558,1,0,0:0:0:0:
256,192,29735,1,12,0:0:0:0:
256,192,29911,12,12,35029,0:0:0:0:
