osu file format v14

[General]
AudioFilename: audio.ogg
AudioLeadIn: 0
PreviewTime: 91
Countdown: 0
SampleSet: Normal
StackLeniency: 0.7
Mode: 1
LetterboxInBreaks: 0
WidescreenStoryboard: 1

[Editor]
Bookmarks: 7095,18389
DistanceSpacing: 1.8
BeatDivisor: 4
GridSize: 32
TimelineZoom: 1.5

[Metadata]
Title:Stop Posting About The Precious Thing
TitleUnicode:Stop Posting About The Precious Thing
Artist:Marisa
ArtistUnicode:Marisa
Creator:Faputa
Version:Futsuu
Source:東方Project
Tags:藤咲かりん Fujisaki Karin ARM with "loving" YOUNO ඞ Amongus Among Us Amogus meme tiktok biggayrapper Sussy Sus Remix Electronic English Novelty Touhou Project otomad 音mad IOSYS Team Shanghai Alice 上海アリス幻樂団 Marisa Stole the Precious Thing 魔理沙は大変なものを盗んでいきました Marisa wa Taihenna Taihen'na Taihen na Mono o Nusundeikimashita Doll Judgement ~ The Girl who Played with People's Shapes 人形裁判 ~ 人の形弄びし少女 Ningyou Saiban ~ Hito no katachi moteasobishi shoujo 東方妖々夢 ~ Perfect Cherry Blossom. Youyoumu Romantic Children 東方怪綺談 ~ Mystic Square. Kaikidan
BeatmapID:3891564
BeatmapSetID:1889476

[Difficulty]
HPDrainRate:8
CircleSize:2
OverallDifficulty:4
ApproachRate:10
SliderMultiplier:1.4
SliderTickRate:1

[Events]
//Background and Video events
0,0,"amogus.jpg",0,60
Video,44,"amongus.mp4"
//Break Periods
//Storyboard Layer 0 (Background)
//Storyboard Layer 1 (Fail)
//Storyboard Layer 2 (Pass)
//Storyboard Layer 3 (Foreground)
//Storyboard Layer 4 (Overlay)
//Storyboard Sound Samples

[TimingPoints]
-4147,352.941176470588,4,1,0,50,1,0
7058,-100,4,1,0,60,0,0
7147,-100,4,1,0,60,0,1
29735,-100,4,1,0,60,0,0
29823,-100,4,1,0,40,0,0
30970,-100,4,1,0,30,0,0
32382,-100,4,1,0,20,0,0
33793,-100,4,1,0,10,0,0

[HitObjects]
256,192,88,5,0,0:0:0:0:
256,192,440,1,8,0:0:0:0:
256,192,617,1,8,0:0:0:0:
256,192,793,1,0,0:0:0:0:
256,192,1146,1,8,0:0:0:0:
256,192,1499,1,0,0:0:0:0:
256,192,2205,1,0,0:0:0:0:
256,192,2558,1,8,0:0:0:0:
256,192,2735,1,8,0:0:0:0:
256,192,2911,1,0,0:0:0:0:
256,192,3617,1,0,0:0:0:0:
256,192,3970,1,8,0:0:0:0:
256,192,4146,1,8,0:0:0:0:
256,192,4323,1,0,0:0:0:0:
256,192,5029,1,0,0:0:0:0:
256,192,5735,1,0,0:0:0:0:
256,192,6087,1,0,0:0:0:0:
256,192,6440,1,8,0:0:0:0:
256,192,6617,1,8,0:0:0:0:
256,192,6793,1,0,0:0:0:0:
256,192,6970,1,0,0:0:0:0:
256,192,7147,1,12,0:0:0:0:
256,192,7852,1,0,0:0:0:0:
256,192,8205,1,0,0:0:0:0:
256,192,8382,1,0,0:0:0:0:
256,192,8558,1,8,0:0:0:0:
256,192,8911,1,0,0:0:0:0:
256,192,9264,1,8,0:0:0:0:
256,192,9617,1,8,0:0:0:0:
256,192,9793,1,8,0:0:0:0:
256,192,9970,1,0,0:0:0:0:
256,192,10323,1,8,0:0:0:0:
256,192,10676,1,0,0:0:0:0:
256,192,10852,1,0,0:0:0:0:
256,192,11205,1,8,0:0:0:0:
256,192,11558,1,0,0:0:0:0:
256,192,11735,1,0,0:0:0:0:
256,192,12087,1,8,0:0:0:0:
256,192,12440,1,0,0:0:0:0:
256,192,12617,1,0,0:0:0:0:
256,192,12793,1,8,0:0:0:0:
256,192,13499,1,8,0:0:0:0:
256,192,13852,1,8,0:0:0:0:
256,192,14205,1,0,0:0:0:0:
256,192,14558,1,8,0:0:0:0:
256,192,14735,1,0,0:0:0:0:
256,192,15087,1,0,0:0:0:0:
256,192,15264,1,8,0:0:0:0:
256,192,15440,1,8,0:0:0:0:
256,192,15617,1,0,0:0:0:0:
256,192,16146,1,0,0:0:0:0:
256,192,16676,1,8,0:0:0:0:
256,192,17029,1,0,0:0:0:0:
256,192,17205,1,8,0:0:0:0:
256,192,17735,1,0,0:0:0:0:
256,192,17999,1,0,0:0:0:0:
256,192,18264,1,0,0:0:0:0:
256,192,18440,1,12,0:0:0:0:
256,192,19146,1,0,0:0:0:0:
256,192,19499,1,0,0:0:0:0:
256,192,19676,1,0,0:0:0:0:
256,192,19852,1,8,0:0:0:0:
256,192,20205,1,0,0:0:0:0:
256,192,20558,1,8,0:0:0:0:
256,192,20911,1,8,0:0:0:0:
256,192,21087,1,8,0:0:0:0:
256,192,21264,1,0,0:0:0:0:
256,192,21617,1,8,0:0:0:0:
256,192,21970,1,0,0:0:0:0:
256,192,22146,1,0,0:0:0:0:
256,192,22499,1,8,0:0:0:0:
256,192,22852,1,0,0:0:0:0:
256,192,23029,1,8,0:0:0:0:
256,192,23381,1,8,0:0:0:0:
256,192,24087,1,8,0:0:0:0:
256,192,24440,1,8,0:0:0:0:
256,192,24617,1,0,0:0:0:0:
256,192,25146,1,0,0:0:0:0:
256,192,25499,1,8,0:0:0:0:
256,192,25852,1,0,0:0:0:0:
256,192,26029,1,8,0:0:0:0:
256,192,26558,1,0,0:0:0:0:
256,192,26911,1,0,0:0:0:0:
256,192,27264,1,8,0:0:0:0:
256,192,27617,1,0,0:0:0:0:
256,192,27793,1,0,0:0:0:0:
256,192,27970,1,8,0:0:0:0:
256,192,28146,1,0,0:0:0:0:
256,192,28323,1,8,0:0:0:0:
256,192,28676,1,0,0:0:0:0:
256,192,28852,1,0,0:0:0:0:
256,192,29029,1,8,0:0:0:0:
256,192,29205,1,8,0:0:0:0:
256,192,29382,1,0,0:0:0:0:
256,192,29735,1,12,0:0:0:0:
256,192,29911,12,12,35029,0:0:0:0:
