osu file format v14

[General]
AudioFilename: audio.mp3
AudioLeadIn: 0
PreviewTime: 48378
Countdown: 0
SampleSet: Soft
StackLeniency: 0.7
Mode: 0
LetterboxInBreaks: 0
WidescreenStoryboard: 0

[Editor]
DistanceSpacing: 1.2
BeatDivisor: 4
GridSize: 4
TimelineZoom: 1.6

[Metadata]
Title:Never Say Goodbye
TitleUnicode:Never Say Goodbye
Artist:Mario&
ArtistUnicode:마리오앤드
Creator:-Aerith-
Version:Hard
Source:마이걸
Tags:My Girl SBS Drama Special 2005 tv series ending romance drama comedy Minorsonek Aeril
BeatmapID:1538850
BeatmapSetID:728961

[Difficulty]
HPDrainRate:6
CircleSize:3.8
OverallDifficulty:6
ApproachRate:7
SliderMultiplier:1.6
SliderTickRate:2

[Events]
//Background and Video events
0,0,"BG.jpg",0,0
//Break Periods
//Storyboard Layer 0 (Background)
//Storyboard Layer 1 (Fail)
//Storyboard Layer 2 (Pass)
//Storyboard Layer 3 (Foreground)
//Storyboard Sound Samples

[TimingPoints]
528,600,4,2,1,60,1,0
71628,-125,4,2,1,60,0,0
71928,-125,4,2,1,5,0,0
72078,-90.9090909090909,4,2,1,60,0,0
72378,-90.9090909090909,4,2,1,5,0,0
72528,-83.3333333333333,4,2,1,65,0,0
91728,-83.3333333333333,4,2,1,60,0,0

[Colours]
Combo1 : 238,253,179
Combo2 : 165,5,78
Combo3 : 82,66,147
Combo4 : 255,255,255

[HitObjects]
60,112,2928,6,0,P|88:80|144:76,1,80,4|2,3:2|3:2,0:0:0:0:
144,76,3378,1,0,3:0:0:0:
160,92,3528,2,0,L|168:184,1,80,10|2,0:2|3:2,0:0:0:0:
252,272,4128,2,0,L|268:180,1,80,2|2,3:2|3:2,0:0:0:0:
276,176,4578,1,0,3:0:0:0:
292,156,4728,2,0,P|332:140|384:156,1,80,8|2,0:0|3:2,0:0:0:0:
492,248,5328,6,0,P|452:260|404:248,1,80,2|2,3:2|3:2,0:0:0:0:
392,252,5778,1,0,3:0:0:0:
372,260,5928,2,0,P|364:296|360:352,1,80,8|2,0:0|3:2,0:0:0:0:
240,272,6528,2,0,P|244:228|232:184,1,80,2|2,3:2|3:2,0:0:0:0:
336,216,7128,1,8,0:0:0:0:
144,232,7428,1,2,3:2:0:0:
336,216,7728,6,0,P|320:128|360:72,1,160,2|10,3:2|0:0,0:0:0:0:
468,20,8628,1,2,3:2:0:0:
468,20,8778,1,0,3:0:0:0:
468,20,8928,2,0,P|480:64|468:108,1,80,2|2,3:2|3:2,0:0:0:0:
396,169,9528,2,0,P|359:184|336:216,1,80,8|2,0:0|3:2,0:0:0:0:
408,312,10128,6,0,P|344:352|264:316,1,160,2|8,3:2|0:0,0:0:0:0:
184,248,11028,1,2,3:2:0:0:
184,248,11178,1,0,3:0:0:0:
184,248,11328,2,0,P|180:204|188:160,1,80,2|2,3:2|3:2,0:0:0:0:
84,208,11928,1,8,0:0:0:0:
284,208,12228,1,2,3:2:0:0:
84,208,12528,6,0,P|80:120|84:48,1,160,2|8,3:2|0:0,0:0:0:0:
204,12,13428,1,2,3:2:0:0:
204,12,13578,1,0,3:0:0:0:
204,12,13728,2,0,P|206:58|204:96,1,80,2|2,3:2|3:2,0:0:0:0:
276,188,14328,2,0,P|316:192|372:180,1,80,8|2,0:0|3:2,0:0:0:0:
484,112,14928,6,0,L|476:272,1,160,2|8,3:2|0:0,0:0:0:0:
360,328,15828,1,2,3:2:0:0:
360,328,15978,1,0,3:0:0:0:
360,328,16128,2,0,P|312:336|272:328,1,80,2|2,3:2|3:2,0:0:0:0:
112,260,16728,2,0,P|156:248|216:260,1,80,8|2,0:0|3:2,0:0:0:0:
296,192,17328,6,0,L|284:20,1,160,2|8,3:2|0:0,0:0:0:0:
416,88,18228,2,0,L|412:148,1,40,2|0,3:2|3:0,0:0:0:0:
424,152,18528,2,0,P|464:140|512:152,1,80,2|2,3:2|3:2,0:0:0:0:
464,272,19128,2,0,P|412:280|376:268,1,80,10|0,0:0|3:0,0:0:0:0:
284,216,19728,6,0,P|272:252|272:296,1,80,2|0,3:2|3:0,0:0:0:0:
172,356,20328,2,0,P|176:316|164:264,1,80,10|2,0:0|3:2,0:0:0:0:
16,216,20928,2,0,P|52:196|116:204,1,80,2|0,3:2|3:0,0:0:0:0:
184,128,21528,2,0,P|188:80|176:32,1,80,10|2,0:0|3:2,0:0:0:0:
84,88,22128,5,2,3:2:0:0:
288,68,22428,1,0,3:0:0:0:
372,164,22728,1,2,3:2:0:0:
488,88,23028,1,0,3:0:0:0:
472,245,23328,2,0,P|468:169|490:82,1,160,2|10,3:2|0:0,0:0:0:0:
360,8,24528,6,0,P|368:48|360:108,1,80,6|2,3:2|3:2,0:0:0:0:
355,106,24978,1,2,3:2:0:0:
336,120,25128,2,0,P|292:128|248:124,1,80,8|2,0:0|3:2,0:0:0:0:
240,100,25578,1,2,3:2:0:0:
216,80,25728,6,0,P|176:75|138:86,1,80,2|2,3:2|3:2,0:0:0:0:
112,104,26178,1,2,3:2:0:0:
96,124,26328,2,0,P|88:180|92:220,1,80,8|2,0:0|3:2,0:0:0:0:
104,248,26778,1,0,3:0:0:0:
104,248,26928,6,0,P|56:252|4:264,2,80,2|0|10,3:2|3:0|0:0,0:0:0:0:
256,232,27828,1,2,3:2:0:0:
192,352,28128,1,2,3:2:0:0:
352,328,28428,1,2,3:2:0:0:
352,328,28728,6,0,P|396:332|452:328,1,80,10|2,0:0|3:2,0:0:0:0:
456,312,29178,1,0,3:0:0:0:
472,288,29328,2,0,L|476:200,1,80,2|2,3:2|3:2,0:0:0:0:
472,176,29778,1,0,3:0:0:0:
464,148,29928,6,0,P|420:144|372:148,1,80,10|2,0:0|3:2,0:0:0:0:
356,152,30378,1,0,3:0:0:0:
332,164,30528,2,0,L|324:76,1,80,2|2,3:2|3:2,0:0:0:0:
292,48,30978,1,0,3:0:0:0:
292,48,31128,6,0,P|252:40|208:60,1,80,10|2,0:0|3:2,0:0:0:0:
144,128,31728,1,2,3:2:0:0:
144,128,32028,2,0,L|148:192,1,40,2|0,3:2|3:0,0:0:0:0:
108,200,32328,2,0,L|112:252,1,40,10|0,0:0|3:0,0:0:0:0:
92,284,32628,6,0,P|48:280|8:300,2,80,2|2|2,3:2|3:2|3:2,0:0:0:0:
184,360,33528,1,10,0:0:0:0:
184,360,33828,2,0,L|244:356,1,40,2|0,3:2|3:0,0:0:0:0:
256,320,34128,6,0,P|260:276|268:224,1,80,2|2,3:2|3:2,0:0:0:0:
360,268,34728,2,0,P|360:216|356:168,1,80,10|2,0:0|3:2,0:0:0:0:
384,96,35328,2,0,P|424:84|480:96,2,80,2|0|10,3:2|3:0|0:0,0:0:0:0:
292,128,36228,2,0,L|236:128,1,40,2|0,3:2|3:0,0:0:0:0:
212,100,36528,6,0,P|204:56|196:12,1,80,2|2,3:2|3:2,0:0:0:0:
116,76,37128,2,0,P|112:112|108:168,1,80,10|2,0:0|3:2,0:0:0:0:
56,256,37728,2,0,P|93:245|133:253,1,80,2|2,3:2|3:2,0:0:0:0:
208,328,38328,2,0,L|256:324,1,40,10|0,0:0|3:0,0:0:0:0:
288,352,38628,2,0,L|340:348,1,40,2|0,3:2|3:0,0:0:0:0:
364,316,38928,6,0,P|372:268|376:228,1,80,2|2,3:2|3:2,0:0:0:0:
416,148,39528,2,0,P|376:140|337:148,1,80,10|2,0:0|3:2,0:0:0:0:
272,64,40128,2,0,P|244:96|232:140,1,80,2|2,3:2|3:2,0:0:0:0:
124,128,40728,2,0,P|128:172|148:208,1,80,10|2,0:0|3:2,0:0:0:0:
116,311,41328,6,0,L|196:304,1,80,2|0,3:2|3:0,0:0:0:0:
292,348,41928,2,0,L|388:342,1,80,10|2,0:0|3:2,0:0:0:0:
452,264,42528,2,0,P|456:216|444:168,1,80,2|2,3:2|3:2,0:0:0:0:
448,72,43128,2,0,P|408:76|368:108,1,80,10|2,0:0|3:2,0:0:0:0:
328,200,43728,6,0,P|251:204|168:204,1,160,2|10,3:2|0:0,0:0:0:0:
80,128,44628,1,2,3:2:0:0:
60,148,44778,1,0,3:0:0:0:
44,176,44928,2,0,P|36:224|48:272,1,80,2|2,3:2|3:2,0:0:0:0:
52,284,45378,1,0,3:0:0:0:
80,304,45528,2,0,P|120:308|180:300,1,80,10|2,0:0|3:2,0:0:0:0:
252,344,46128,6,0,L|252:252,1,80,2|2,3:2|3:2,0:0:0:0:
264,228,46578,1,0,3:0:0:0:
288,204,46728,2,0,P|324:188|384:204,1,80,10|2,0:0|3:2,0:0:0:0:
392,208,47178,1,0,3:0:0:0:
416,232,47328,2,0,L|420:132,1,80,2|0,3:2|3:0,0:0:0:0:
480,52,47928,1,8,0:0:0:0:
480,52,48078,1,0,3:0:0:0:
480,52,48528,6,0,P|408:24|344:76,1,160,4|8,3:2|0:0,0:0:0:0:
320,156,49428,1,0,3:0:0:0:
320,156,49578,1,0,3:0:0:0:
320,156,49728,2,0,L|324:240,1,80,0|0,3:0|3:0,0:0:0:0:
256,314,50328,2,0,P|216:322|164:310,1,80,8|0,0:0|3:0,0:0:0:0:
102,250,50928,6,0,L|94:82,1,160,0|8,3:0|0:0,0:0:0:0:
184,44,51828,1,0,3:0:0:0:
184,44,51978,1,0,3:0:0:0:
184,44,52128,2,0,L|189:135,1,80,0|0,3:0|3:0,0:0:0:0:
276,192,52728,1,8,0:0:0:0:
359,119,53028,1,0,3:0:0:0:
364,279,53328,6,0,L|359:117,1,160,0|8,3:0|0:0,0:0:0:0:
396,24,54228,1,0,3:0:0:0:
396,24,54378,1,0,3:0:0:0:
396,24,54528,2,0,P|356:20|316:28,1,80,0|0,3:0|3:0,0:0:0:0:
256,104,55128,2,0,P|216:112|168:104,1,80,8|0,0:0|3:0,0:0:0:0:
80,32,55728,6,0,L|88:200,1,160,0|8,3:0|0:0,0:0:0:0:
52,296,56628,1,0,3:0:0:0:
52,296,56778,1,0,3:0:0:0:
52,296,56928,2,0,P|96:300|136:292,1,80,0|0,3:0|3:0,0:0:0:0:
224,216,57528,1,8,0:0:0:0:
336,272,57828,1,0,3:0:0:0:
328,112,58128,6,0,L|335:271,1,160,0|8,3:0|0:0,0:0:0:0:
428,204,59028,1,0,3:0:0:0:
428,204,59178,1,0,3:0:0:0:
428,204,59328,2,0,L|428:108,1,80,0|0,3:0|3:0,0:0:0:0:
468,28,59928,2,0,P|428:20|376:36,1,80,8|0,0:0|3:0,0:0:0:0:
328,112,60528,6,0,B|264:116|264:116|240:108|240:108|160:112,1,160,0|8,3:0|0:0,0:0:0:0:
80,40,61428,1,0,3:0:0:0:
80,40,61578,1,0,3:0:0:0:
80,40,61728,2,0,P|60:76|56:116,1,80,0|0,3:0|3:0,0:0:0:0:
96,232,62328,2,0,P|56:228|12:236,1,80,8|0,0:0|3:0,0:0:0:0:
164,316,62928,6,0,P|246:321|325:312,1,160,0|8,3:0|0:0,0:0:0:0:
400,237,63828,1,0,3:0:0:0:
400,237,63978,1,0,3:0:0:0:
400,237,64128,2,0,P|404:193|404:149,1,80,0|0,3:0|3:0,0:0:0:0:
432,56,64728,2,0,P|388:52|352:64,1,80,8|0,0:0|3:0,0:0:0:0:
282,144,65328,6,0,P|200:148|121:147,1,160,0|8,3:0|0:0,0:0:0:0:
28,82,66228,1,0,3:0:0:0:
28,82,66378,1,0,3:0:0:0:
28,82,66528,2,0,P|4:118|0:158,1,80,0|0,3:0|3:0,0:0:0:0:
63,261,67128,1,8,0:0:0:0:
122,147,67428,1,0,3:0:0:0:
196,257,67728,5,2,3:2:0:0:
384,68,71628,2,0,P|344:68|308:72,1,64,0|0,3:2|0:0,0:0:0:0:
300,80,72078,2,0,P|283:121|292:174,1,88.000002685547,0|0,3:0|0:0,0:0:0:0:
420,212,72528,6,0,P|474:203|434:284,1,191.999994140625,4|8,3:2|0:0,0:0:0:0:
324,308,73428,1,2,3:2:0:0:
304,296,73578,1,2,3:2:0:0:
280,288,73728,2,0,P|232:284|180:296,1,95.9999970703126,2|2,3:2|3:2,0:0:0:0:
68,352,74328,2,0,P|52:312|64:248,1,95.9999970703126,8|2,0:0|3:2,0:0:0:0:
170,51,74928,6,0,B|140:40|140:40|176:112|176:112|140:140|144:180,1,191.999994140625,2|8,3:2|0:0,0:0:0:0:
280,136,75828,1,2,3:2:0:0:
297,154,75978,1,2,3:2:0:0:
314,174,76128,2,0,L|306:286,1,95.9999970703126,2|2,3:2|3:2,0:0:0:0:
196,364,76728,2,0,L|188:252,1,95.9999970703126,8|2,0:0|3:2,0:0:0:0:
72,196,77328,6,0,P|52:104|108:144,1,191.999994140625,2|8,3:2|0:0,0:0:0:0:
184,68,78228,1,2,3:2:0:0:
205,52,78378,1,2,3:2:0:0:
229,43,78528,2,0,P|273:35|341:47,1,95.9999970703126,2|2,3:2|3:2,0:0:0:0:
496,132,79128,2,0,P|446:143|394:138,1,95.9999970703126,8|2,0:0|3:2,0:0:0:0:
300,208,79728,6,0,B|269:196|269:196|305:268|305:268|269:296|273:336,1,191.999994140625,2|8,3:2|0:0,0:0:0:0:
372,352,80628,1,2,3:2:0:0:
372,352,80778,1,2,3:2:0:0:
372,352,80928,2,0,P|423:355|472:348,1,95.9999970703126,2|2,3:2|3:2,0:0:0:0:
303,268,81528,2,0,P|247:268|207:272,1,95.9999970703126,8|2,0:0|3:2,0:0:0:0:
129,70,82128,6,0,P|113:149|191:127,1,191.999994140625,2|8,3:2|0:0,0:0:0:0:
293,37,83028,1,2,3:2:0:0:
316,50,83178,1,2,3:2:0:0:
339,65,83328,2,0,P|340:115|343:165,1,95.9999970703126,2|2,3:2|3:2,0:0:0:0:
512,240,83928,2,0,P|460:232|420:252,1,95.9999970703126,8|2,0:0|3:2,0:0:0:0:
348,340,84528,6,0,B|280:348|280:348|236:324|236:324|148:332,1,191.999994140625,2|8,3:2|0:0,0:0:0:0:
52,264,85428,1,2,3:2:0:0:
36,244,85578,1,2,3:2:0:0:
21,221,85728,2,0,L|9:117,1,95.9999970703126,2|2,3:2|3:2,0:0:0:0:
128,28,86328,2,0,L|124:140,1,95.9999970703126,8|2,0:0|3:2,0:0:0:0:
184,228,86928,6,0,B|264:220|264:220|300:244|300:244|380:232,1,191.999994140625,2|8,3:2|0:0,0:0:0:0:
344,136,87828,1,2,3:2:0:0:
328,120,87978,1,2,3:2:0:0:
316,96,88128,2,0,P|304:44|316:-16,1,95.9999970703126,2|2,3:2|3:2,0:0:0:0:
468,176,88728,2,0,P|488:220|480:272,1,95.9999970703126,8|2,0:0|3:2,0:0:0:0:
392,336,89328,6,0,B|312:328|312:328|280:352|280:352|204:348,1,191.999994140625,2|8,3:2|0:0,0:0:0:0:
84,304,90228,1,0,3:0:0:0:
68,284,90378,1,0,3:0:0:0:
52,260,90528,2,0,P|44:204|64:168,1,95.9999970703126,2|2,3:2|3:2,0:0:0:0:
136,80,91128,1,8,0:0:0:0:
220,160,91428,1,2,3:2:0:0:
292,68,91728,5,2,3:2:0:0:
256,192,91878,12,4,96528,3:2:0:0:
