osu file format v14

[General]
AudioFilename: audio.mp3
AudioLeadIn: 0
PreviewTime: 88530
Countdown: 0
SampleSet: Normal
StackLeniency: 0.7
Mode: 0
LetterboxInBreaks: 0
WidescreenStoryboard: 1

[Editor]
Bookmarks: 44736,88874
DistanceSpacing: 1
BeatDivisor: 8
GridSize: 32
TimelineZoom: 1.200003

[Metadata]
Title:Main Menu
TitleUnicode:Main Menu
Artist:Mario Kart Wii Ost
ArtistUnicode:Mario Kart Wii Ost
Creator:dDarak
Version:lessIntro
Source:Nintendo
Tags:Nintendo Mario Kart Wii Ost 47
BeatmapID:4309042
BeatmapSetID:1904148

[Difficulty]
HPDrainRate:6
CircleSize:4.4
OverallDifficulty:8
ApproachRate:9.4
SliderMultiplier:1.4
SliderTickRate:1

[Events]
//Background and Video events
0,0,"522575.jpg",0,0
//Break Periods
//Storyboard Layer 0 (Background)
//Storyboard Layer 1 (Fail)
//Storyboard Layer 2 (Pass)
//Storyboard Layer 3 (Foreground)
//Storyboard Layer 4 (Overlay)
//Storyboard Sound Samples

[TimingPoints]
599,689.655172413793,4,1,0,50,1,0
5426,-100,4,1,0,5,0,0
5512,-100,4,1,0,50,0,0
10771,-33.3333333333333,4,1,0,50,0,0
11633,-100,4,1,0,50,0,0
13702,-100,4,1,0,5,0,0
13788,-100,4,1,0,50,0,0
44736,-16.6666666666667,4,1,0,50,0,0
66892,-100,4,1,0,50,0,0
88874,-16.6666666666667,4,1,0,50,0,1
89133,-16.6666666666667,4,1,0,5,0,1
89219,-16.6666666666667,4,1,0,50,0,1
89995,-16.6666666666667,4,1,0,5,0,1
90027,-16.6666666666667,4,1,0,50,0,1
90340,-16.6666666666667,4,1,0,5,0,1
90426,-16.6666666666667,4,1,0,50,0,1
90685,-16.6666666666667,4,1,0,5,0,1
90771,-16.6666666666667,4,1,0,50,0,1
91892,-16.6666666666667,4,1,0,5,0,1
91978,-16.6666666666667,4,1,0,50,0,1
92409,-16.6666666666667,4,1,0,5,0,1
92495,-16.6666666666667,4,1,0,50,0,1
110943,-66.6666666666667,4,1,0,50,0,0

[Colours]
Combo1 : 242,226,226
Combo2 : 23,209,255
Combo3 : 163,163,163

[HitObjects]
285,203,66892,5,0,0:0:0:0:
84,118,67323,1,0,0:0:0:0:
170,110,67495,1,0,0:0:0:0:
257,99,67668,2,0,L|206:104,1,35
141,135,68012,1,0,0:0:0:0:
141,135,68357,1,0,0:0:0:0:
111,101,68702,2,0,L|139:103,5,17.5
227,167,69219,1,0,0:0:0:0:
274,240,69392,1,0,0:0:0:0:
233,317,69564,6,0,L|153:326,1,70
241,283,70081,1,0,0:0:0:0:
229,178,70254,1,0,0:0:0:0:
170,90,70426,1,0,0:0:0:0:
136,297,70771,1,0,0:0:0:0:
122,295,71116,1,0,0:0:0:0:
128,303,71461,2,0,L|145:295,3,17.5
339,279,71805,1,0,0:0:0:0:
238,248,71978,1,0,0:0:0:0:
312,322,72150,1,0,0:0:0:0:
206,326,72323,6,0,L|107:317,1,70
31,331,72840,1,0,0:0:0:0:
104,256,73012,1,0,0:0:0:0:
128,153,73185,1,0,0:0:0:0:
81,59,73530,1,0,0:0:0:0:
70,57,73874,1,0,0:0:0:0:
190,84,74219,1,0,0:0:0:0:
91,160,74564,1,0,0:0:0:0:
79,155,74909,1,0,0:0:0:0:
282,192,75081,6,0,L|369:187,1,70
435,124,75598,1,0,0:0:0:0:
226,95,75771,1,0,0:0:0:0:
429,43,75943,1,0,0:0:0:0:
329,78,76116,5,0,0:0:0:0:
314,115,76202,1,0,0:0:0:0:
354,111,76288,1,0,0:0:0:0:
369,157,76633,1,0,0:0:0:0:
356,203,76978,1,0,0:0:0:0:
336,249,77323,1,0,0:0:0:0:
498,365,77495,1,0,0:0:0:0:
413,302,77840,6,0,P|386:263|383:237,1,70
428,118,78357,1,0,0:0:0:0:
342,110,78529,1,0,0:0:0:0:
255,99,78702,2,0,L|306:104,1,35
371,135,79046,1,0,0:0:0:0:
371,135,79391,1,0,0:0:0:0:
286,72,79736,1,0,0:0:0:0:
196,127,80081,1,0,0:0:0:0:
285,167,80253,1,0,0:0:0:0:
238,240,80426,1,0,0:0:0:0:
279,317,80598,6,0,L|359:326,1,70
271,283,81115,1,0,0:0:0:0:
283,178,81288,1,0,0:0:0:0:
342,90,81460,1,0,0:0:0:0:
376,297,81805,1,0,0:0:0:0:
390,295,82150,1,0,0:0:0:0:
384,303,82495,2,0,L|367:295,3,17.5
173,279,82839,1,0,0:0:0:0:
274,248,83012,1,0,0:0:0:0:
200,322,83184,1,0,0:0:0:0:
306,326,83357,6,0,L|405:317,1,70
481,331,83874,1,0,0:0:0:0:
408,256,84046,1,0,0:0:0:0:
384,153,84219,1,0,0:0:0:0:
431,59,84564,1,0,0:0:0:0:
442,57,84908,1,0,0:0:0:0:
322,84,85253,1,0,0:0:0:0:
421,160,85598,1,0,0:0:0:0:
319,130,85771,1,0,0:0:0:0:
433,155,85943,1,0,0:0:0:0:
230,192,86115,6,0,L|143:187,1,70
77,124,86632,1,0,0:0:0:0:
286,95,86805,1,0,0:0:0:0:
83,43,86977,1,0,0:0:0:0:
183,78,87150,5,0,0:0:0:0:
198,115,87236,1,0,0:0:0:0:
158,111,87322,1,0,0:0:0:0:
143,157,87667,1,0,0:0:0:0:
156,203,88012,1,0,0:0:0:0:
176,249,88357,1,0,0:0:0:0:
14,365,88529,1,0,0:0:0:0:
223,344,88874,6,0,P|343:315|465:169,1,315.000012016297,2|0,0:0|0:0,0:0:0:0:
479,269,89219,2,0,P|359:240|237:94,1,315.000012016297,2|0,0:0|0:0,0:0:0:0:
344,89,89564,1,8,0:0:0:0:
434,141,89736,2,0,B|411:303|201:363,1,315.000012016297,8|0,0:0|0:0,0:0:0:0:
178,260,90081,6,0,B|251:306|315:216|315:216|236:128|155:176,1,315.000012016297,2|0,0:0|0:0,0:0:0:0:
178,260,90426,2,0,B|105:306|41:216|41:216|120:128|201:176,1,315.000012016297,2|0,0:0|0:0,0:0:0:0:
178,260,90771,1,2,0:0:0:0:
303,206,90943,6,0,L|334:337,1,105.000004005432
471,27,91288,5,2,0:0:0:0:
325,179,91461,1,2,0:0:0:0:
170,320,91633,2,0,B|63:294|63:175|158:117|191:144|243:207|159:257,1,315.000012016297
54,347,91978,2,0,B|12:249|5:99|151:68|238:114,1,315.000012016297,2|0,0:0|0:0,0:0:0:0:
152,203,92323,6,0,P|183:259|241:265,1,105.000004005432,2|0,0:0|0:0,0:0:0:0:
319,239,92495,6,0,B|204:328|-14:305,1,315.000012016297,8|0,0:0|0:0,0:0:0:0:
66,126,92840,2,0,B|181:37|399:60,1,315.000012016297,8|0,0:0|0:0,0:0:0:0:
460,105,93185,2,0,B|345:194|127:171,1,315.000012016297,8|0,0:0|0:0,0:0:0:0:
32,176,93530,1,10,0:0:0:0:
108,93,93702,5,0,0:0:0:0:
192,108,93788,1,0,0:0:0:0:
274,86,93874,1,0,0:0:0:0:
357,108,93961,1,0,0:0:0:0:
421,256,94047,21,2,0:0:0:0:
338,241,94133,1,0,0:0:0:0:
256,263,94219,1,0,0:0:0:0:
173,241,94306,1,0,0:0:0:0:
191,107,94392,6,0,P|315:200|362:348,1,315.000012016297,2|0,0:0|0:0,0:0:0:0:
173,241,94736,6,0,P|293:212|415:66,1,315.000012016297,2|0,0:0|0:0,0:0:0:0:
427,175,95081,5,0,0:0:0:0:
248,62,95254,2,0,P|124:86|51:189,1,210.000008010865
230,277,95598,6,0,B|316:280|326:170|326:170|214:133|168:215,1,315.000012016297,2|0,0:0|0:0,0:0:0:0:
230,277,95943,2,0,B|189:353|89:307|89:307|113:191|207:192,1,315.000012016297,2|0,0:0|0:0,0:0:0:0:
285,198,96288,1,2,0:0:0:0:
445,242,96461,22,0,L|469:139,1,105.000004005432
292,114,96633,6,0,P|345:87|398:78,1,105.000004005432
205,162,96805,2,0,P|170:113|128:80,1,105.000004005432
285,198,96978,2,0,P|341:216|385:247,1,105.000004005432
237,272,97150,1,0,0:0:0:0:
237,272,97495,2,0,B|283:313|255:360|170:369|141:192,1,210.000008010865
124,143,97754,5,0,0:0:0:0:
119,38,97840,1,0,0:0:0:0:
119,38,98012,6,0,P|188:49|116:47,1,210.000008010865
266,274,98357,2,0,L|283:43,1,210.000008010865
281,64,98702,2,0,L|266:274,1,210.000008010865
186,116,99047,5,0,0:0:0:0:
273,59,99133,1,0,0:0:0:0:
336,143,99219,1,0,0:0:0:0:
114,270,99392,21,0,0:0:0:0:
142,238,99449,1,0,0:0:0:0:
105,239,99507,1,0,0:0:0:0:
137,266,99564,5,0,0:0:0:0:
239,246,99650,1,0,0:0:0:0:
342,227,99736,1,0,0:0:0:0:
289,40,99909,6,0,P|169:69|47:215,1,315.000012016297,2|0,0:0|0:0,0:0:0:0:
33,115,100254,2,0,P|153:144|275:290,1,315.000012016297,2|0,0:0|0:0,0:0:0:0:
168,295,100599,1,8,0:0:0:0:
78,243,100771,2,0,B|101:81|311:21,1,315.000012016297,8|0,0:0|0:0,0:0:0:0:
334,124,101116,6,0,B|261:78|197:168|197:168|276:256|357:208,1,315.000012016297,2|0,0:0|0:0,0:0:0:0:
334,124,101461,2,0,B|407:78|471:168|471:168|392:256|311:208,1,315.000012016297,2|0,0:0|0:0,0:0:0:0:
334,124,101806,1,2,0:0:0:0:
209,178,101978,6,0,L|178:47,1,105.000004005432
41,357,102323,5,2,0:0:0:0:
187,205,102496,1,2,0:0:0:0:
342,64,102668,2,0,B|449:90|449:209|354:267|321:240|269:177|353:127,1,315.000012016297
458,37,103013,2,0,B|500:135|507:285|361:316|274:270,1,315.000012016297,2|0,0:0|0:0,0:0:0:0:
360,181,103358,6,0,P|329:125|271:119,1,105.000004005432,2|0,0:0|0:0,0:0:0:0:
193,145,103530,6,0,B|308:56|526:79,1,315.000012016297,8|0,0:0|0:0,0:0:0:0:
446,258,103875,2,0,B|331:347|113:324,1,315.000012016297,8|0,0:0|0:0,0:0:0:0:
52,279,104220,2,0,B|167:190|385:213,1,315.000012016297,8|0,0:0|0:0,0:0:0:0:
480,208,104565,5,10,0:0:0:0:
401,234,104650,1,0,0:0:0:0:
470,280,104736,1,0,0:0:0:0:
262,316,104909,5,0,0:0:0:0:
290,284,104966,1,0,0:0:0:0:
253,285,105024,1,0,0:0:0:0:
286,315,105081,2,0,P|345:363|281:319,1,210.000008010865,2|0,0:0|0:0,0:0:0:0:
321,277,105426,6,0,P|197:184|150:36,1,315.000012016297,6|0,0:0|0:0,0:0:0:0:
339,143,105771,6,0,P|219:172|97:318,1,315.000012016297,2|0,0:0|0:0,0:0:0:0:
85,209,106116,5,0,0:0:0:0:
264,322,106289,2,0,P|388:298|461:195,1,210.000008010865
282,107,106633,6,0,B|196:104|186:214|186:214|298:251|344:169,1,315.000012016297,2|0,0:0|0:0,0:0:0:0:
282,107,106978,2,0,B|323:31|423:77|423:77|399:193|305:192,1,315.000012016297,2|0,0:0|0:0,0:0:0:0:
227,186,107323,1,2,0:0:0:0:
67,142,107496,22,0,L|43:245,1,105.000004005432
220,270,107668,6,0,P|167:297|114:306,1,105.000004005432
307,222,107840,2,0,P|342:271|384:304,1,105.000004005432
227,186,108013,2,0,P|171:168|127:137,1,105.000004005432
275,112,108185,1,0,0:0:0:0:
387,242,108530,6,0,P|427:321|441:401,1,105.000004005432
314,112,108702,2,0,P|387:59|437:-3,1,105.000004005432
260,232,108875,2,0,P|232:316|186:382,1,105.000004005432
149,160,109047,1,0,0:0:0:0:
47,230,109392,6,0,L|150:23,1,210.000008010865
308,59,109737,2,0,L|437:252,1,210.000008010865
465,338,110082,5,0,0:0:0:0:
461,306,110168,1,0,0:0:0:0:
456,272,110254,1,0,0:0:0:0:
398,114,110427,21,0,0:0:0:0:
370,146,110484,1,0,0:0:0:0:
407,145,110542,1,0,0:0:0:0:
361,114,110598,2,0,P|231:58|208:247,1,315.000012016297,14|0,0:0|0:0,0:0:0:0:
233,317,110943,1,2,0:0:0:0:
