osu file format v14

[General]
AudioFilename: audio.mp3
AudioLeadIn: 0
PreviewTime: 7488
Countdown: 0
SampleSet: Soft
StackLeniency: 0
Mode: 3
LetterboxInBreaks: 0
SpecialStyle: 0
WidescreenStoryboard: 1

[Editor]
DistanceSpacing: 0.8
BeatDivisor: 4
GridSize: 32
TimelineZoom: 1.9

[Metadata]
Title:Tokyo Blur
TitleUnicode:トーキョースクランブル
Artist:Mario Kart 8 Deluxe Booster Course Pass Sound Team
ArtistUnicode:マリオカート8 デラックスコース追加パスサウンドチーム
Creator:Saemitsu
Version:Normal
Source:マリオカート8 デラックス
Tags:Mario Kart 8 Deluxe mk8 mk8d mk8dx mk mkt mktour Nintendo Switch instrumental jazz racing video game コース追加パス 第1弾 Booster Course Pass Wave 1 東京 Sukuranburu Scramble 东京赛道 東京賽道 Speedway Tokio-Toer Tokio Toer Tour Traversée de Crossing Tokio-Tempotour Tempotour Speed Neon di 도쿄 블러 Velocidade em Tóquio in Токийское ралли Rally Circuito Circuit Lucky Cat Cup まねきネコカップ 永田権太 Kenta Nagata 朝日温子 Atsuko Asahi 岩田恭明 Yasuaki Iwata 永松亮 Ryo Nagamatsu 早崎あすか Asuka Hayazaki 須戸敏之Toshiyuki Sudo 松岡大祐 Daisuke Matsuoka 臼居司 Tsukasa Usui 鳥井はるこ Haruko Torii 本田拓滉 Takuhiro Honda 高桑悠太郎 Yutaro Takakuwa 濱田海里 Kairi Hamada 保坂智咲 Chisaki Hosaka 土肥 紗也子 Sayako Doi 中井玲花 Reika Nakai
BeatmapID:4157407
BeatmapSetID:1999815

[Difficulty]
HPDrainRate:7.5
CircleSize:4
OverallDifficulty:7
ApproachRate:5
SliderMultiplier:1.4
SliderTickRate:1

[Events]
//Background and Video events
0,0,"bg.jpg",0,0
//Break Periods
//Storyboard Layer 0 (Background)
//Storyboard Layer 1 (Fail)
//Storyboard Layer 2 (Pass)
//Storyboard Layer 3 (Foreground)
//Storyboard Layer 4 (Overlay)
//Storyboard Sound Samples

[TimingPoints]
544,434.782608695652,4,2,1,70,1,0

[HitObjects]
448,192,1277,1,0,0:0:0:0:
192,192,1413,1,0,0:0:0:0:
64,192,1413,1,0,0:0:0:0:
320,192,1495,1,0,0:0:0:0:
448,192,1603,1,0,0:0:0:0:
192,192,1712,1,0,0:0:0:0:
320,192,1848,1,0,0:0:0:0:
64,192,1848,128,0,2283:0:0:0:0:
448,192,2283,128,0,2609:0:0:0:0:
320,192,2283,128,0,2609:0:0:0:0:
64,192,2609,1,0,0:0:0:0:
192,192,2609,1,0,0:0:0:0:
448,192,2935,128,0,3261:0:0:0:0:
192,192,2935,128,0,3261:0:0:0:0:
64,192,3261,1,0,0:0:0:0:
320,192,3261,1,0,0:0:0:0:
448,192,3587,128,0,4457:0:0:0:0:
64,192,3587,128,0,4022:0:0:0:0:
320,192,4022,128,0,4457:0:0:0:0:
64,192,4457,128,0,5326:0:0:0:0:
192,192,4457,128,0,4891:0:0:0:0:
448,192,4891,128,0,5326:0:0:0:0:
320,192,5326,128,0,5761:0:0:0:0:
192,192,5326,128,0,6196:0:0:0:0:
64,192,5761,128,0,6196:0:0:0:0:
448,192,6196,1,0,0:0:0:0:
320,192,6196,1,0,0:0:0:0:
192,192,6304,1,0,0:0:0:0:
448,192,6413,1,0,0:0:0:0:
64,192,6522,1,0,0:0:0:0:
320,192,6630,1,0,0:0:0:0:
192,192,6630,128,0,6848:0:0:0:0:
64,192,6848,1,0,0:0:0:0:
448,192,6848,128,0,7065:0:0:0:0:
192,192,7065,1,0,0:0:0:0:
64,192,7065,1,0,0:0:0:0:
320,192,7174,1,0,0:0:0:0:
448,192,7174,1,0,0:0:0:0:
64,192,7500,1,0,0:0:0:0:
192,192,7500,128,0,7826:0:0:0:0:
448,192,7717,1,0,0:0:0:0:
320,192,7826,1,0,0:0:0:0:
448,192,7935,128,0,8261:0:0:0:0:
320,192,8261,128,0,8478:0:0:0:0:
192,192,8261,128,0,8478:0:0:0:0:
448,192,8478,1,0,0:0:0:0:
64,192,8587,128,0,8913:0:0:0:0:
448,192,8913,128,0,9130:0:0:0:0:
320,192,8913,128,0,9130:0:0:0:0:
192,192,9239,128,0,9457:0:0:0:0:
64,192,9239,128,0,9674:0:0:0:0:
320,192,9457,1,0,0:0:0:0:
448,192,9674,1,0,0:0:0:0:
192,192,9674,1,0,0:0:0:0:
320,192,9891,128,0,10109:0:0:0:0:
448,192,10109,128,0,10326:0:0:0:0:
64,192,10217,1,0,0:0:0:0:
320,192,10326,1,0,0:0:0:0:
192,192,10435,128,0,10652:0:0:0:0:
448,192,10652,1,0,0:0:0:0:
64,192,10761,128,0,10978:0:0:0:0:
192,192,10761,128,0,10978:0:0:0:0:
320,192,10978,1,0,0:0:0:0:
448,192,10978,128,0,11304:0:0:0:0:
192,192,11196,1,0,0:0:0:0:
64,192,11304,128,0,11630:0:0:0:0:
320,192,11304,1,0,0:0:0:0:
192,192,11630,1,0,0:0:0:0:
320,192,11630,128,0,11957:0:0:0:0:
448,192,11848,1,0,0:0:0:0:
64,192,11957,1,0,0:0:0:0:
192,192,11957,128,0,12283:0:0:0:0:
448,192,12283,1,0,0:0:0:0:
320,192,12283,1,0,0:0:0:0:
64,192,12391,1,0,0:0:0:0:
192,192,12500,1,0,0:0:0:0:
320,192,12609,1,0,0:0:0:0:
64,192,12717,128,0,12935:0:0:0:0:
448,192,12717,1,0,0:0:0:0:
320,192,12935,1,0,0:0:0:0:
64,192,13043,128,0,13261:0:0:0:0:
192,192,13261,1,0,0:0:0:0:
320,192,13370,128,0,13804:0:0:0:0:
448,192,13370,128,0,13587:0:0:0:0:
192,192,13587,128,0,13804:0:0:0:0:
448,192,13804,1,0,0:0:0:0:
64,192,14022,1,0,0:0:0:0:
320,192,14022,1,0,0:0:0:0:
192,192,14130,1,0,0:0:0:0:
448,192,14239,1,0,0:0:0:0:
320,192,14348,1,0,0:0:0:0:
192,192,14457,1,0,0:0:0:0:
64,192,14457,128,0,14674:0:0:0:0:
448,192,14674,1,0,0:0:0:0:
320,192,14783,1,0,0:0:0:0:
192,192,14891,1,0,0:0:0:0:
448,192,14891,128,0,15217:0:0:0:0:
64,192,15217,128,0,15435:0:0:0:0:
320,192,15217,128,0,15435:0:0:0:0:
448,192,15435,1,0,0:0:0:0:
192,192,15543,128,0,15870:0:0:0:0:
448,192,15870,128,0,16087:0:0:0:0:
320,192,15870,128,0,16087:0:0:0:0:
192,192,16087,1,0,0:0:0:0:
64,192,16196,128,0,16630:0:0:0:0:
448,192,16196,128,0,16413:0:0:0:0:
320,192,16413,1,0,0:0:0:0:
192,192,16630,1,0,0:0:0:0:
448,192,16630,1,0,0:0:0:0:
320,192,16848,128,0,17065:0:0:0:0:
192,192,17065,128,0,17391:0:0:0:0:
320,192,17174,1,0,0:0:0:0:
448,192,17283,1,0,0:0:0:0:
64,192,17391,128,0,17717:0:0:0:0:
320,192,17500,1,0,0:0:0:0:
448,192,17717,128,0,17935:0:0:0:0:
64,192,17935,128,0,18261:0:0:0:0:
192,192,17935,128,0,19239:0:0:0:0:
448,192,18261,1,0,0:0:0:0:
320,192,18370,1,0,0:0:0:0:
64,192,18478,128,0,18696:0:0:0:0:
448,192,18696,128,0,18913:0:0:0:0:
64,192,18913,1,0,0:0:0:0:
320,192,19022,128,0,19239:0:0:0:0:
448,192,19239,1,0,0:0:0:0:
64,192,19348,1,0,0:0:0:0:
320,192,19457,1,0,0:0:0:0:
192,192,19565,1,0,0:0:0:0:
448,192,19674,128,0,20000:0:0:0:0:
320,192,19674,128,0,20326:0:0:0:0:
64,192,20000,128,0,20326:0:0:0:0:
192,192,20326,128,0,20978:0:0:0:0:
448,192,20326,128,0,20652:0:0:0:0:
320,192,20652,128,0,20978:0:0:0:0:
64,192,20978,128,0,21413:0:0:0:0:
448,192,20978,128,0,21413:0:0:0:0:
320,192,21413,1,0,0:0:0:0:
192,192,21413,128,0,21848:0:0:0:0:
64,192,21739,1,0,0:0:0:0:
448,192,21848,128,0,22935:0:0:0:0:
320,192,21848,128,0,22174:0:0:0:0:
192,192,22174,1,0,0:0:0:0:
64,192,22391,1,0,0:0:0:0:
192,192,22500,128,0,22717:0:0:0:0:
320,192,22717,1,0,0:0:0:0:
64,192,22935,1,0,0:0:0:0:
192,192,23043,1,0,0:0:0:0:
64,192,23152,128,0,23478:0:0:0:0:
320,192,23152,128,0,24022:0:0:0:0:
192,192,23478,1,0,0:0:0:0:
448,192,23587,1,0,0:0:0:0:
448,192,23913,1,0,0:0:0:0:
64,192,24022,128,0,24348:0:0:0:0:
192,192,24130,1,0,0:0:0:0:
320,192,24239,1,0,0:0:0:0:
448,192,24348,128,0,24674:0:0:0:0:
192,192,24457,1,0,0:0:0:0:
192,192,24674,128,0,24891:0:0:0:0:
448,192,24891,128,0,25217:0:0:0:0:
64,192,24891,128,0,26413:0:0:0:0:
320,192,25217,1,0,0:0:0:0:
192,192,25326,128,0,25652:0:0:0:0:
320,192,25652,1,0,0:0:0:0:
192,192,25870,1,0,0:0:0:0:
448,192,25978,128,0,26196:0:0:0:0:
320,192,26196,1,0,0:0:0:0:
192,192,26413,1,0,0:0:0:0:
448,192,26522,1,0,0:0:0:0:
64,192,26630,128,0,26957:0:0:0:0:
192,192,26630,128,0,27391:0:0:0:0:
448,192,26957,1,0,0:0:0:0:
320,192,27065,128,0,27391:0:0:0:0:
64,192,27391,1,0,0:0:0:0:
320,192,27500,128,0,27826:0:0:0:0:
448,192,27609,1,0,0:0:0:0:
192,192,27717,1,0,0:0:0:0:
64,192,27826,128,0,28152:0:0:0:0:
320,192,28152,128,0,28370:0:0:0:0:
192,192,28370,128,0,28804:0:0:0:0:
448,192,28370,128,0,29022:0:0:0:0:
320,192,28804,128,0,29022:0:0:0:0:
64,192,29022,1,0,0:0:0:0:
192,192,29130,1,0,0:0:0:0:
448,192,29239,1,0,0:0:0:0:
320,192,29239,128,0,30543:0:0:0:0:
64,192,29348,1,0,0:0:0:0:
448,192,29457,128,0,29674:0:0:0:0:
192,192,29674,1,0,0:0:0:0:
64,192,29891,1,0,0:0:0:0:
448,192,30000,1,0,0:0:0:0:
64,192,30109,128,0,30543:0:0:0:0:
448,192,30435,1,0,0:0:0:0:
192,192,30543,1,0,0:0:0:0:
448,192,30761,1,0,0:0:0:0:
192,192,30870,1,0,0:0:0:0:
320,192,30978,1,0,0:0:0:0:
64,192,30978,128,0,31304:0:0:0:0:
448,192,31304,128,0,31630:0:0:0:0:
320,192,31304,128,0,31630:0:0:0:0:
64,192,31630,128,0,31848:0:0:0:0:
192,192,31630,128,0,31848:0:0:0:0:
320,192,31848,1,0,0:0:0:0:
448,192,31848,128,0,32283:0:0:0:0:
64,192,32065,1,0,0:0:0:0:
192,192,32174,1,0,0:0:0:0:
64,192,32283,1,0,0:0:0:0:
320,192,32283,128,0,32717:0:0:0:0:
448,192,32500,1,0,0:0:0:0:
192,192,32609,1,0,0:0:0:0:
64,192,32717,1,0,0:0:0:0:
448,192,32717,128,0,33043:0:0:0:0:
320,192,32935,1,0,0:0:0:0:
192,192,33043,128,0,33261:0:0:0:0:
64,192,33043,128,0,33261:0:0:0:0:
448,192,33370,128,0,34022:0:0:0:0:
320,192,33370,128,0,33804:0:0:0:0:
64,192,33804,128,0,34022:0:0:0:0:
320,192,34022,128,0,34239:0:0:0:0:
192,192,34022,128,0,34457:0:0:0:0:
448,192,34239,128,0,34457:0:0:0:0:
64,192,34457,128,0,34783:0:0:0:0:
320,192,34457,128,0,35109:0:0:0:0:
448,192,34674,1,0,0:0:0:0:
192,192,34783,128,0,35109:0:0:0:0:
448,192,35109,128,0,35543:0:0:0:0:
64,192,35109,128,0,35761:0:0:0:0:
320,192,35543,128,0,35761:0:0:0:0:
448,192,35761,128,0,35978:0:0:0:0:
192,192,35761,128,0,36196:0:0:0:0:
320,192,35978,128,0,36196:0:0:0:0:
448,192,36196,128,0,36848:0:0:0:0:
64,192,36196,128,0,36413:0:0:0:0:
320,192,36413,1,0,0:0:0:0:
192,192,36522,128,0,36848:0:0:0:0:
320,192,36848,128,0,37283:0:0:0:0:
64,192,36848,128,0,37283:0:0:0:0:
448,192,37283,1,0,0:0:0:0:
192,192,37391,1,0,0:0:0:0:
320,192,37500,1,0,0:0:0:0:
64,192,37609,128,0,37826:0:0:0:0:
448,192,37935,1,0,0:0:0:0:
320,192,38043,1,0,0:0:0:0:
64,192,38152,1,0,0:0:0:0:
192,192,38261,1,0,0:0:0:0:
320,192,38370,1,0,0:0:0:0:
64,192,38370,1,0,0:0:0:0:
320,192,38587,128,0,39022:0:0:0:0:
192,192,38587,128,0,38804:0:0:0:0:
192,192,39022,128,0,39457:0:0:0:0:
448,192,39022,128,0,39239:0:0:0:0:
64,192,39239,128,0,39457:0:0:0:0:
448,192,39457,128,0,39674:0:0:0:0:
320,192,39457,128,0,39674:0:0:0:0:
192,192,39674,1,0,0:0:0:0:
64,192,39783,1,0,0:0:0:0:
320,192,39891,1,0,0:0:0:0:
448,192,40000,1,0,0:0:0:0:
192,192,40109,1,0,0:0:0:0:
448,192,40217,1,0,0:0:0:0:
320,192,40326,128,0,40978:0:0:0:0:
64,192,40326,128,0,40761:0:0:0:0:
448,192,40761,128,0,40978:0:0:0:0:
64,192,40978,128,0,41196:0:0:0:0:
192,192,40978,128,0,41413:0:0:0:0:
320,192,41196,128,0,41413:0:0:0:0:
64,192,41413,128,0,42065:0:0:0:0:
448,192,41413,128,0,41630:0:0:0:0:
192,192,41630,1,0,0:0:0:0:
320,192,41739,128,0,42065:0:0:0:0:
192,192,42065,128,0,42500:0:0:0:0:
448,192,42065,128,0,42717:0:0:0:0:
64,192,42500,128,0,42717:0:0:0:0:
192,192,42717,128,0,43152:0:0:0:0:
320,192,42717,128,0,42935:0:0:0:0:
64,192,42935,128,0,43152:0:0:0:0:
448,192,43152,128,0,43370:0:0:0:0:
320,192,43152,128,0,43804:0:0:0:0:
192,192,43370,1,0,0:0:0:0:
64,192,43478,128,0,43804:0:0:0:0:
448,192,43804,128,0,44239:0:0:0:0:
192,192,43804,128,0,44239:0:0:0:0:
64,192,44239,1,0,0:0:0:0:
320,192,44348,1,0,0:0:0:0:
448,192,44457,1,0,0:0:0:0:
192,192,44565,1,0,0:0:0:0:
320,192,44674,128,0,44891:0:0:0:0:
448,192,44891,1,0,0:0:0:0:
192,192,45000,1,0,0:0:0:0:
64,192,45109,1,0,0:0:0:0:
320,192,45217,1,0,0:0:0:0:
448,192,45326,1,0,0:0:0:0:
192,192,45435,1,0,0:0:0:0:
64,192,45543,128,0,46196:0:0:0:0:
320,192,45543,128,0,45978:0:0:0:0:
192,192,45978,128,0,46196:0:0:0:0:
448,192,46196,128,0,46413:0:0:0:0:
320,192,46413,128,0,46630:0:0:0:0:
64,192,46413,128,0,46848:0:0:0:0:
192,192,46630,128,0,46848:0:0:0:0:
448,192,46630,128,0,47065:0:0:0:0:
320,192,46848,128,0,47065:0:0:0:0:
192,192,47065,128,0,47283:0:0:0:0:
64,192,47283,1,0,0:0:0:0:
448,192,47391,128,0,47935:0:0:0:0:
320,192,47391,128,0,47717:0:0:0:0:
192,192,47717,1,0,0:0:0:0:
64,192,47935,1,0,0:0:0:0:
320,192,48043,1,0,0:0:0:0:
192,192,48152,1,0,0:0:0:0:
448,192,48261,128,0,48478:0:0:0:0:
192,192,48478,1,0,0:0:0:0:
64,192,48587,128,0,48804:0:0:0:0:
320,192,48804,128,0,49022:0:0:0:0:
448,192,49022,128,0,49457:0:0:0:0:
64,192,49022,128,0,49457:0:0:0:0:
320,192,49457,1,0,0:0:0:0:
448,192,49674,1,0,0:0:0:0:
192,192,49783,1,0,0:0:0:0:
320,192,49891,1,0,0:0:0:0:
64,192,50000,1,0,0:0:0:0:
448,192,50109,1,0,0:0:0:0:
320,192,50326,1,0,0:0:0:0:
192,192,50435,128,0,50761:0:0:0:0:
64,192,50435,128,0,50978:0:0:0:0:
448,192,50761,1,0,0:0:0:0:
192,192,50978,128,0,51196:0:0:0:0:
320,192,50978,128,0,51413:0:0:0:0:
448,192,51196,128,0,51413:0:0:0:0:
192,192,51413,1,0,0:0:0:0:
64,192,51522,1,0,0:0:0:0:
320,192,51630,1,0,0:0:0:0:
448,192,51739,1,0,0:0:0:0:
192,192,51848,5,0,0:0:0:0:
320,192,51848,128,0,52065:0:0:0:0:
448,192,52065,1,0,0:0:0:0:
64,192,52065,128,0,52283:0:0:0:0:
448,192,52283,1,0,0:0:0:0:
320,192,52283,1,0,0:0:0:0:
64,192,52391,1,0,0:0:0:0:
192,192,52391,1,0,0:0:0:0:
