osu file format v14

[General]
AudioFilename: audio.mp3
AudioLeadIn: 0
PreviewTime: 7488
Countdown: 0
SampleSet: Soft
StackLeniency: 0
Mode: 3
LetterboxInBreaks: 0
SpecialStyle: 0
WidescreenStoryboard: 1

[Editor]
DistanceSpacing: 0.8
BeatDivisor: 4
GridSize: 32
TimelineZoom: 1.9

[Metadata]
Title:Tokyo Blur
TitleUnicode:トーキョースクランブル
Artist:Mario Kart 8 Deluxe Booster Course Pass Sound Team
ArtistUnicode:マリオカート8 デラックスコース追加パスサウンドチーム
Creator:Saemitsu
Version:Hard
Source:マリオカート8 デラックス
Tags:Mario Kart 8 Deluxe mk8 mk8d mk8dx mk mkt mktour Nintendo Switch instrumental jazz racing video game コース追加パス 第1弾 Booster Course Pass Wave 1 東京 Sukuranburu Scramble 东京赛道 東京賽道 Speedway Tokio-Toer Tokio Toer Tour Traversée de Crossing Tokio-Tempotour Tempotour Speed Neon di 도쿄 블러 Velocidade em Tóquio in Токийское ралли Rally Circuito Circuit Lucky Cat Cup まねきネコカップ 永田権太 Kenta Nagata 朝日温子 Atsuko Asahi 岩田恭明 Yasuaki Iwata 永松亮 Ryo Nagamatsu 早崎あすか Asuka Hayazaki 須戸敏之Toshiyuki Sudo 松岡大祐 Daisuke Matsuoka 臼居司 Tsukasa Usui 鳥井はるこ Haruko Torii 本田拓滉 Takuhiro Honda 高桑悠太郎 Yutaro Takakuwa 濱田海里 Kairi Hamada 保坂智咲 Chisaki Hosaka 土肥 紗也子 Sayako Doi 中井玲花 Reika Nakai
BeatmapID:4157406
BeatmapSetID:1999815

[Difficulty]
HPDrainRate:8
CircleSize:4
OverallDifficulty:7.5
ApproachRate:5
SliderMultiplier:1.4
SliderTickRate:1

[Events]
//Background and Video events
0,0,"bg.jpg",0,0
//Break Periods
//Storyboard Layer 0 (Background)
//Storyboard Layer 1 (Fail)
//Storyboard Layer 2 (Pass)
//Storyboard Layer 3 (Foreground)
//Storyboard Layer 4 (Overlay)
//Storyboard Sound Samples

[TimingPoints]
544,434.782608695652,4,2,1,70,1,0

[HitObjects]
64,192,1277,5,0,0:0:0:0:
192,192,1341,1,0,0:0:0:0:
448,192,1413,1,0,0:0:0:0:
320,192,1413,1,0,0:0:0:0:
192,192,1495,1,0,0:0:0:0:
64,192,1603,1,0,0:0:0:0:
320,192,1712,1,0,0:0:0:0:
64,192,1848,1,0,0:0:0:0:
192,192,1848,128,0,2283:0:0:0:0:
448,192,1957,1,0,0:0:0:0:
64,192,2283,1,0,0:0:0:0:
448,192,2283,128,0,2935:0:0:0:0:
320,192,2283,128,0,2609:0:0:0:0:
192,192,2609,128,0,2717:0:0:0:0:
320,192,2935,1,0,0:0:0:0:
192,192,2935,128,0,3261:0:0:0:0:
64,192,2935,128,0,3478:0:0:0:0:
448,192,3261,128,0,3370:0:0:0:0:
320,192,3478,1,0,0:0:0:0:
64,192,3587,128,0,3804:0:0:0:0:
448,192,3587,128,0,6196:0:0:0:0:
192,192,3587,128,0,4022:0:0:0:0:
64,192,4022,128,0,4783:0:0:0:0:
320,192,4022,128,0,4457:0:0:0:0:
192,192,4457,128,0,4674:0:0:0:0:
192,192,4783,1,0,0:0:0:0:
64,192,4891,128,0,5109:0:0:0:0:
320,192,4891,128,0,5109:0:0:0:0:
192,192,5109,128,0,5543:0:0:0:0:
64,192,5326,128,0,5761:0:0:0:0:
320,192,5326,1,0,0:0:0:0:
192,192,5652,1,0,0:0:0:0:
320,192,5761,128,0,5978:0:0:0:0:
64,192,5978,1,0,0:0:0:0:
192,192,5978,1,0,0:0:0:0:
320,192,6196,1,0,0:0:0:0:
64,192,6196,1,0,0:0:0:0:
192,192,6304,1,0,0:0:0:0:
448,192,6413,1,0,0:0:0:0:
192,192,6630,128,0,6848:0:0:0:0:
320,192,6630,128,0,7065:0:0:0:0:
448,192,6848,128,0,7065:0:0:0:0:
64,192,7065,128,0,7283:0:0:0:0:
192,192,7065,128,0,7283:0:0:0:0:
448,192,7174,128,0,7283:0:0:0:0:
192,192,7500,128,0,7717:0:0:0:0:
64,192,7500,128,0,7935:0:0:0:0:
320,192,7717,128,0,7826:0:0:0:0:
192,192,7826,128,0,7935:0:0:0:0:
320,192,7935,128,0,8152:0:0:0:0:
448,192,7935,128,0,8152:0:0:0:0:
64,192,8043,1,0,0:0:0:0:
320,192,8261,128,0,8370:0:0:0:0:
64,192,8261,128,0,8370:0:0:0:0:
192,192,8478,1,0,0:0:0:0:
448,192,8587,128,0,8804:0:0:0:0:
64,192,8587,128,0,8696:0:0:0:0:
64,192,8804,1,0,0:0:0:0:
192,192,8913,128,0,9022:0:0:0:0:
448,192,8913,128,0,9022:0:0:0:0:
320,192,9022,1,0,0:0:0:0:
448,192,9130,1,0,0:0:0:0:
192,192,9239,128,0,9565:0:0:0:0:
64,192,9239,128,0,9457:0:0:0:0:
320,192,9457,128,0,9674:0:0:0:0:
64,192,9565,128,0,9674:0:0:0:0:
192,192,9674,1,0,0:0:0:0:
448,192,9783,128,0,9891:0:0:0:0:
64,192,9891,1,0,0:0:0:0:
192,192,10000,128,0,10109:0:0:0:0:
448,192,10000,1,0,0:0:0:0:
320,192,10109,128,0,10326:0:0:0:0:
64,192,10217,128,0,10326:0:0:0:0:
448,192,10326,128,0,10435:0:0:0:0:
192,192,10435,128,0,10543:0:0:0:0:
320,192,10543,128,0,10652:0:0:0:0:
64,192,10652,128,0,10761:0:0:0:0:
448,192,10761,128,0,10870:0:0:0:0:
192,192,10761,128,0,10978:0:0:0:0:
448,192,10978,128,0,11304:0:0:0:0:
320,192,10978,128,0,11196:0:0:0:0:
64,192,11196,128,0,11304:0:0:0:0:
192,192,11304,128,0,11413:0:0:0:0:
320,192,11304,128,0,11630:0:0:0:0:
448,192,11413,1,0,0:0:0:0:
192,192,11522,1,0,0:0:0:0:
448,192,11630,128,0,11848:0:0:0:0:
64,192,11630,128,0,11957:0:0:0:0:
320,192,11739,1,0,0:0:0:0:
320,192,11957,128,0,12174:0:0:0:0:
192,192,11957,128,0,12283:0:0:0:0:
64,192,12065,128,0,12283:0:0:0:0:
448,192,12283,1,0,0:0:0:0:
320,192,12283,1,0,0:0:0:0:
192,192,12391,1,0,0:0:0:0:
448,192,12500,1,0,0:0:0:0:
64,192,12609,1,0,0:0:0:0:
320,192,12717,1,0,0:0:0:0:
192,192,12717,128,0,12826:0:0:0:0:
320,192,12935,1,0,0:0:0:0:
192,192,13043,128,0,13261:0:0:0:0:
448,192,13043,1,0,0:0:0:0:
64,192,13152,1,0,0:0:0:0:
320,192,13261,1,0,0:0:0:0:
64,192,13370,128,0,13587:0:0:0:0:
448,192,13370,128,0,13804:0:0:0:0:
192,192,13478,128,0,13587:0:0:0:0:
320,192,13696,1,0,0:0:0:0:
192,192,13804,1,0,0:0:0:0:
64,192,14022,1,0,0:0:0:0:
320,192,14022,128,0,14130:0:0:0:0:
192,192,14130,128,0,14239:0:0:0:0:
448,192,14239,128,0,14348:0:0:0:0:
192,192,14348,128,0,14457:0:0:0:0:
64,192,14457,128,0,14674:0:0:0:0:
320,192,14457,128,0,14783:0:0:0:0:
192,192,14674,128,0,14891:0:0:0:0:
64,192,14783,128,0,14891:0:0:0:0:
448,192,14891,128,0,15109:0:0:0:0:
320,192,14891,128,0,15109:0:0:0:0:
192,192,15000,1,0,0:0:0:0:
448,192,15217,128,0,15326:0:0:0:0:
192,192,15217,128,0,15326:0:0:0:0:
320,192,15435,1,0,0:0:0:0:
192,192,15543,128,0,15761:0:0:0:0:
64,192,15543,128,0,15652:0:0:0:0:
320,192,15761,128,0,15978:0:0:0:0:
64,192,15761,128,0,15978:0:0:0:0:
448,192,15870,128,0,15978:0:0:0:0:
192,192,15978,128,0,16087:0:0:0:0:
320,192,16087,1,0,0:0:0:0:
64,192,16196,128,0,16522:0:0:0:0:
448,192,16196,128,0,16522:0:0:0:0:
320,192,16413,1,0,0:0:0:0:
192,192,16522,128,0,16739:0:0:0:0:
448,192,16630,1,0,0:0:0:0:
320,192,16630,128,0,16957:0:0:0:0:
64,192,16739,128,0,16848:0:0:0:0:
448,192,16957,128,0,17174:0:0:0:0:
192,192,17065,128,0,17283:0:0:0:0:
320,192,17065,128,0,17391:0:0:0:0:
64,192,17174,1,0,0:0:0:0:
448,192,17283,1,0,0:0:0:0:
192,192,17391,128,0,17717:0:0:0:0:
64,192,17391,128,0,17609:0:0:0:0:
320,192,17500,1,0,0:0:0:0:
448,192,17717,128,0,17826:0:0:0:0:
64,192,17717,128,0,17935:0:0:0:0:
448,192,17935,128,0,18152:0:0:0:0:
320,192,17935,128,0,18913:0:0:0:0:
64,192,18152,1,0,0:0:0:0:
192,192,18261,1,0,0:0:0:0:
448,192,18370,1,0,0:0:0:0:
64,192,18370,128,0,18587:0:0:0:0:
192,192,18478,128,0,18696:0:0:0:0:
448,192,18696,128,0,18804:0:0:0:0:
64,192,18696,128,0,18913:0:0:0:0:
192,192,18913,128,0,19022:0:0:0:0:
448,192,18913,128,0,19239:0:0:0:0:
64,192,19022,128,0,19239:0:0:0:0:
320,192,19239,1,0,0:0:0:0:
192,192,19239,1,0,0:0:0:0:
64,192,19348,1,0,0:0:0:0:
448,192,19457,1,0,0:0:0:0:
320,192,19565,1,0,0:0:0:0:
64,192,19674,128,0,20000:0:0:0:0:
192,192,19674,128,0,19891:0:0:0:0:
320,192,19891,128,0,20000:0:0:0:0:
448,192,20000,128,0,20109:0:0:0:0:
192,192,20000,128,0,20109:0:0:0:0:
64,192,20217,1,0,0:0:0:0:
448,192,20326,128,0,20543:0:0:0:0:
320,192,20326,128,0,20652:0:0:0:0:
192,192,20435,1,0,0:0:0:0:
64,192,20543,128,0,20652:0:0:0:0:
192,192,20652,128,0,20761:0:0:0:0:
448,192,20652,128,0,20761:0:0:0:0:
320,192,20870,1,0,0:0:0:0:
448,192,20978,128,0,21413:0:0:0:0:
64,192,20978,128,0,21196:0:0:0:0:
64,192,21413,128,0,21848:0:0:0:0:
320,192,21413,128,0,21630:0:0:0:0:
192,192,21630,128,0,21848:0:0:0:0:
320,192,21848,128,0,22391:0:0:0:0:
448,192,21848,128,0,22717:0:0:0:0:
192,192,22174,128,0,22283:0:0:0:0:
64,192,22391,128,0,22609:0:0:0:0:
320,192,22500,128,0,22717:0:0:0:0:
64,192,22717,128,0,23043:0:0:0:0:
192,192,22717,128,0,22935:0:0:0:0:
320,192,22935,128,0,23152:0:0:0:0:
192,192,23043,128,0,23152:0:0:0:0:
448,192,23152,128,0,23370:0:0:0:0:
64,192,23152,128,0,23587:0:0:0:0:
192,192,23370,1,0,0:0:0:0:
448,192,23587,128,0,23696:0:0:0:0:
320,192,23587,128,0,23696:0:0:0:0:
192,192,23696,128,0,23804:0:0:0:0:
320,192,23804,1,0,0:0:0:0:
448,192,23913,128,0,24022:0:0:0:0:
64,192,23913,128,0,24022:0:0:0:0:
192,192,24022,128,0,24348:0:0:0:0:
320,192,24022,128,0,24239:0:0:0:0:
64,192,24130,1,0,0:0:0:0:
448,192,24239,128,0,24348:0:0:0:0:
64,192,24348,128,0,24674:0:0:0:0:
320,192,24348,128,0,24565:0:0:0:0:
192,192,24457,1,0,0:0:0:0:
320,192,24674,128,0,24891:0:0:0:0:
448,192,24674,128,0,24891:0:0:0:0:
192,192,24891,128,0,25217:0:0:0:0:
64,192,24891,128,0,25326:0:0:0:0:
320,192,25217,1,0,0:0:0:0:
448,192,25326,128,0,25543:0:0:0:0:
192,192,25326,128,0,25870:0:0:0:0:
64,192,25435,1,0,0:0:0:0:
448,192,25652,128,0,26196:0:0:0:0:
320,192,25870,128,0,26087:0:0:0:0:
64,192,25978,128,0,26196:0:0:0:0:
320,192,26196,128,0,26630:0:0:0:0:
192,192,26196,128,0,26413:0:0:0:0:
64,192,26413,128,0,26522:0:0:0:0:
448,192,26522,128,0,26630:0:0:0:0:
64,192,26630,128,0,27065:0:0:0:0:
192,192,26630,128,0,26848:0:0:0:0:
448,192,26848,128,0,26957:0:0:0:0:
192,192,26957,1,0,0:0:0:0:
448,192,27065,128,0,27174:0:0:0:0:
320,192,27065,128,0,27174:0:0:0:0:
64,192,27174,128,0,27283:0:0:0:0:
192,192,27391,128,0,27500:0:0:0:0:
448,192,27391,128,0,27500:0:0:0:0:
64,192,27500,128,0,27609:0:0:0:0:
320,192,27500,128,0,27826:0:0:0:0:
448,192,27609,1,0,0:0:0:0:
64,192,27717,1,0,0:0:0:0:
192,192,27826,128,0,28152:0:0:0:0:
448,192,27826,128,0,28261:0:0:0:0:
320,192,27935,1,0,0:0:0:0:
64,192,28043,1,0,0:0:0:0:
320,192,28152,128,0,28370:0:0:0:0:
192,192,28261,1,0,0:0:0:0:
64,192,28370,128,0,28587:0:0:0:0:
448,192,28370,128,0,28804:0:0:0:0:
192,192,28587,1,0,0:0:0:0:
320,192,28696,1,0,0:0:0:0:
192,192,28804,128,0,29130:0:0:0:0:
64,192,28804,128,0,29022:0:0:0:0:
320,192,29022,128,0,29130:0:0:0:0:
64,192,29130,128,0,29239:0:0:0:0:
192,192,29239,128,0,29457:0:0:0:0:
448,192,29239,128,0,30000:0:0:0:0:
320,192,29348,1,0,0:0:0:0:
64,192,29457,128,0,29674:0:0:0:0:
320,192,29674,128,0,29891:0:0:0:0:
192,192,29674,128,0,30109:0:0:0:0:
64,192,29891,1,0,0:0:0:0:
320,192,30000,1,0,0:0:0:0:
64,192,30109,128,0,30326:0:0:0:0:
448,192,30109,128,0,30326:0:0:0:0:
192,192,30326,1,0,0:0:0:0:
320,192,30435,128,0,30543:0:0:0:0:
192,192,30543,1,0,0:0:0:0:
448,192,30543,128,0,30652:0:0:0:0:
64,192,30652,128,0,30761:0:0:0:0:
320,192,30761,128,0,30870:0:0:0:0:
192,192,30761,128,0,30978:0:0:0:0:
64,192,30870,128,0,30978:0:0:0:0:
448,192,30978,128,0,31087:0:0:0:0:
320,192,30978,128,0,31304:0:0:0:0:
64,192,31087,1,0,0:0:0:0:
448,192,31196,1,0,0:0:0:0:
64,192,31304,128,0,31522:0:0:0:0:
192,192,31304,128,0,31413:0:0:0:0:
320,192,31413,128,0,31630:0:0:0:0:
192,192,31522,128,0,31630:0:0:0:0:
448,192,31630,128,0,31739:0:0:0:0:
64,192,31630,128,0,31848:0:0:0:0:
320,192,31739,1,0,0:0:0:0:
448,192,31848,128,0,32283:0:0:0:0:
192,192,31848,128,0,32065:0:0:0:0:
320,192,32065,128,0,32174:0:0:0:0:
192,192,32174,128,0,32283:0:0:0:0:
64,192,32283,128,0,32717:0:0:0:0:
320,192,32283,128,0,32500:0:0:0:0:
448,192,32500,128,0,32609:0:0:0:0:
192,192,32609,128,0,32717:0:0:0:0:
448,192,32717,128,0,32935:0:0:0:0:
320,192,32717,128,0,32935:0:0:0:0:
192,192,32935,128,0,33152:0:0:0:0:
64,192,33043,128,0,33152:0:0:0:0:
448,192,33043,128,0,33152:0:0:0:0:
320,192,33152,1,0,0:0:0:0:
192,192,33261,1,0,0:0:0:0:
64,192,33370,128,0,33696:0:0:0:0:
448,192,33370,128,0,34239:0:0:0:0:
320,192,33370,128,0,33913:0:0:0:0:
192,192,33804,1,0,0:0:0:0:
64,192,34022,128,0,34348:0:0:0:0:
320,192,34022,128,0,34457:0:0:0:0:
192,192,34239,1,0,0:0:0:0:
448,192,34348,1,0,0:0:0:0:
192,192,34457,128,0,34783:0:0:0:0:
64,192,34457,128,0,34674:0:0:0:0:
320,192,34674,1,0,0:0:0:0:
64,192,34783,128,0,34891:0:0:0:0:
448,192,34783,128,0,34891:0:0:0:0:
192,192,34891,1,0,0:0:0:0:
192,192,35109,128,0,35761:0:0:0:0:
448,192,35109,128,0,35326:0:0:0:0:
320,192,35326,1,0,0:0:0:0:
448,192,35543,1,0,0:0:0:0:
64,192,35543,1,0,0:0:0:0:
64,192,35761,128,0,36087:0:0:0:0:
320,192,35761,128,0,35978:0:0:0:0:
448,192,35870,128,0,35978:0:0:0:0:
192,192,35978,128,0,36196:0:0:0:0:
320,192,36087,1,0,0:0:0:0:
448,192,36196,128,0,36522:0:0:0:0:
64,192,36196,128,0,36413:0:0:0:0:
192,192,36413,1,0,0:0:0:0:
64,192,36522,128,0,36630:0:0:0:0:
320,192,36522,128,0,36630:0:0:0:0:
448,192,36630,1,0,0:0:0:0:
192,192,36848,128,0,37174:0:0:0:0:
64,192,36848,128,0,37283:0:0:0:0:
320,192,37283,128,0,37500:0:0:0:0:
192,192,37283,128,0,37391:0:0:0:0:
448,192,37391,128,0,37609:0:0:0:0:
192,192,37500,128,0,37717:0:0:0:0:
64,192,37609,128,0,37717:0:0:0:0:
448,192,37717,1,0,0:0:0:0:
320,192,37826,1,0,0:0:0:0:
192,192,37935,128,0,38043:0:0:0:0:
64,192,37935,128,0,38152:0:0:0:0:
320,192,38043,128,0,38261:0:0:0:0:
192,192,38152,128,0,38370:0:0:0:0:
448,192,38261,128,0,38370:0:0:0:0:
64,192,38370,1,0,0:0:0:0:
320,192,38370,1,0,0:0:0:0:
448,192,38587,128,0,39565:0:0:0:0:
320,192,38587,128,0,38913:0:0:0:0:
320,192,39022,128,0,39130:0:0:0:0:
192,192,39022,128,0,39130:0:0:0:0:
64,192,39239,128,0,39348:0:0:0:0:
192,192,39239,128,0,39348:0:0:0:0:
320,192,39457,128,0,39565:0:0:0:0:
64,192,39457,128,0,39674:0:0:0:0:
192,192,39674,128,0,39783:0:0:0:0:
448,192,39674,128,0,39783:0:0:0:0:
64,192,39783,1,0,0:0:0:0:
320,192,39891,128,0,40000:0:0:0:0:
192,192,40000,128,0,40109:0:0:0:0:
64,192,40000,128,0,40109:0:0:0:0:
448,192,40109,1,0,0:0:0:0:
320,192,40217,1,0,0:0:0:0:
64,192,40326,128,0,40978:0:0:0:0:
448,192,40326,128,0,40870:0:0:0:0:
192,192,40326,128,0,40652:0:0:0:0:
192,192,40761,1,0,0:0:0:0:
448,192,40978,128,0,41413:0:0:0:0:
320,192,40978,128,0,41196:0:0:0:0:
64,192,41087,128,0,41304:0:0:0:0:
192,192,41196,128,0,41304:0:0:0:0:
320,192,41304,1,0,0:0:0:0:
192,192,41413,128,0,41739:0:0:0:0:
64,192,41413,128,0,41630:0:0:0:0:
448,192,41630,1,0,0:0:0:0:
64,192,41739,128,0,41848:0:0:0:0:
320,192,41739,128,0,41848:0:0:0:0:
192,192,41848,1,0,0:0:0:0:
64,192,42065,128,0,42391:0:0:0:0:
448,192,42065,128,0,42609:0:0:0:0:
320,192,42283,1,0,0:0:0:0:
64,192,42500,128,0,42717:0:0:0:0:
192,192,42500,128,0,42717:0:0:0:0:
448,192,42717,128,0,42935:0:0:0:0:
320,192,42717,128,0,43043:0:0:0:0:
192,192,42935,128,0,43152:0:0:0:0:
448,192,43043,128,0,43152:0:0:0:0:
64,192,43152,128,0,43478:0:0:0:0:
320,192,43152,128,0,43370:0:0:0:0:
192,192,43370,128,0,43478:0:0:0:0:
320,192,43478,128,0,43587:0:0:0:0:
448,192,43478,128,0,43587:0:0:0:0:
192,192,43587,1,0,0:0:0:0:
448,192,43804,1,0,0:0:0:0:
320,192,43804,128,0,44239:0:0:0:0:
64,192,43804,128,0,44130:0:0:0:0:
64,192,44239,128,0,44457:0:0:0:0:
448,192,44239,128,0,44457:0:0:0:0:
192,192,44348,128,0,44674:0:0:0:0:
320,192,44457,128,0,44565:0:0:0:0:
64,192,44565,128,0,44674:0:0:0:0:
448,192,44674,1,0,0:0:0:0:
320,192,44746,1,0,0:0:0:0:
192,192,44819,1,0,0:0:0:0:
64,192,44891,1,0,0:0:0:0:
448,192,44964,1,0,0:0:0:0:
320,192,45036,1,0,0:0:0:0:
192,192,45109,128,0,45217:0:0:0:0:
64,192,45109,128,0,45326:0:0:0:0:
448,192,45217,128,0,45326:0:0:0:0:
320,192,45326,1,0,0:0:0:0:
64,192,45435,1,0,0:0:0:0:
448,192,45543,128,0,46196:0:0:0:0:
320,192,45543,128,0,45870:0:0:0:0:
192,192,45543,128,0,46087:0:0:0:0:
320,192,45978,128,0,46196:0:0:0:0:
192,192,46196,1,0,0:0:0:0:
64,192,46196,1,0,0:0:0:0:
320,192,46413,1,0,0:0:0:0:
64,192,46413,128,0,46522:0:0:0:0:
448,192,46522,1,0,0:0:0:0:
192,192,46630,1,0,0:0:0:0:
320,192,46630,128,0,46739:0:0:0:0:
64,192,46739,1,0,0:0:0:0:
192,192,46848,128,0,46957:0:0:0:0:
320,192,46957,1,0,0:0:0:0:
448,192,47065,128,0,47174:0:0:0:0:
64,192,47065,128,0,47174:0:0:0:0:
64,192,47283,128,0,47391:0:0:0:0:
192,192,47283,128,0,47500:0:0:0:0:
448,192,47391,128,0,47935:0:0:0:0:
320,192,47391,128,0,47826:0:0:0:0:
192,192,47717,128,0,47935:0:0:0:0:
320,192,47935,128,0,48043:0:0:0:0:
448,192,48043,128,0,48261:0:0:0:0:
64,192,48152,128,0,48261:0:0:0:0:
320,192,48261,128,0,48478:0:0:0:0:
192,192,48478,128,0,48696:0:0:0:0:
64,192,48587,128,0,48804:0:0:0:0:
320,192,48696,128,0,48804:0:0:0:0:
192,192,48804,1,0,0:0:0:0:
448,192,48804,128,0,48913:0:0:0:0:
320,192,49022,128,0,49565:0:0:0:0:
192,192,49022,128,0,49348:0:0:0:0:
448,192,49239,1,0,0:0:0:0:
192,192,49457,1,0,0:0:0:0:
448,192,49457,128,0,49674:0:0:0:0:
320,192,49674,128,0,49783:0:0:0:0:
64,192,49674,128,0,49891:0:0:0:0:
448,192,49783,128,0,49891:0:0:0:0:
192,192,49891,128,0,50109:0:0:0:0:
64,192,50000,128,0,50109:0:0:0:0:
448,192,50109,128,0,50217:0:0:0:0:
320,192,50109,128,0,50217:0:0:0:0:
192,192,50326,128,0,50435:0:0:0:0:
448,192,50435,128,0,50761:0:0:0:0:
64,192,50435,128,0,50978:0:0:0:0:
320,192,50543,128,0,50761:0:0:0:0:
192,192,50761,128,0,50978:0:0:0:0:
448,192,50978,128,0,51304:0:0:0:0:
320,192,50978,128,0,51196:0:0:0:0:
64,192,51196,1,0,0:0:0:0:
320,192,51304,1,0,0:0:0:0:
64,192,51413,128,0,51739:0:0:0:0:
192,192,51413,128,0,51630:0:0:0:0:
448,192,51522,1,0,0:0:0:0:
320,192,51630,1,0,0:0:0:0:
192,192,51739,1,0,0:0:0:0:
64,192,51848,128,0,52283:0:0:0:0:
320,192,51848,128,0,52065:0:0:0:0:
192,192,52065,128,0,52283:0:0:0:0:
448,192,52283,128,0,52500:0:0:0:0:
320,192,52283,128,0,52500:0:0:0:0:
64,192,52391,128,0,52500:0:0:0:0:
