osu file format v14

[General]
AudioFilename: audio.mp3
AudioLeadIn: 0
PreviewTime: 2898
Countdown: 0
SampleSet: Normal
StackLeniency: 0.7
Mode: 1
LetterboxInBreaks: 0
WidescreenStoryboard: 1

[Editor]
DistanceSpacing: 2
BeatDivisor: 4
GridSize: 4
TimelineZoom: 1

[Metadata]
Title:World 3
TitleUnicode:World 3
Artist:MARIO 3D WORLD BIG BAND
ArtistUnicode:MARIO 3D WORLD BIG BAND
Creator:Chatterzard_
Version:Kantan
Source:スーパーマリオ 3Dワールド
Tags:ost original soundtrack 近藤浩治 Koji Kondo 横田真人 Mahito Yokota 峰岸透 Toru Minegishi 岩田恭明 Yasuaki Iwata nintendo EAD Tokyo Super
BeatmapID:1958833
BeatmapSetID:937488

[Difficulty]
HPDrainRate:9
CircleSize:5
OverallDifficulty:3
ApproachRate:5
SliderMultiplier:1.4
SliderTickRate:1

[Events]
//Background and Video events
0,0,"galaxywater.jpg",0,0
//Break Periods
//Storyboard Layer 0 (Background)
//Storyboard Layer 1 (Fail)
//Storyboard Layer 2 (Pass)
//Storyboard Layer 3 (Foreground)
//Storyboard Sound Samples

[TimingPoints]
643,500,4,1,0,25,1,0
14518,-100,4,1,0,15,0,0
14893,-100,4,1,0,25,0,0
46518,-100,4,1,0,15,0,0
46893,-100,4,1,0,25,0,0
70893,-100,4,1,0,20,0,0
72643,-100,4,1,0,15,0,0
74143,-100,4,1,0,10,0,0
75643,-100,4,1,0,5,0,0

[HitObjects]
105,111,643,5,8,0:0:0:0:
105,111,1643,1,8,0:0:0:0:
105,111,2643,1,0,0:0:0:0:
105,111,3143,1,8,0:0:0:0:
105,111,3643,1,0,0:0:0:0:
105,111,4643,1,0,0:0:0:0:
105,111,5393,1,8,0:0:0:0:
149,178,6643,1,0,0:0:0:0:
149,178,7143,1,8,0:0:0:0:
149,178,7643,1,0,0:0:0:0:
61,83,8643,1,0,0:0:0:0:
61,83,10143,1,8,0:0:0:0:
61,83,10643,1,0,0:0:0:0:
61,83,11143,1,8,0:0:0:0:
61,83,11643,1,0,0:0:0:0:
61,83,12643,1,0,0:0:0:0:
61,83,14143,1,8,0:0:0:0:
61,83,14643,1,0,0:0:0:0:
206,82,16643,1,0,0:0:0:0:
206,82,18643,1,0,0:0:0:0:
206,82,19143,1,8,0:0:0:0:
206,82,19643,1,0,0:0:0:0:
229,64,20643,1,0,0:0:0:0:
229,64,21393,1,8,0:0:0:0:
70,206,22643,1,8,0:0:0:0:
70,206,23143,1,0,0:0:0:0:
61,193,23643,1,8,0:0:0:0:
59,186,24643,1,8,0:0:0:0:
59,186,25393,1,8,0:0:0:0:
145,105,26643,1,0,0:0:0:0:
145,105,27143,1,8,0:0:0:0:
145,105,27643,1,0,0:0:0:0:
137,104,28643,1,8,0:0:0:0:
145,105,29143,1,8,0:0:0:0:
137,104,30143,1,0,0:0:0:0:
137,104,30643,1,0,0:0:0:0:
256,192,31143,12,0,32643,0:0:0:0:
105,111,34643,5,0,0:0:0:0:
105,111,35143,1,8,0:0:0:0:
105,111,35643,1,0,0:0:0:0:
105,111,36643,1,0,0:0:0:0:
105,111,37393,1,8,0:0:0:0:
149,178,38643,1,0,0:0:0:0:
149,178,39143,1,8,0:0:0:0:
149,178,39643,1,0,0:0:0:0:
61,83,40643,1,0,0:0:0:0:
61,83,42143,1,8,0:0:0:0:
61,83,42643,1,0,0:0:0:0:
61,83,43143,1,8,0:0:0:0:
61,83,43643,1,0,0:0:0:0:
61,83,44643,1,0,0:0:0:0:
61,83,46143,1,8,0:0:0:0:
61,83,46643,1,0,0:0:0:0:
206,82,48643,1,0,0:0:0:0:
206,82,50643,1,0,0:0:0:0:
206,82,51143,1,8,0:0:0:0:
206,82,51643,1,0,0:0:0:0:
229,64,52643,1,0,0:0:0:0:
229,64,53393,1,8,0:0:0:0:
70,206,54643,1,8,0:0:0:0:
70,206,55143,1,0,0:0:0:0:
61,193,55643,1,8,0:0:0:0:
59,186,56643,1,8,0:0:0:0:
59,186,57393,1,8,0:0:0:0:
145,105,58643,1,0,0:0:0:0:
145,105,59143,1,8,0:0:0:0:
145,105,59643,1,0,0:0:0:0:
137,104,60643,5,8,0:0:0:0:
145,105,61143,1,8,0:0:0:0:
137,104,62143,1,0,0:0:0:0:
137,104,62643,1,0,0:0:0:0:
256,192,63143,12,0,64643,0:0:0:0:
141,178,67143,5,8,0:0:0:0:
141,178,67643,1,8,0:0:0:0:
117,150,68643,1,0,0:0:0:0:
117,150,69393,1,8,0:0:0:0:
117,149,71143,1,8,0:0:0:0:
117,149,71643,1,8,0:0:0:0:
117,149,72643,1,0,0:0:0:0:
117,149,73393,1,8,0:0:0:0:
122,146,74143,1,8,0:0:0:0:
122,146,75143,1,8,0:0:0:0:
122,146,75643,1,0,0:0:0:0:
256,192,76143,12,0,77643,0:0:0:0:
