osu file format v14

[General]
AudioFilename: audio.mp3
AudioLeadIn: 0
PreviewTime: 2898
Countdown: 0
SampleSet: Normal
StackLeniency: 0.7
Mode: 1
LetterboxInBreaks: 0
WidescreenStoryboard: 0

[Editor]
DistanceSpacing: 1.7
BeatDivisor: 4
GridSize: 4
TimelineZoom: 1

[Metadata]
Title:World 3
TitleUnicode:World 3
Artist:MARIO 3D WORLD BIG BAND
ArtistUnicode:MARIO 3D WORLD BIG BAND
Creator:Chatterzard_
Version:Futsuu
Source:スーパーマリオ 3Dワールド
Tags:ost original soundtrack 近藤浩治 Koji Kondo 横田真人 Mahito Yokota 峰岸透 Toru Minegishi 岩田恭明 Yasuaki Iwata nintendo EAD Tokyo Super
BeatmapID:1958375
BeatmapSetID:937488

[Difficulty]
HPDrainRate:8
CircleSize:5
OverallDifficulty:4
ApproachRate:5
SliderMultiplier:1.4
SliderTickRate:1

[Events]
//Background and Video events
0,0,"galaxywater.jpg",0,0
//Break Periods
//Storyboard Layer 0 (Background)
//Storyboard Layer 1 (Fail)
//Storyboard Layer 2 (Pass)
//Storyboard Layer 3 (Foreground)
//Storyboard Sound Samples

[TimingPoints]
643,500,4,1,0,25,1,0
14518,-100,4,1,0,15,0,0
14893,-100,4,1,0,25,0,0
46518,-100,4,1,0,15,0,0
46893,-100,4,1,0,25,0,0
70893,-100,4,1,0,20,0,0
72643,-100,4,1,0,15,0,0
74143,-100,4,1,0,10,0,0
75643,-100,4,1,0,5,0,0

[HitObjects]
105,111,643,5,8,0:0:0:0:
105,111,1393,1,8,0:0:0:0:
105,111,1643,1,0,0:0:0:0:
105,111,2893,1,0,0:0:0:0:
105,111,3143,1,0,0:0:0:0:
105,111,3393,1,8,0:0:0:0:
105,111,3643,1,0,0:0:0:0:
105,111,4393,1,0,0:0:0:0:
105,111,4643,1,8,0:0:0:0:
105,111,5393,1,8,0:0:0:0:
149,178,6893,1,8,0:0:0:0:
149,178,7143,1,0,0:0:0:0:
149,178,7393,1,8,0:0:0:0:
149,178,7643,1,0,0:0:0:0:
61,83,8393,1,0,0:0:0:0:
61,83,8643,1,8,0:0:0:0:
61,83,9393,1,8,0:0:0:0:
61,83,9893,1,8,0:0:0:0:
61,83,10143,1,8,0:0:0:0:
61,83,10893,1,8,0:0:0:0:
61,83,11143,1,0,0:0:0:0:
61,83,11393,1,8,0:0:0:0:
61,83,11643,1,0,0:0:0:0:
86,113,12393,1,0,0:0:0:0:
61,83,12643,1,8,0:0:0:0:
61,83,13393,1,8,0:0:0:0:
61,83,13893,1,8,0:0:0:0:
61,83,14143,1,0,0:0:0:0:
61,83,14393,1,0,0:0:0:0:
61,83,14643,1,0,0:0:0:0:
186,116,15893,1,8,0:0:0:0:
206,82,16643,1,8,0:0:0:0:
206,82,16893,1,0,0:0:0:0:
206,82,17143,1,8,0:0:0:0:
206,82,17393,1,0,0:0:0:0:
206,82,17893,1,8,0:0:0:0:
206,82,18893,1,8,0:0:0:0:
206,82,19143,1,0,0:0:0:0:
206,82,19393,1,8,0:0:0:0:
206,82,19643,1,0,0:0:0:0:
233,86,20393,1,0,0:0:0:0:
229,64,20643,1,8,0:0:0:0:
229,64,21393,1,8,0:0:0:0:
70,206,22893,1,8,0:0:0:0:
70,206,23143,1,8,0:0:0:0:
70,206,23393,1,0,0:0:0:0:
70,206,23643,1,8,0:0:0:0:
233,85,24393,1,8,0:0:0:0:
59,186,24643,1,0,0:0:0:0:
59,186,25393,1,8,0:0:0:0:
145,105,26893,1,8,0:0:0:0:
145,105,27143,1,0,0:0:0:0:
145,105,27393,1,8,0:0:0:0:
145,105,27643,1,0,0:0:0:0:
137,104,28393,1,8,0:0:0:0:
145,105,28643,1,0,0:0:0:0:
145,105,28893,1,8,0:0:0:0:
145,105,29143,1,0,0:0:0:0:
137,104,29893,1,0,0:0:0:0:
137,104,30143,1,8,0:0:0:0:
137,104,30393,1,0,0:0:0:0:
137,104,30643,1,8,0:0:0:0:
256,192,30893,12,0,32643,0:0:0:0:
105,111,34893,5,0,0:0:0:0:
105,111,35143,1,0,0:0:0:0:
105,111,35393,1,8,0:0:0:0:
105,111,35643,1,0,0:0:0:0:
105,111,36393,1,0,0:0:0:0:
105,111,36643,1,8,0:0:0:0:
105,111,37393,1,8,0:0:0:0:
149,178,38893,1,8,0:0:0:0:
149,178,39143,1,0,0:0:0:0:
149,178,39393,1,8,0:0:0:0:
149,178,39643,1,0,0:0:0:0:
61,83,40393,1,0,0:0:0:0:
61,83,40643,1,8,0:0:0:0:
61,83,41393,1,8,0:0:0:0:
61,83,41893,1,8,0:0:0:0:
61,83,42143,1,8,0:0:0:0:
61,83,42893,1,8,0:0:0:0:
61,83,43143,1,0,0:0:0:0:
61,83,43393,1,8,0:0:0:0:
61,83,43643,1,0,0:0:0:0:
86,113,44393,1,0,0:0:0:0:
61,83,44643,1,8,0:0:0:0:
61,83,45393,1,8,0:0:0:0:
61,83,45893,1,8,0:0:0:0:
61,83,46143,1,0,0:0:0:0:
61,83,46393,1,0,0:0:0:0:
61,83,46643,1,0,0:0:0:0:
186,116,47893,1,8,0:0:0:0:
206,82,48643,1,8,0:0:0:0:
206,82,48893,1,0,0:0:0:0:
206,82,49143,1,8,0:0:0:0:
206,82,49393,1,0,0:0:0:0:
206,82,49893,1,8,0:0:0:0:
206,82,50893,1,8,0:0:0:0:
206,82,51143,1,0,0:0:0:0:
206,82,51393,1,8,0:0:0:0:
206,82,51643,1,0,0:0:0:0:
233,86,52393,1,0,0:0:0:0:
229,64,52643,1,8,0:0:0:0:
229,64,53393,1,8,0:0:0:0:
70,206,54893,1,8,0:0:0:0:
70,206,55143,1,8,0:0:0:0:
70,206,55393,1,0,0:0:0:0:
70,206,55643,1,8,0:0:0:0:
233,85,56393,1,8,0:0:0:0:
59,186,56643,1,0,0:0:0:0:
59,186,57393,1,8,0:0:0:0:
145,105,58893,1,8,0:0:0:0:
145,105,59143,1,0,0:0:0:0:
145,105,59393,1,8,0:0:0:0:
145,105,59643,1,0,0:0:0:0:
137,104,60393,1,8,0:0:0:0:
145,105,60643,1,0,0:0:0:0:
145,105,60893,1,8,0:0:0:0:
145,105,61143,1,0,0:0:0:0:
137,104,61893,1,0,0:0:0:0:
137,104,62143,1,8,0:0:0:0:
137,104,62393,1,0,0:0:0:0:
137,104,62643,1,8,0:0:0:0:
256,192,62893,12,0,64643,0:0:0:0:
141,178,66893,5,8,0:0:0:0:
141,178,67143,1,0,0:0:0:0:
141,178,67393,1,8,0:0:0:0:
141,178,67643,1,0,0:0:0:0:
117,150,68393,1,0,0:0:0:0:
117,150,68643,1,8,0:0:0:0:
117,150,69393,1,8,0:0:0:0:
117,149,70893,1,8,0:0:0:0:
117,149,71143,1,0,0:0:0:0:
117,149,71393,1,8,0:0:0:0:
117,149,71643,1,0,0:0:0:0:
117,149,72393,1,0,0:0:0:0:
117,149,72643,1,0,0:0:0:0:
117,149,73393,1,8,0:0:0:0:
122,146,73893,1,8,0:0:0:0:
122,146,74143,1,0,0:0:0:0:
122,146,74893,1,8,0:0:0:0:
122,146,75143,1,0,0:0:0:0:
122,146,75393,1,8,0:0:0:0:
122,146,75643,1,0,0:0:0:0:
256,192,75893,12,0,77643,0:0:0:0:
