osu file format v14

[General]
AudioFilename: audio.mp3
AudioLeadIn: 0
PreviewTime: 186236
Countdown: 0
SampleSet: Soft
StackLeniency: 0.4
Mode: 0
LetterboxInBreaks: 0
WidescreenStoryboard: 1

[Editor]
Bookmarks: 19732,35954,51948,69909,85805,101666,117533,132408,144312,152378,168512,186905,202646,217401,233137,244941,246908
DistanceSpacing: 0.8
BeatDivisor: 4
GridSize: 16
TimelineZoom: 2.783353

[Metadata]
Title:Teen Idle
TitleUnicode:Teen Idle
Artist:Marina and the Diamonds
ArtistUnicode:Marina and the Diamonds
Creator:-Waterlemon
Version:Hard
Source:
Tags:lurumic supreme water synth synth-pop pop english idol lambrini diamandis liam howe electra heart Μαρίνα-Λαμπρινή Διαμαντή &
BeatmapID:3675891
BeatmapSetID:1784342

[Difficulty]
HPDrainRate:4
CircleSize:3.6
OverallDifficulty:6
ApproachRate:7.5
SliderMultiplier:1.4
SliderTickRate:1

[Events]
//Background and Video events
0,0,"bg thingy.jpg",0,0
//Break Periods
2,67422,69146
2,144553,151343
//Storyboard Layer 0 (Background)
//Storyboard Layer 1 (Fail)
//Storyboard Layer 2 (Pass)
//Storyboard Layer 3 (Foreground)
//Storyboard Layer 4 (Overlay)
//Storyboard Sound Samples

[TimingPoints]
3315,513.698630136986,4,2,1,50,1,0
3315,-100,4,2,1,50,0,0
11534,512.382578992314,4,2,1,50,1,0
11534,-100,4,2,1,50,0,0
19732,508.905852417303,4,2,1,50,1,0
19732,-100,4,2,1,50,0,0
27874,508.044030482642,4,2,1,50,1,0
27874,-100,4,2,1,50,0,0
31938,506.756756756757,4,2,1,50,1,0
31938,-100,4,2,1,50,0,0
34978,504.201680672269,4,2,1,50,1,0
34978,-100,4,2,1,50,0,0
35482,-125,4,2,1,50,0,0
35861,-125,4,2,1,5,0,0
35986,499.791753436068,4,2,1,60,1,0
35986,-125,4,2,1,60,0,0
51979,-100,4,2,1,70,0,0
53228,-100,4,2,1,5,0,0
53478,-100,4,2,1,70,0,0
55227,-100,4,2,1,5,0,0
55477,-100,4,2,1,70,0,0
67222,-100,4,2,1,5,0,0
69971,496.688741721854,4,2,1,65,1,0
69971,-83.3333333333333,4,2,1,65,0,0
73944,495.049504950495,4,2,1,65,1,0
73944,-83.3333333333333,4,2,1,65,0,0
81864,497.92531120332,4,2,1,65,1,0
81864,-83.3333333333333,4,2,1,65,0,0
85847,493.015612161052,4,2,1,75,1,0
85847,-76.9230769230769,4,2,1,75,0,0
87819,495.867768595041,4,2,1,75,1,0
87819,-76.9230769230769,4,2,1,75,0,0
91785,497.92531120332,4,2,1,75,1,0
91785,-76.9230769230769,4,2,1,75,0,0
93776,494.233937397035,4,2,1,75,1,0
93776,-76.9230769230769,4,2,1,75,0,0
97729,498.753117206983,4,2,1,75,1,0
97729,-76.9230769230769,4,2,1,75,0,0
99724,495.867768595041,4,2,1,75,1,0
99724,-76.9230769230769,4,2,1,75,0,0
100715,-125,4,2,1,75,0,0
101459,-125,4,2,1,5,0,0
101707,496.688741721854,4,2,2,85,1,0
101707,-66.6666666666667,4,2,2,85,0,0
103693,494.233937397035,4,2,2,85,1,0
103693,-66.6666666666667,4,2,2,85,0,0
107646,497.92531120332,4,2,2,85,1,0
107646,-66.6666666666667,4,2,2,85,0,0
111629,496.277915632754,4,2,2,85,1,0
111629,-66.6666666666667,4,2,2,85,0,0
113614,495.049504950495,4,2,2,85,1,0
113614,-66.6666666666667,4,2,2,85,0,0
117574,497.92531120332,4,2,2,90,1,0
117574,-66.6666666666667,4,2,2,90,0,0
119565,495.049504950495,4,2,2,90,1,0
119565,-71.4285714285714,4,2,2,90,0,0
121545,-66.6666666666667,4,2,2,90,0,0
126248,-71.4285714285714,4,2,2,90,0,0
127238,-66.6666666666667,4,2,2,90,0,0
128475,499.168053244592,4,2,2,90,1,0
128475,-66.6666666666667,4,2,2,90,0,0
130471,494.641384995878,4,2,2,100,1,0
130471,-71.4285714285714,4,2,2,100,0,0
132449,-66.6666666666667,4,2,2,95,0,1
132944,-66.6666666666667,4,2,2,95,0,0
134428,496.277915632754,4,2,2,95,1,0
134428,-66.6666666666667,4,2,2,95,0,0
136413,-71.4285714285714,4,2,2,85,0,0
140383,-83.3333333333333,4,2,2,65,0,0
143112,-100,4,2,2,65,0,0
144105,-125,4,2,2,65,0,0
144353,504.201680672269,4,2,2,50,1,0
144353,-100,4,2,2,50,0,0
152168,-125,4,2,2,50,0,0
154689,-125,4,2,2,5,0,0
154941,-125,4,2,2,50,0,0
168050,-125,4,2,2,55,0,0
176117,-125,4,2,2,60,0,0
184689,562.851782363977,4,2,2,60,1,0
185673,-100,4,2,2,5,0,0
185814,-100,4,2,2,95,0,0
186799,-100,4,2,2,5,0,0
186940,491.803278688525,4,2,3,95,1,1
186940,-62.5,4,2,3,95,0,1
187185,-62.5,4,2,2,95,0,1
188907,-62.5,4,2,3,95,0,1
189152,-62.5,4,2,2,95,0,1
190874,-62.5,4,2,3,95,0,1
191119,-62.5,4,2,2,95,0,1
192841,-62.5,4,2,3,95,0,1
193086,-62.5,4,2,2,95,0,1
194808,-62.5,4,2,3,95,0,1
195053,-62.5,4,2,2,95,0,1
196776,-62.5,4,2,3,95,0,1
197021,-62.5,4,2,2,95,0,1
198743,-62.5,4,2,3,95,0,1
198988,-62.5,4,2,2,95,0,1
200710,-62.5,4,2,3,95,0,1
200955,-62.5,4,2,2,95,0,1
202677,-62.5,4,2,3,95,0,1
202922,-62.5,4,2,2,95,0,1
204644,-62.5,4,2,3,95,0,1
204889,-62.5,4,2,2,95,0,1
206612,-62.5,4,2,3,95,0,1
206857,-62.5,4,2,2,95,0,1
208579,-62.5,4,2,3,95,0,1
208824,-62.5,4,2,2,95,0,1
210546,-62.5,4,2,3,95,0,1
210791,-62.5,4,2,2,95,0,1
212513,-62.5,4,2,3,95,0,1
212758,-62.5,4,2,2,95,0,1
213497,-62.5,4,2,2,95,0,0
215464,-62.5,4,2,3,100,0,0
217431,491.803278688525,4,2,3,95,1,1
217431,-62.5,4,2,3,95,0,1
217676,-62.5,4,2,2,95,0,1
219398,-62.5,4,2,3,95,0,1
219643,-62.5,4,2,2,95,0,1
221365,-62.5,4,2,3,95,0,1
221610,-62.5,4,2,2,95,0,1
223332,-62.5,4,2,3,95,0,1
223577,-62.5,4,2,2,95,0,1
225299,-62.5,4,2,3,95,0,1
225544,-62.5,4,2,2,95,0,1
227267,-62.5,4,2,3,95,0,1
227512,-62.5,4,2,2,95,0,1
229234,-62.5,4,2,3,95,0,1
229479,-62.5,4,2,2,95,0,1
231201,-62.5,4,2,3,95,0,1
231446,-62.5,4,2,2,95,0,1
233168,-62.5,4,2,3,95,0,0

[Colours]
Combo1 : 212,212,212
Combo2 : 182,82,145

[HitObjects]
99,358,3315,5,2,2:2:0:0:
277,376,5369,1,2,2:2:0:0:
512,134,7424,5,2,2:2:0:0:
437,115,8451,1,2,2:2:0:0:
377,165,9479,1,2,2:2:0:0:
122,0,11534,5,2,2:2:0:0:
141,149,13583,1,2,2:2:0:0:
344,378,15633,5,2,2:2:0:0:
322,301,16657,1,2,2:2:0:0:
375,240,17682,1,2,2:2:0:0:
204,20,19732,5,2,2:2:0:0:
178,93,20749,1,2,2:2:0:0:
151,166,21767,1,2,2:2:0:0:
123,239,22785,1,2,2:2:0:0:
24,353,23803,5,2,2:2:0:0:
93,314,24821,1,2,2:2:0:0:
170,326,25838,1,2,2:2:0:0:
222,384,26856,1,2,2:2:0:0:
376,384,27874,5,2,2:2:0:0:
305,326,28890,1,2,2:2:0:0:
368,260,29906,1,2,2:2:0:0:
297,204,30922,1,2,2:2:0:0:
132,168,31938,5,2,2:2:0:0:
123,55,32951,1,2,2:2:0:0:
234,46,33965,1,2,2:2:0:0:
243,159,34978,1,2,2:2:0:0:
336,166,35482,6,0,L|441:173,1,84,2|0,2:0|0:0,0:0:0:0:
469,176,35986,6,0,L|454:230,3,56,6|2|2|2,2:2|2:2|2:2|2:2,0:0:0:0:
476,307,36985,2,0,L|493:367,3,56,2|2|2|2,2:2|2:2|2:2|2:2,0:0:0:0:
397,307,37985,5,2,2:2:0:0:
277,369,38484,1,2,2:2:0:0:
174,281,38984,2,0,P|119:272|74:303,1,112,2|2,2:2|2:2,0:0:0:0:
3,140,39984,6,0,L|59:147,3,56,2|2|2|2,2:2|2:2|2:2|2:2,0:0:0:0:
126,191,40983,1,2,2:2:0:0:
220,95,41483,1,2,2:2:0:0:
319,168,41983,6,0,L|382:161,3,56,2|2|2|2,2:2|2:2|2:2|2:2,0:0:0:0:
413,234,42983,2,0,P|468:243|513:212,1,112,2|2,2:2|2:2,0:0:0:0:
455,90,43982,6,0,L|460:34,1,56,2|2,2:2|2:2,0:0:0:0:
380,24,44482,2,0,L|374:79,1,56,2|2,2:2|2:2,0:0:0:0:
291,68,44982,1,2,2:2:0:0:
172,7,45482,1,2,2:2:0:0:
172,7,45731,1,2,2:2:0:0:
172,7,45981,6,0,L|177:63,1,56,2|2,2:2|2:2,0:0:0:0:
113,115,46481,2,0,L|118:171,1,56,2|2,2:2|2:2,0:0:0:0:
53,222,46981,2,0,P|99:253|153:244,1,112,2|2,2:2|2:2,0:0:0:0:
271,142,47981,5,2,2:2:0:0:
349,134,48230,1,2,2:2:0:0:
401,192,48480,2,0,P|419:226|417:262,1,56,2|2,2:2|2:2,0:0:0:0:
306,285,48980,2,0,P|326:251|358:236,1,56,2|2,2:2|2:2,0:0:0:0:
435,321,49480,2,0,P|395:319|366:299,2,56,2|2|0,2:2|2:2|2:2,0:0:0:0:
289,380,50479,5,2,2:2:0:0:
232,325,50729,1,2,2:2:0:0:
161,358,50979,2,0,P|106:366|61:335,1,112,2|2,2:2|2:2,0:0:0:0:
26,265,51729,1,2,2:2:0:0:
73,175,51979,6,0,P|157:157|231:145,1,140,6|2,2:2|2:2,0:0:0:0:
254,235,52729,2,0,P|357:252|461:266,1,210,2|0,2:2|0:0,0:0:0:0:
512,174,53728,1,2,2:2:0:0:
486,79,53978,6,0,P|428:29|364:47,1,140,2|2,2:2|2:2,0:0:0:0:
324,128,54728,2,0,P|363:29|479:46,1,210,2|0,2:2|0:0,0:0:0:0:
414,106,55727,1,2,2:2:0:0:
324,128,55977,5,2,2:2:0:0:
315,142,56227,2,0,P|260:126|165:102,2,140,2|2|0,2:2|2:2|0:0,0:0:0:0:
253,39,57477,1,2,2:2:0:0:
242,30,57726,5,2,2:2:0:0:
52,81,58226,1,2,2:2:0:0:
174,233,58726,2,0,P|215:225|266:222,1,70,2|0,2:2|2:2,0:0:0:0:
337,222,59226,1,2,2:2:0:0:
337,222,59476,1,2,2:2:0:0:
377,132,59726,6,0,P|437:192|425:256,1,140,2|0,2:2|0:0,0:0:0:0:
395,332,60475,1,2,2:2:0:0:
488,362,60725,2,0,P|418:352|349:345,1,140,2|0,2:2|0:0,0:0:0:0:
251,335,61475,1,2,2:2:0:0:
244,320,61725,5,2,2:2:0:0:
313,165,62225,1,2,2:2:0:0:
198,42,62724,2,0,P|133:21|75:56,1,140,2|0,2:2|0:0,0:0:0:0:
30,145,63474,5,2,2:2:0:0:
30,145,63724,2,0,P|103:169|169:197,1,140,2|0,2:2|0:0,0:0:0:0:
247,250,64474,1,2,2:2:0:0:
247,250,64724,2,0,P|311:223|378:201,1,140,2|0,2:2|0:0,0:0:0:0:
478,170,65473,1,2,2:2:0:0:
478,170,65723,2,0,P|493:103|453:48,1,140,2|0,2:2|0:0,0:0:0:0:
351,14,66473,1,2,2:2:0:0:
351,14,66723,6,0,P|287:58|271:19,1,140,2|0,2:2|0:0,0:0:0:0:
271,28,69971,6,0,L|246:209,1,167.999994873047,2|0,1:2|3:2,0:0:0:0:
248,194,70591,1,0,3:2:0:0:
248,194,70716,1,2,1:2:0:0:
140,212,70964,2,0,L|87:217,1,41.9999987182618,8|0,1:2|0:0,0:0:0:0:
70,259,71212,1,2,1:2:0:0:
70,259,71336,2,0,L|17:264,1,41.9999987182618,8|0,3:2|3:2,0:0:0:0:
127,361,71709,1,2,1:2:0:0:
235,297,71957,6,0,P|349:320|363:387,1,167.999994873047,0|0,1:2|3:2,0:0:0:0:
364,356,72578,1,0,3:2:0:0:
364,356,72702,1,2,1:2:0:0:
465,295,72951,2,0,L|471:242,1,41.9999987182618,8|0,1:2|0:0,0:0:0:0:
440,218,73199,1,0,1:2:0:0:
440,218,73323,2,0,L|446:165,1,41.9999987182618,8|0,3:2|3:2,0:0:0:0:
456,67,73696,1,2,1:2:0:0:
323,86,73944,5,2,1:2:0:0:
202,3,74191,2,0,P|237:90|256:154,1,125.999996154785,2|0,1:2|3:2,0:0:0:0:
241,133,74686,1,2,1:2:0:0:
139,165,74934,2,0,L|85:159,1,41.9999987182618,8|0,1:2|0:0,0:0:0:0:
66,127,75181,1,2,1:2:0:0:
66,127,75305,2,0,L|12:121,1,41.9999987182618,8|0,3:2|3:2,0:0:0:0:
0,263,75676,6,0,P|59:272|95:236,1,83.9999974365235,2|0,1:2|1:2,0:0:0:0:
135,340,76171,2,0,P|166:314|175:274,1,83.9999974365235,2|0,3:2|3:2,0:0:0:0:
275,263,76666,2,0,P|267:221|236:194,1,83.9999974365235,2|8,1:2|1:2,0:0:0:0:
234,153,77038,1,0,3:0:0:0:
234,153,77161,1,0,1:2:0:0:
234,153,77285,2,0,L|298:146,1,41.9999987182618,8|0,0:2|3:2,0:0:0:0:
384,139,77656,1,2,1:2:0:0:
298,21,77904,6,0,L|424:34,1,125.999996154785,2|0,1:2|3:2,0:0:0:0:
429,48,78399,2,0,L|512:56,1,83.9999974365235,2|0,3:2|1:2,0:0:0:0:
512,209,78894,2,0,L|386:222,1,125.999996154785,10|8,1:2|3:2,0:0:0:0:
381,236,79389,2,0,L|297:244,1,83.9999974365235,2|0,3:2|1:2,0:0:0:0:
221,344,79884,5,2,1:2:0:0:
159,254,80132,2,0,P|92:219|29:260,1,125.999996154785,2|0,3:2|3:2,0:0:0:0:
41,248,80627,1,2,1:2:0:0:
0,130,80874,2,0,L|53:136,1,41.9999987182618,8|0,1:2|0:0,0:0:0:0:
81,102,81122,1,0,1:2:0:0:
81,102,81245,2,0,L|134:108,1,41.9999987182618,8|0,3:2|3:2,0:0:0:0:
231,119,81617,1,2,1:2:0:0:
311,10,81864,5,2,1:2:0:0:
438,52,82112,2,0,P|481:95|478:156,1,125.999996154785,2|0,1:2|3:2,0:0:0:0:
465,164,82610,1,2,1:2:0:0:
471,273,82859,2,0,L|418:279,1,41.9999987182618,8|0,1:2|0:0,0:0:0:0:
393,249,83108,1,2,1:2:0:0:
393,249,83233,2,0,L|340:255,1,41.9999987182618,8|0,3:2|3:2,0:0:0:0:
245,319,83606,6,0,P|265:354|302:372,1,83.9999974365235,2|0,1:2|1:2,0:0:0:0:
182,268,84104,2,0,P|140:267|106:291,1,83.9999974365235,2|0,3:2|3:2,0:0:0:0:
257,238,84602,2,0,P|277:202|274:161,1,83.9999974365235,2|8,1:2|1:2,0:0:0:0:
261,119,84976,1,0,3:0:0:0:
261,119,85100,1,0,1:2:0:0:
261,119,85224,2,0,L|314:125,1,41.9999987182618,8|0,3:2|3:2,0:0:0:0:
175,68,85598,1,6,1:2:0:0:
90,188,85847,6,0,L|0:197,2,90.9999958343508,6|2|0,1:2|3:2|3:2,0:0:0:0:
182,261,86586,2,0,P|205:298|203:344,1,90.9999958343508,2|8,1:2|1:2,0:0:0:0:
95,321,87079,1,2,1:2:0:0:
97,334,87202,1,8,3:2:0:0:
99,347,87326,1,0,3:2:0:0:
182,261,87572,6,0,L|300:273,1,90.9999958343508,2|0,1:2|1:2,0:0:0:0:
350,168,88066,2,0,L|259:158,2,90.9999958343508,2|2|2,3:2|3:2|1:2,0:0:0:0:
477,182,88810,2,0,L|470:116,1,45.4999979171754,8|0,1:2|0:0,0:0:0:0:
436,101,89058,1,0,1:2:0:0:
436,101,89182,2,0,L|429:35,1,45.4999979171754,8|0,3:2|3:2,0:0:0:0:
323,4,89554,1,6,1:2:0:0:
210,102,89802,5,6,1:2:0:0:
69,50,90050,2,0,P|88:114|107:187,1,136.499993751526,6|0,1:2|3:2,0:0:0:0:
93,192,90546,2,0,P|62:224|55:269,1,90.9999958343508,2|8,1:2|1:2,0:0:0:0:
174,325,91042,2,0,P|204:292|211:247,1,90.9999958343508,2|0,1:2|3:2,0:0:0:0:
306,162,91538,1,2,1:2:0:0:
328,164,91661,1,0,3:2:0:0:
350,166,91785,5,0,1:2:0:0:
466,114,92033,2,0,P|455:158|446:202,1,90.9999958343508,2|0,3:2|3:2,0:0:0:0:
422,319,92531,1,2,1:2:0:0:
305,249,92780,2,0,L|312:313,1,45.4999979171754,8|0,1:2|0:0,0:0:0:0:
275,337,93029,1,0,1:2:0:0:
275,337,93154,2,0,L|281:403,1,45.4999979171754,8|0,3:2|3:2,0:0:0:0:
133,384,93527,1,6,1:2:0:0:
181,266,93776,6,0,P|171:187|112:159,1,136.499993751526,6|0,1:2|3:2,0:0:0:0:
120,143,94270,2,0,P|81:115|76:60,1,90.9999958343508,2|0,3:2|1:2,0:0:0:0:
6,172,94764,2,0,P|25:95|88:74,1,136.499993751526,10|8,1:2|3:2,0:0:0:0:
83,60,95258,2,0,P|125:38|137:-14,1,90.9999958343508,2|0,3:2|1:2,0:0:0:0:
275,42,95752,6,0,P|259:98|247:155,1,90.9999958343508,2|0,1:2|3:2,0:0:0:0:
251,129,96123,1,2,3:2:0:0:
251,129,96247,1,0,3:2:0:0:
375,175,96494,1,2,1:2:0:0:
466,84,96741,2,0,L|473:149,1,45.4999979171754,8|0,1:2|0:0,0:0:0:0:
507,164,96988,1,0,1:2:0:0:
507,164,97112,2,0,L|514:229,1,45.4999979171754,8|0,3:2|3:2,0:0:0:0:
493,327,97482,1,6,1:2:0:0:
361,263,97729,5,6,1:2:0:0:
249,370,97978,2,0,P|182:371|138:321,1,136.499993751526,6|0,1:2|3:2,0:0:0:0:
148,309,98477,2,0,P|206:285|267:265,1,90.9999958343508,2|8,1:2|1:2,0:0:0:0:
149,167,98975,2,0,P|91:143|19:118,1,136.499993751526,2|0,1:2|3:2,0:0:0:0:
7,124,99474,6,0,P|9:64|57:34,1,90.9999958343508,2|0,1:2|1:2,0:0:0:0:
151,9,99971,1,2,3:2:0:0:
149,22,100095,1,0,3:2:0:0:
147,35,100219,1,0,3:2:0:0:
263,58,100467,1,2,1:2:0:0:
379,81,100715,1,12,1:2:0:0:
384,65,100963,6,0,B|443:27|443:27|514:35,1,140,2|0,0:0|0:0,0:0:0:0:
464,111,101707,6,0,L|499:292,1,157.500006008148,6|0,1:2|3:2,0:0:0:0:
479,316,102203,1,2,3:2:0:0:
374,327,102452,1,2,1:2:0:0:
244,287,102700,5,10,1:2:0:0:
160,296,102948,1,2,1:2:0:0:
169,380,103197,1,2,3:2:0:0:
253,371,103445,1,2,1:2:0:0:
156,263,103693,6,0,P|97:245|24:228,1,105.000004005432,2|0,1:2|3:2,0:0:0:0:
0,109,104187,2,0,P|59:91|132:74,1,105.000004005432,2|0,3:2|1:2,0:0:0:0:
156,73,104557,1,0,3:2:0:0:
156,73,104681,6,0,P|205:130|280:121,1,157.500006008148,10|0,1:2|3:2,0:0:0:0:
319,86,105175,1,2,1:2:0:0:
423,1,105422,1,0,3:2:0:0:
443,4,105546,1,0,3:2:0:0:
463,7,105669,6,0,P|510:60|486:141,1,157.500006008148,2|0,1:2|3:2,0:0:0:0:
464,184,106164,1,2,3:2:0:0:
361,161,106411,1,2,1:2:0:0:
283,280,106658,6,0,L|464:264,1,157.500006008148,10|0,1:2|3:2,0:0:0:0:
492,274,107152,2,0,L|338:287,1,105.000004005432,2|0,3:2|1:2,0:0:0:0:
308,384,107646,5,2,1:2:0:0:
220,375,107894,1,2,3:2:0:0:
161,309,108143,1,2,3:2:0:0:
73,300,108392,1,2,1:2:0:0:
147,196,108641,6,0,P|197:189|239:219,2,105.000004005432,10|0|2,1:2|1:2|1:2,0:0:0:0:
59,152,109388,1,0,3:2:0:0:
34,149,109513,1,0,3:2:0:0:
9,146,109637,5,2,1:2:0:0:
23,59,109886,1,2,3:2:0:0:
103,22,110135,1,2,3:2:0:0:
182,59,110384,1,2,1:2:0:0:
152,183,110633,6,0,P|133:288|127:346,1,157.500006008148,10|0,1:2|3:2,0:0:0:0:
126,384,111131,1,2,3:2:0:0:
248,322,111380,1,2,1:2:0:0:
266,327,111504,1,0,3:2:0:0:
285,332,111629,5,2,1:2:0:0:
366,375,111877,1,2,3:2:0:0:
409,294,112125,1,2,3:2:0:0:
328,251,112373,1,2,1:2:0:0:
419,150,112621,6,0,P|469:144|512:175,2,105.000004005432,10|0|2,1:2|1:2|1:2,0:0:0:0:
450,44,113365,1,0,3:2:0:0:
436,24,113490,1,0,3:2:0:0:
422,4,113614,6,0,P|355:9|298:18,1,105.000004005432,2|2,1:2|3:2,0:0:0:0:
315,162,114109,5,6,3:2:0:0:
227,170,114356,1,2,1:2:0:0:
167,84,114604,5,14,1:2:0:0:
124,179,114851,1,2,1:2:0:0:
0,193,115099,5,6,3:2:0:0:
74,293,115346,1,2,1:2:0:0:
198,279,115594,6,0,L|369:261,1,157.500006008148,0|0,1:2|3:2,0:0:0:0:
410,257,116089,1,2,3:2:0:0:
410,257,116336,1,2,1:2:0:0:
510,130,116584,6,0,P|454:77|378:81,1,157.500006008148,14|0,1:2|3:2,0:0:0:0:
309,123,117079,2,0,L|300:184,1,52.5000020027161,2|0,1:2|3:2,0:0:0:0:
238,83,117326,2,0,L|247:20,1,52.5000020027161,2|0,3:2|3:0,0:0:0:0:
162,123,117574,6,0,P|91:134|30:82,1,157.500006008148,6|0,1:2|3:2,0:0:0:0:
12,93,118071,1,2,3:2:0:0:
90,231,118320,2,0,P|185:214|217:211,2,105.000004005432,2|8|0,1:2|1:2|1:2,0:0:0:0:
0,323,119067,1,0,3:2:0:0:
122,338,119316,2,0,L|173:344,1,52.5000020027161,2|0,1:2|3:2,0:0:0:0:
203,379,119565,6,0,P|269:353|297:287,1,146.999995513916,2|0,1:2|3:2,0:0:0:0:
289,276,120060,1,2,3:2:0:0:
411,235,120307,2,0,P|458:257|479:311,2,97.9999970092774,2|8|0,1:2|1:2|1:2,0:0:0:0:
320,143,121050,1,0,1:2:0:0:
377,51,121297,1,2,3:2:0:0:
406,47,121421,1,0,3:2:0:0:
435,43,121545,5,2,1:2:0:0:
311,0,121792,2,0,L|135:26,1,157.500006008148,2|0,3:2|3:2,0:0:0:0:
103,32,122287,2,0,P|66:67|59:119,2,105.000004005432,2|8|0,1:2|1:2|1:2,0:0:0:0:
210,117,123030,1,2,3:2:0:0:
103,210,123277,6,0,P|51:203|0:198,1,105.000004005432,2|0,1:2|1:2,0:0:0:0:
140,297,123772,2,0,P|87:290|34:286,1,105.000004005432,2|0,3:2|3:2,0:0:0:0:
183,384,124267,1,2,1:2:0:0:
297,308,124515,2,0,P|371:297|430:353,1,157.500006008148,8|0,1:2|3:2,0:0:0:0:
415,358,125010,1,2,1:2:0:0:
462,229,125258,6,0,P|484:179|512:126,2,105.000004005432,2|0|0,3:2|1:2|3:2,0:0:0:0:
351,150,126000,1,2,3:2:0:0:
351,150,126124,1,0,3:2:0:0:
351,150,126248,2,0,P|329:100|304:54,2,97.9999970092774,2|8|0,1:2|1:2|1:2,0:0:0:0:
428,36,126990,1,2,3:2:0:0:
296,73,127238,6,0,P|227:62|198:12,1,105.000004005432,2|0,1:2|1:2,0:0:0:0:
64,143,127733,2,0,P|132:132|161:82,1,105.000004005432,2|0,3:2|3:2,0:0:0:0:
255,249,128228,1,2,1:2:0:0:
230,247,128352,1,0,3:2:0:0:
207,244,128475,5,0,1:2:0:0:
119,257,128724,1,0,3:2:0:0:
132,345,128974,1,0,3:2:0:0:
220,332,129223,1,0,3:2:0:0:
335,231,129473,5,0,3:2:0:0:
440,243,129722,1,0,3:2:0:0:
452,137,129972,1,0,3:2:0:0:
346,126,130222,1,0,3:2:0:0:
210,57,130471,6,0,L|204:1,1,48.9999985046387,0|0,1:2|3:2,0:0:0:0:
103,68,130718,2,0,L|36:74,1,48.9999985046387,0|0,1:2|3:2,0:0:0:0:
114,175,130965,2,0,L|122:250,1,48.9999985046387,0|0,1:2|3:2,0:0:0:0:
221,164,131212,2,0,L|298:155,1,48.9999985046387,0|0,1:2|3:2,0:0:0:0:
221,164,132449,6,0,P|299:223|264:315,1,210.000008010865,4|2,1:2|3:2,0:0:0:0:
127,378,133191,1,2,1:2:0:0:
123,353,133315,1,0,3:2:0:0:
119,328,133438,2,0,P|99:248|75:170,1,157.500006008148,8|0,1:2|3:2,0:0:0:0:
63,180,133933,1,2,3:2:0:0:
94,48,134180,6,0,P|60:38|-8:78,2,105.000004005432,2|0|0,1:2|1:2|3:2,0:0:0:0:
221,139,134924,1,2,3:2:0:0:
221,139,135172,2,0,P|255:149|323:109,2,105.000004005432,2|8|0,1:2|1:2|1:2,0:0:0:0:
251,15,135916,1,0,1:2:0:0:
393,35,136164,1,0,3:2:0:0:
405,56,136289,1,0,3:2:0:0:
416,76,136413,6,0,P|374:206|327:377,1,293.999991027832,2|0,1:2|1:2,0:0:0:0:
447,244,137405,2,0,P|328:276|211:312,1,244.999992523194,10|0,1:2|3:2,0:0:0:0:
198,304,138150,1,2,1:2:0:0:
119,199,138398,6,0,P|78:225|64:283,1,97.9999970092774,0|2,1:2|3:2,0:0:0:0:
68,318,138770,1,2,3:2:0:0:
68,318,138894,1,2,3:2:0:0:
209,384,139142,2,0,P|194:336|172:281,1,97.9999970092774,0|8,1:2|1:2,0:0:0:0:
249,180,139638,1,0,1:2:0:0:
273,184,139762,1,0,3:2:0:0:
297,188,139887,1,2,1:2:0:0:
401,133,140135,1,2,3:2:0:0:
354,25,140383,5,6,1:2:0:0:
345,35,140631,2,0,L|254:46,2,83.9999974365235,2|0|0,3:2|3:2|1:2,0:0:0:0:
453,22,141375,1,8,1:2:0:0:
452,35,141624,2,0,P|483:82|468:133,1,83.9999974365235,2|0,1:2|3:2,0:0:0:0:
432,205,142120,2,0,P|434:246|461:277,2,83.9999974365235,2|0|0,1:2|1:2|0:0,0:0:0:0:
335,256,142864,1,0,3:2:0:0:
324,267,143112,6,0,P|282:258|250:254,2,70,2|2|0,3:2|0:0|3:2,0:0:0:0:
429,367,144105,2,0,P|456:362|484:360,1,56,2|2,3:2|3:2,0:0:0:0:
429,367,152168,5,2,0:2:0:0:
361,327,152420,2,0,L|300:333,3,56,2|2|2|2,0:2|0:2|0:2|0:2,0:0:0:0:
227,341,153428,1,2,0:2:0:0:
91,261,153932,1,2,0:2:0:0:
14,277,154184,2,0,P|47:192|134:195,1,168,2|2,0:2|0:2,0:0:0:0:
184,223,155193,1,2,0:2:0:0:
96,55,156201,6,0,L|89:-19,2,56,2|2|2,0:2|0:2|0:2,0:0:0:0:
228,83,157210,1,2,0:2:0:0:
283,13,157714,1,2,0:2:0:0:
371,3,158218,1,2,0:2:0:0:
439,58,158722,1,2,0:2:0:0:
447,144,159226,1,2,0:2:0:0:
512,317,159983,6,0,L|448:323,1,56,2|2,0:2|0:2,0:0:0:0:
321,224,160991,2,0,L|376:218,1,56,2|2,0:2|0:2,0:0:0:0:
267,367,162000,6,0,L|203:373,1,56,2|2,0:2|0:2,0:0:0:0:
76,274,163008,2,0,L|131:268,1,56,2|2,0:2|0:2,0:0:0:0:
31,111,164016,6,0,L|25:56,1,56,2|2,0:2|0:2,0:0:0:0:
148,171,165025,2,0,L|142:226,1,56,2|2,0:2|0:2,0:0:0:0:
247,55,166033,6,0,L|241:0,1,56,2|2,0:2|0:2,0:0:0:0:
364,115,167042,2,0,L|358:170,1,56,2|2,0:2|0:2,0:0:0:0:
164,270,168050,6,0,L|219:276,1,56,2|2,0:2|0:2,0:0:0:0:
300,383,168995,2,0,L|376:374,1,70,2|2,0:2|0:2,0:0:0:0:
491,276,170067,6,0,L|436:270,1,56,2|2,0:2|0:2,0:0:0:0:
301,255,171075,1,2,0:2:0:0:
278,168,171579,1,2,0:2:0:0:
436,45,172336,6,0,L|513:36,2,56,2|2|2,0:2|0:2|0:2,0:0:0:0:
303,59,173344,1,2,0:2:0:0:
219,24,173848,1,2,0:2:0:0:
166,96,174353,1,2,0:2:0:0:
83,62,174857,1,2,0:2:0:0:
0,27,175361,1,2,0:2:0:0:
97,175,176117,6,0,L|90:237,1,56,2|2,0:2|0:2,0:0:0:0:
213,347,177126,2,0,L|207:291,1,56,2|2,0:2|0:2,0:0:0:0:
390,211,178134,6,0,L|383:273,1,56,2|2,0:2|0:2,0:0:0:0:
506,383,179142,2,0,L|500:327,1,56,2|2,0:2|0:2,0:0:0:0:
390,211,180151,6,0,L|334:216,1,56,2|2,0:2|0:2,0:0:0:0:
122,173,181159,2,0,L|177:167,1,56,2|2,0:2|0:2,0:0:0:0:
237,326,182168,6,0,L|231:270,1,56,2|2,0:2|0:2,0:0:0:0:
275,58,183176,2,0,L|280:113,1,56,2|2,0:2|0:2,0:0:0:0:
256,192,183680,12,0,185673,0:0:0:0:
188,206,186236,6,0,B|256:191|256:191|319:222,1,140,2|0,0:0|0:0,0:0:0:0:
244,276,186940,6,0,L|267:107,1,168,6|0,1:2|3:2,0:0:0:0:
278,35,187431,1,2,3:2:0:0:
373,23,187677,1,2,1:2:0:0:
488,154,187923,5,10,1:2:0:0:
393,166,188169,1,2,1:2:0:0:
403,262,188415,1,2,3:2:0:0:
499,251,188661,1,2,1:2:0:0:
493,284,188784,1,0,3:2:0:0:
487,317,188907,6,0,P|454:357|394:359,1,112,2|0,1:2|3:2,0:0:0:0:
259,256,189399,2,0,P|204:253|166:291,1,112,2|0,3:2|1:2,0:0:0:0:
227,372,189767,1,0,3:2:0:0:
227,372,189890,6,0,P|251:319|271:263,2,112,10|0|2,1:2|1:2|1:2,0:0:0:0:
70,384,190628,1,0,3:2:0:0:
43,347,190751,1,0,3:2:0:0:
55,304,190874,6,0,P|66:213|-14:173,1,168,2|0,1:2|3:2,0:0:0:0:
0,182,191366,1,2,3:2:0:0:
131,141,191612,1,2,1:2:0:0:
17,0,191858,6,0,L|195:26,1,168,10|0,1:2|3:2,0:0:0:0:
258,48,192349,2,0,L|147:31,1,112,2|0,3:2|1:2,0:0:0:0:
189,235,192841,5,2,1:2:0:0:
289,223,193087,1,2,3:2:0:0:
389,211,193333,1,2,3:2:0:0:
489,199,193579,1,2,1:2:0:0:
406,345,193825,6,0,P|358:335|258:321,1,112,10|0,1:2|1:2,0:0:0:0:
166,361,194317,1,2,1:2:0:0:
123,343,194440,1,0,3:2:0:0:
95,307,194562,1,0,3:2:0:0:
89,261,194685,1,0,3:2:0:0:
105,218,194808,5,2,1:2:0:0:
210,243,195054,1,2,3:2:0:0:
127,113,195300,1,2,3:2:0:0:
235,138,195546,1,2,1:2:0:0:
341,31,195792,6,0,P|468:38|482:95,1,168,10|0,1:2|3:2,0:0:0:0:
475,70,196284,1,2,3:2:0:0:
512,206,196530,1,2,1:2:0:0:
491,245,196653,1,0,3:2:0:0:
471,285,196776,5,2,1:2:0:0:
374,300,197021,1,2,3:2:0:0:
256,227,197267,1,2,3:2:0:0:
164,238,197513,1,2,1:2:0:0:
90,345,197759,6,0,P|132:378|186:369,2,112,10|0|2,1:2|1:2|1:2,0:0:0:0:
1,253,198497,1,0,3:2:0:0:
28,218,198620,1,0,3:2:0:0:
30,173,198743,6,0,P|9:97|-11:42,1,112,2|2,1:2|3:2,0:0:0:0:
118,123,199235,6,0,L|174:130,1,56,6|0,3:2|3:2,0:0:0:0:
258,136,199480,1,2,1:2:0:0:
292,2,199726,6,0,L|316:53,1,56,14|0,1:2|3:0,0:0:0:0:
359,146,199972,1,2,1:2:0:0:
512,114,200218,6,0,L|480:160,1,56,6|0,3:2|3:2,0:0:0:0:
409,257,200464,1,2,1:2:0:0:
359,146,200710,5,0,1:2:0:0:
352,161,201202,1,2,3:2:0:0:
262,228,201448,1,2,1:2:0:0:
352,342,201694,6,0,P|462:345|507:243,1,224,14|2,1:2|1:2,0:0:0:0:
446,99,202431,1,2,3:2:0:0:
406,77,202554,1,0,3:2:0:0:
366,55,202677,6,0,P|256:63|179:78,1,168,6|0,1:2|3:2,0:0:0:0:
188,78,203169,1,2,3:2:0:0:
257,194,203415,2,0,P|328:202|362:178,2,112,2|8|0,1:2|1:2|1:2,0:0:0:0:
119,290,204153,1,0,3:2:0:0:
252,305,204399,2,0,P|222:310|183:321,1,56,2|0,1:2|3:2,0:0:0:0:
137,373,204644,6,0,P|39:321|45:252,1,168,2|0,1:2|3:2,0:0:0:0:
29,257,205136,1,2,3:2:0:0:
106,118,205382,2,0,P|52:92|-11:120,2,112,2|8|0,1:2|1:2|1:2,0:0:0:0:
162,185,205997,1,0,3:2:0:0:
162,185,206120,1,0,1:2:0:0:
218,63,206366,2,0,P|245:57|273:53,1,56,2|0,3:2|3:2,0:0:0:0:
388,41,206612,5,2,1:2:0:0:
344,186,206858,2,0,P|435:204|488:113,1,168,2|0,3:2|3:2,0:0:0:0:
473,141,207349,2,0,P|486:86|502:32,2,112,2|8|0,1:2|1:2|1:2,0:0:0:0:
312,163,208087,2,0,P|273:169|235:180,1,56,2|0,3:2|3:2,0:0:0:0:
184,210,208333,1,2,1:2:0:0:
190,225,208456,1,0,3:2:0:0:
197,240,208579,5,0,1:2:0:0:
158,372,208825,1,2,3:2:0:0:
146,345,208948,1,0,3:2:0:0:
133,319,209071,1,0,3:2:0:0:
252,358,209317,1,2,1:2:0:0:
368,258,209562,2,0,P|442:210|549:156,1,168,8|0,1:2|3:2,0:0:0:0:
512,159,210054,1,2,1:2:0:0:
388,95,210300,6,0,P|351:37|373:-11,2,112,2|0|0,3:2|1:2|3:2,0:0:0:0:
240,166,211038,2,0,P|198:156|155:151,1,56,2|0,3:2|3:2,0:0:0:0:
107,140,211284,2,0,P|70:198|92:246,2,112,2|8|0,1:2|1:2|1:2,0:0:0:0:
45,8,212021,2,0,P|35:34|38:61,1,56,2|0,3:2|3:2,0:0:0:0:
134,46,212267,6,0,L|290:26,1,112,2|0,1:2|1:2,0:0:0:0:
365,164,212759,2,0,L|253:178,1,112,2|0,3:2|3:2,0:0:0:0:
111,284,213251,1,2,1:2:0:0:
111,284,213374,1,0,3:2:0:0:
111,284,213497,6,0,L|106:339,1,56,0|0,1:2|3:2,0:0:0:0:
191,297,213743,2,0,L|186:352,1,56,0|0,1:2|3:2,0:0:0:0:
271,310,213989,2,0,L|266:365,1,56,0|0,1:2|3:2,0:0:0:0:
351,323,214235,2,0,L|346:378,1,56,0|0,1:2|3:2,0:0:0:0:
459,254,214480,6,0,L|403:258,1,56,0|0,1:2|3:2,0:0:0:0:
357,176,214726,2,0,L|412:171,1,56,0|0,1:2|3:2,0:0:0:0:
445,82,214972,2,0,L|389:86,1,56,0|0,1:2|3:2,0:0:0:0:
344,5,215218,2,0,L|399:0,1,56,0|0,1:2|3:2,0:0:0:0:
240,71,215464,6,0,L|247:-12,1,56,0|0,1:2|3:2,0:0:0:0:
126,90,215710,2,0,L|42:82,1,56,0|0,1:2|3:2,0:0:0:0:
145,203,215956,2,0,L|140:258,1,56,0|0,1:2|3:2,0:0:0:0:
258,184,216202,2,0,L|313:188,1,56,0|0,1:2|3:2,0:0:0:0:
192,137,216448,5,0,1:2:0:0:
192,137,217431,6,0,L|176:315,1,168,4|0,1:2|3:2,0:0:0:0:
191,306,217922,1,2,3:2:0:0:
43,300,218168,2,0,P|54:247|101:219,2,112,2|8|0,1:2|1:2|1:2,0:0:0:0:
64,381,218783,1,0,3:2:0:0:
64,381,218906,1,2,3:2:0:0:
191,306,219152,2,0,P|238:330|252:383,2,112,2|0|0,1:2|1:2|3:2,0:0:0:0:
361,302,219890,6,0,P|406:288|428:284,1,56,2|0,3:2|3:2,0:0:0:0:
512,284,220135,2,0,B|464:294|430:257|430:257|378:196|310:234,1,224,2|0,1:2|1:2,0:0:0:0:
264,85,220873,6,0,P|264:42|299:11,1,56,2|0,1:2|3:2,0:0:0:0:
351,39,221119,2,0,P|351:82|316:113,1,56,2|0,3:2|3:2,0:0:0:0:
259,165,221365,6,0,P|247:76|233:0,1,168,0|0,1:2|3:2,0:0:0:0:
218,0,221857,1,2,3:2:0:0:
90,69,222103,2,0,P|36:63|3:17,2,112,2|8|0,1:2|1:2|1:2,0:0:0:0:
168,100,222717,1,0,3:2:0:0:
168,100,222840,1,2,3:2:0:0:
37,172,223086,2,0,P|2:214|11:272,2,112,2|0|0,1:2|1:2|3:2,0:0:0:0:
92,241,223701,1,0,3:2:0:0:
92,241,223824,6,0,P|135:247|183:262,1,56,2|0,3:2|3:2,0:0:0:0:
196,311,224070,2,0,P|295:346|365:267,1,224,2|0,1:2|1:2,0:0:0:0:
503,171,224808,6,0,L|418:185,1,56,6|0,1:2|3:2,0:0:0:0:
406,106,225053,2,0,L|461:96,1,56,6|0,1:2|3:2,0:0:0:0:
499,7,225299,6,0,L|327:36,1,168,4|0,1:2|3:2,0:0:0:0:
281,46,225791,1,2,3:2:0:0:
131,0,226037,2,0,P|95:45|139:125,2,112,2|8|0,1:2|1:2|1:2,0:0:0:0:
180,68,226652,1,0,3:2:0:0:
180,68,226775,1,2,3:2:0:0:
256,191,227021,2,0,P|213:225|159:218,2,112,2|0|0,1:2|1:2|3:2,0:0:0:0:
422,166,227758,6,0,P|387:156|346:146,1,56,2|0,3:2|3:2,0:0:0:0:
296,118,228004,2,0,P|432:155|520:182,1,224,2|0,1:2|1:2,0:0:0:0:
434,348,228742,5,2,1:2:0:0:
397,319,228865,1,0,3:2:0:0:
352,307,228988,1,2,3:2:0:0:
307,312,229111,1,0,3:2:0:0:
267,336,229234,6,0,P|110:286|151:93,1,392,2|0,1:2|3:2,0:0:0:0:
227,95,230217,2,0,P|295:99|296:281,1,280,10|0,1:2|3:2,0:0:0:0:
256,192,230955,1,2,1:2:0:0:
383,318,231201,2,0,P|436:176|185:24,1,448,0|10,1:2|1:2,0:0:0:0:
167,50,232308,5,2,3:2:0:0:
167,50,232431,2,0,L|108:54,1,56,2|2,1:2|3:2,0:0:0:0:
213,124,232676,2,0,L|268:120,1,56,6|2,1:2|3:2,0:0:0:0:
180,205,232922,2,0,L|123:209,1,56,6|2,1:2|3:2,0:0:0:0:
281,273,233168,5,6,1:2:0:0:
