osu file format v14

[General]
AudioFilename: audio.mp3
AudioLeadIn: 0
PreviewTime: 186236
Countdown: 0
SampleSet: Soft
StackLeniency: 0.5
Mode: 0
LetterboxInBreaks: 0
WidescreenStoryboard: 1

[Editor]
Bookmarks: 19722,35956,51989,69954,85813,101680,117586,132419,144358,152425,168559,186940,202677,217431,233168,244971,246939
DistanceSpacing: 1.1
BeatDivisor: 4
GridSize: 16
TimelineZoom: 2.149999

[Metadata]
Title:Teen Idle
TitleUnicode:Teen Idle
Artist:Marina and the Diamonds
ArtistUnicode:Marina and the Diamonds
Creator:-Waterlemon
Version:Alive
Source:
Tags:lurumic supreme water synth synth-pop pop english idol lambrini diamandis liam howe electra heart Μαρίνα-Λαμπρινή Διαμαντή &
BeatmapID:3666530
BeatmapSetID:1784342

[Difficulty]
HPDrainRate:5
CircleSize:4
OverallDifficulty:8
ApproachRate:8.5
SliderMultiplier:1.4
SliderTickRate:1

[Events]
//Background and Video events
0,0,"bg thingy.jpg",0,0
//Break Periods
2,67422,69296
2,144553,151493
//Storyboard Layer 0 (Background)
//Storyboard Layer 1 (Fail)
//Storyboard Layer 2 (Pass)
//Storyboard Layer 3 (Foreground)
//Storyboard Layer 4 (Overlay)
//Storyboard Sound Samples

[TimingPoints]
3315,513.698630136986,4,2,1,50,1,0
3315,-100,4,2,1,50,0,0
11534,512.382578992314,4,2,1,50,1,0
11534,-100,4,2,1,50,0,0
19732,508.905852417303,4,2,1,50,1,0
19732,-100,4,2,1,50,0,0
27874,508.044030482642,4,2,1,50,1,0
31938,506.756756756757,4,2,1,50,1,0
31938,-100,4,2,1,50,0,0
33965,-200,4,2,1,50,0,0
34471,-200,4,2,1,5,0,0
34978,504.201680672269,4,2,1,50,1,0
34978,-200,4,2,1,50,0,0
35482,-100,4,2,1,50,0,0
35860,-100,4,2,1,5,0,0
35986,499.791753436068,4,2,1,60,1,0
35986,-100,4,2,1,60,0,0
37985,-83.3333333333333,4,2,1,60,0,0
38360,-100,4,2,1,5,0,0
38484,-66.6666666666667,4,2,1,60,0,0
38859,-100,4,2,1,5,0,0
38984,-100,4,2,1,60,0,0
39359,-100,4,2,1,5,0,0
39484,-100,4,2,1,60,0,0
41358,-100,4,2,1,5,0,0
41483,-100,4,2,1,60,0,0
41858,-100,4,2,1,5,0,0
41983,-100,4,2,1,60,0,0
43357,-100,4,2,1,5,0,0
43482,-100,4,2,1,60,0,0
45357,-100,4,2,1,5,0,0
45482,-100,4,2,1,60,0,0
46981,-83.3333333333333,4,2,1,60,0,0
47356,-100,4,2,1,5,0,0
47481,-100,4,2,1,60,0,0
47981,-100,4,2,1,60,0,0
49730,-66.6666666666667,4,2,1,60,0,0
50479,-100,4,2,1,60,0,0
50979,-83.3333333333333,4,2,1,60,0,0
51354,-100,4,2,1,5,0,0
51479,-100,4,2,1,60,0,0
51729,-83.3333333333333,4,2,1,60,0,0
51854,-100,4,2,1,5,0,0
51979,-66.6666666666667,4,2,1,70,0,0
52354,-100,4,2,1,5,0,0
52479,-66.6666666666667,4,2,1,70,0,0
53228,-66.6666666666667,4,2,1,5,0,0
53478,-66.6666666666667,4,2,1,70,0,0
53978,-100,4,2,1,70,0,0
54353,-100,4,2,1,5,0,0
54478,-100,4,2,1,70,0,0
54728,-125,4,2,1,70,0,0
55227,-125,4,2,1,5,0,0
55477,-125,4,2,1,70,0,0
55977,-76.9230769230769,4,2,1,70,0,0
56602,-100,4,2,1,5,0,0
56727,-76.9230769230769,4,2,1,70,0,0
57976,-100,4,2,1,70,0,0
59226,-71.4285714285714,4,2,1,70,0,0
59351,-100,4,2,1,5,0,0
59476,-71.4285714285714,4,2,1,70,0,0
59601,-100,4,2,1,5,0,0
59726,-71.4285714285714,4,2,1,70,0,0
59976,-83.3333333333333,4,2,1,70,0,0
60225,-83.3333333333333,4,2,1,5,0,0
60475,-83.3333333333333,4,2,1,70,0,0
63724,-100,4,2,1,70,0,0
64724,-83.3333333333333,4,2,1,70,0,0
65723,-71.4285714285714,4,2,1,70,0,0
67222,-100,4,2,1,5,0,0
69971,496.688741721854,4,2,1,65,1,0
69971,-71.4285714285714,4,2,1,65,0,0
73944,495.049504950495,4,2,1,65,1,0
73944,-71.4285714285714,4,2,1,65,0,0
77656,-55.5555555555556,4,2,1,65,0,0
77904,-50,4,2,1,65,0,0
80874,-71.4285714285714,4,2,1,65,0,0
81864,497.92531120332,4,2,1,65,1,0
81864,-50,4,2,1,65,0,0
82859,-71.4285714285714,4,2,1,65,0,0
85598,-55.5555555555556,4,2,1,65,0,0
85847,493.015612161052,4,2,1,75,1,0
85847,-55.5555555555556,4,2,1,75,0,0
87819,495.867768595041,4,2,1,75,1,0
87819,-55.5555555555556,4,2,1,75,0,0
88066,-50,4,2,1,75,0,0
88562,-55.5555555555556,4,2,1,75,0,0
89802,-45.4545454545455,4,2,1,75,0,0
91785,497.92531120332,4,2,1,75,1,0
91785,-45.4545454545455,4,2,1,75,0,0
92780,-55.5555555555556,4,2,1,75,0,0
93776,494.233937397035,4,2,1,75,1,0
93776,-55.5555555555556,4,2,1,75,0,0
97729,498.753117206983,4,2,1,75,1,0
97729,-55.5555555555556,4,2,1,75,0,0
99474,-50,4,2,1,75,0,0
99724,495.867768595041,4,2,1,75,1,0
99724,-50,4,2,1,75,0,0
100963,-333.333333333333,4,2,1,75,0,0
101459,-333.333333333333,4,2,1,5,0,0
101707,496.688741721854,4,2,2,85,1,0
101707,-45.4545454545455,4,2,2,85,0,0
103693,494.233937397035,4,2,2,85,1,0
103693,-45.4545454545455,4,2,2,85,0,0
107646,497.92531120332,4,2,2,85,1,0
107646,-45.4545454545455,4,2,2,85,0,0
111629,496.277915632754,4,2,2,85,1,0
111629,-45.4545454545455,4,2,2,85,0,0
112621,-41.6666666666667,4,2,2,85,0,0
113614,495.049504950495,4,2,2,85,1,0
113614,-45.4545454545455,4,2,2,85,0,0
115594,-41.6666666666667,4,2,2,85,0,0
116089,-45.4545454545455,4,2,2,85,0,0
116584,-38.4615384615385,4,2,2,85,0,0
116831,-45.4545454545455,4,2,2,85,0,0
117574,497.92531120332,4,2,2,90,1,0
117574,-38.4615384615385,4,2,2,90,0,0
118071,-41.6666666666667,4,2,2,90,0,0
119316,-45.4545454545455,4,2,2,90,0,0
119565,495.049504950495,4,2,2,90,1,0
119565,-45.4545454545455,4,2,2,90,0,0
125258,-41.6666666666667,4,2,2,90,0,0
125753,-45.4545454545455,4,2,2,90,0,0
127238,-41.6666666666667,4,2,2,90,0,0
128475,499.168053244592,4,2,2,90,1,0
128475,-100,4,2,2,90,0,0
129473,-62.5,4,2,2,90,0,0
130471,494.641384995878,4,2,2,100,1,0
130471,-45.4545454545455,4,2,2,100,0,0
132449,-38.4615384615385,4,2,2,95,0,1
132944,-45.4545454545455,4,2,2,95,0,0
134428,496.277915632754,4,2,2,95,1,0
134428,-45.4545454545455,4,2,2,95,0,0
136413,-45.4545454545455,4,2,2,85,0,0
138150,-50,4,2,2,85,0,0
140383,-55.5555555555556,4,2,2,65,0,0
141624,-62.5,4,2,2,65,0,0
144353,504.201680672269,4,2,2,50,1,0
152168,-100,4,2,2,50,0,0
152420,-133.333333333333,4,2,2,50,0,0
168050,-133.333333333333,4,2,2,55,0,0
173218,-133.333333333333,4,2,2,5,0,0
173344,-133.333333333333,4,2,2,55,0,0
176117,-133.333333333333,4,2,2,60,0,0
184689,562.851782363977,4,2,2,60,1,0
184689,-100,4,2,2,5,0,0
185814,-100,4,2,2,95,0,0
186096,-333.333333333333,4,2,2,95,0,0
186799,-333.333333333333,4,2,2,5,0,0
186940,491.803278688525,4,2,3,95,1,1
186940,-35.7142857142857,4,2,3,95,0,1
187185,-35.7142857142857,4,2,2,95,0,1
188907,-35.7142857142857,4,2,3,95,0,1
189153,-35.7142857142857,4,2,2,95,0,1
190874,-35.7142857142857,4,2,3,95,0,1
191120,-35.7142857142857,4,2,2,95,0,1
192841,-35.7142857142857,4,2,3,95,0,1
193087,-35.7142857142857,4,2,2,95,0,1
194808,-35.7142857142857,4,2,3,95,0,1
195054,-35.7142857142857,4,2,2,95,0,1
196776,-35.7142857142857,4,2,3,95,0,1
197022,-35.7142857142857,4,2,2,95,0,1
197759,-33.3333333333333,4,2,2,95,0,1
198251,-35.7142857142857,4,2,2,95,0,1
198743,-35.7142857142857,4,2,3,95,0,1
198989,-35.7142857142857,4,2,2,95,0,1
200710,-33.3333333333333,4,2,3,95,0,1
200956,-33.3333333333333,4,2,2,95,0,1
201202,-35.7142857142857,4,2,2,95,0,1
201694,-30.3030303030303,4,2,2,95,0,1
202185,-35.7142857142857,4,2,2,95,0,0
202677,-33.3333333333333,4,2,3,95,0,1
202923,-33.3333333333333,4,2,2,95,0,1
204030,-35.7142857142857,4,2,2,95,0,1
204644,-35.7142857142857,4,2,3,95,0,1
204890,-35.7142857142857,4,2,2,95,0,1
206612,-35.7142857142857,4,2,3,95,0,1
206858,-35.7142857142857,4,2,2,95,0,1
208333,-35.7142857142857,4,2,2,95,0,1
208579,-35.7142857142857,4,2,3,95,0,1
208825,-35.7142857142857,4,2,2,95,0,1
210300,-33.3333333333333,4,2,2,95,0,1
210546,-33.3333333333333,4,2,3,95,0,1
210792,-35.7142857142857,4,2,2,95,0,1
212267,-28.5714285714286,4,2,2,95,0,1
212513,-28.5714285714286,4,2,3,95,0,1
212759,-28.5714285714286,4,2,2,95,0,1
213497,-28.5714285714286,4,2,2,95,0,0
215464,-28.5714285714286,4,2,3,100,0,0
215956,-28.5714285714286,4,2,3,100,0,0
216448,-28.5714285714286,4,2,3,100,0,0
217431,491.803278688525,4,2,3,95,1,1
217431,-29.4117647058824,4,2,3,95,0,1
217677,-29.4117647058824,4,2,2,95,0,1
217922,-35.7142857142857,4,2,2,95,0,1
219398,-35.7142857142857,4,2,3,95,0,1
219644,-35.7142857142857,4,2,2,95,0,1
221365,-35.7142857142857,4,2,3,95,0,1
221611,-35.7142857142857,4,2,2,95,0,1
223332,-35.7142857142857,4,2,3,95,0,1
223578,-35.7142857142857,4,2,2,95,0,1
224808,-35.7142857142857,4,2,2,95,0,0
225299,-29.4117647058824,4,2,3,95,0,1
225545,-29.4117647058824,4,2,2,95,0,1
225791,-35.7142857142857,4,2,2,95,0,1
227267,-35.7142857142857,4,2,3,95,0,1
227513,-35.7142857142857,4,2,2,95,0,1
229234,-33.3333333333333,4,2,3,95,0,1
229480,-33.3333333333333,4,2,2,95,0,1
230955,-35.7142857142857,4,2,2,95,0,1
231201,-35.7142857142857,4,2,3,95,0,1
231447,-35.7142857142857,4,2,2,95,0,1
233168,-35.7142857142857,4,2,3,95,0,0

[Colours]
Combo1 : 212,212,212
Combo2 : 182,82,145

[HitObjects]
433,348,3314,5,2,2:2:0:0:
236,369,5369,1,2,2:2:0:0:
0,95,7424,5,2,2:2:0:0:
81,75,8451,1,2,2:2:0:0:
144,129,9479,1,2,2:2:0:0:
425,0,11534,5,2,2:2:0:0:
404,166,13583,1,2,2:2:0:0:
196,352,15633,5,2,2:2:0:0:
220,271,16657,1,2,2:2:0:0:
157,215,17682,1,2,2:2:0:0:
185,0,19732,5,2,2:2:0:0:
214,78,20749,1,2,2:2:0:0:
243,156,21767,1,2,2:2:0:0:
272,234,22785,1,2,2:2:0:0:
6,322,23803,5,2,2:2:0:0:
83,279,24821,1,2,2:2:0:0:
169,293,25838,1,2,2:2:0:0:
227,357,26856,1,2,2:2:0:0:
512,247,27874,5,2,2:2:0:0:
425,175,28890,1,2,2:2:0:0:
502,94,29906,1,2,2:2:0:0:
415,24,30922,1,2,2:2:0:0:
120,110,31938,5,2,2:2:0:0:
228,138,32951,1,2,2:2:0:0:
333,96,33965,1,2,0:0:0:0:
333,96,34218,2,0,P|321:130|312:164,1,70,2|0,2:2|0:0,0:0:0:0:
303,207,34978,1,2,2:2:0:0:
120,371,35482,6,0,P|183:336|235:363,1,105,2|0,2:0|0:0,0:0:0:0:
284,378,35986,5,6,2:2:0:0:
357,357,36235,1,2,2:2:0:0:
380,283,36485,1,2,2:2:0:0:
454,262,36735,1,2,2:2:0:0:
227,85,36985,1,2,2:2:0:0:
150,74,37235,1,2,2:2:0:0:
140,149,37485,1,2,2:2:0:0:
217,160,37735,1,2,2:2:0:0:
0,308,37985,6,0,P|75:323|135:342,1,125.999996154785,2|0,2:2|0:0,0:0:0:0:
139,346,38484,2,0,P|168:274|254:286,1,157.500006008148,2|0,2:2|0:0,0:0:0:0:
332,346,38984,2,0,P|392:352|423:315,1,105,2|0,2:2|0:0,0:0:0:0:
417,304,39484,1,2,2:2:0:0:
433,0,39984,5,2,2:2:0:0:
497,41,40234,1,2,2:2:0:0:
512,117,40484,1,2,2:2:0:0:
465,179,40734,1,2,2:2:0:0:
236,53,40983,2,0,P|185:58|121:69,1,105,2|0,2:2|0:0,0:0:0:0:
104,141,41483,2,0,P|52:133|0:127,1,105,2|0,2:2|0:0,0:0:0:0:
148,307,41983,5,2,2:2:0:0:
188,373,42233,1,2,2:2:0:0:
255,335,42483,1,2,2:2:0:0:
215,269,42733,1,2,2:2:0:0:
421,295,42983,2,0,P|446:338|497:344,1,105,2|0,2:2|0:0,0:0:0:0:
508,332,43482,1,2,2:2:0:0:
146,65,43982,5,2,2:2:0:0:
211,23,44232,1,2,2:2:0:0:
281,54,44482,1,2,2:2:0:0:
346,12,44732,1,2,2:2:0:0:
512,176,44982,2,0,P|438:186|393:195,1,105,2|0,2:2|0:0,0:0:0:0:
395,202,45482,1,2,2:2:0:0:
371,275,45731,1,2,2:2:0:0:
109,311,45981,5,2,2:2:0:0:
132,384,46231,1,2,2:2:0:0:
21,284,46481,1,2,2:2:0:0:
44,357,46731,1,2,2:2:0:0:
158,105,46981,2,0,P|117:37|69:-27,1,125.999996154785,2|0,2:2|0:0,0:0:0:0:
237,118,47481,1,2,2:2:0:0:
512,29,47981,5,2,2:2:0:0:
455,81,48230,1,2,2:2:0:0:
377,60,48480,5,2,2:2:0:0:
414,173,48730,1,2,2:2:0:0:
225,147,48980,5,2,2:2:0:0:
328,238,49230,1,2,2:2:0:0:
118,318,49480,5,2,2:2:0:0:
286,346,49730,1,2,2:2:0:0:
129,330,49980,1,0,2:2:0:0:
139,341,50479,6,0,P|137:305|170:269,1,70,2|2,2:2|2:2,0:0:0:0:
264,185,50979,2,0,L|415:197,1,125.999996154785,2|0,2:2|0:0,0:0:0:0:
401,205,51479,1,2,2:2:0:0:
403,31,51729,2,0,P|388:34|353:46,1,41.9999987182618,2|0,2:2|0:0,0:0:0:0:
353,54,51979,6,0,P|318:12|212:45,1,157.500006008148,6|0,2:2|0:0,0:0:0:0:
174,86,52479,1,2,2:2:0:0:
0,207,52729,2,0,P|143:173|316:138,1,315.000012016297,2|0,2:2|0:0,0:0:0:0:
512,232,53728,1,2,2:2:0:0:
474,140,53978,6,0,P|437:199|413:243,1,105,2|0,2:2|0:0,0:0:0:0:
380,297,54478,1,2,2:2:0:0:
258,261,54728,2,0,P|163:287|154:361,1,168,2|0,2:2|0:0,0:0:0:0:
230,335,55727,1,2,2:2:0:0:
96,148,55977,5,2,2:2:0:0:
104,134,56227,2,0,P|198:121|255:110,1,136.499993751526,2|0,2:2|0:0,0:0:0:0:
321,0,56727,2,0,P|314:86|388:131,1,181.999991668702,2|0,2:2|0:0,0:0:0:0:
507,317,57477,1,2,2:2:0:0:
494,325,57726,5,2,2:2:0:0:
326,239,58226,1,2,2:2:0:0:
124,290,58726,1,2,2:2:0:0:
47,136,58976,5,0,2:2:0:0:
62,144,59226,2,0,P|85:136|108:129,1,48.9999985046387,2|0,2:2|0:0,0:0:0:0:
261,89,59476,2,0,P|237:82|214:74,1,48.9999985046387,2|0,2:2|0:0,0:0:0:0:
123,0,59726,6,0,P|180:93|160:239,1,244.999992523194,2|0,2:2|0:0,0:0:0:0:
69,384,60475,1,2,2:2:0:0:
156,355,60725,2,0,P|247:342|333:336,1,167.999994873047,2|0,2:2|0:0,0:0:0:0:
451,177,61475,1,2,2:2:0:0:
379,85,61725,6,0,P|338:70|277:107,1,83.9999974365235,2|0,2:2|0:0,0:0:0:0:
170,66,62225,2,0,P|181:26|213:0,1,83.9999974365235,2|0,2:2|0:0,0:0:0:0:
57,101,62724,2,0,P|64:143|127:177,2,83.9999974365235,2|0|0,2:2|0:0|0:0,0:0:0:0:
67,358,63474,5,2,2:2:0:0:
214,322,63724,2,0,P|124:350|62:375,1,140,2|0,2:2|0:0,0:0:0:0:
471,322,64474,1,2,2:2:0:0:
297,274,64724,2,0,P|405:308|467:333,1,167.999994873047,2|0,2:2|0:0,0:0:0:0:
30,213,65473,1,2,2:2:0:0:
190,179,65723,2,0,P|111:147|49:254,1,195.999994018555,2|0,2:2|0:0,0:0:0:0:
410,102,66473,1,2,2:2:0:0:
322,69,66723,6,0,P|380:12|399:91,1,195.999994018555,2|0,2:2|0:0,0:0:0:0:
3,90,69971,5,2,1:2:0:0:
112,0,70219,2,0,L|66:162,1,146.999995513916,2|0,3:2|3:2,0:0:0:0:
29,278,70716,1,2,1:2:0:0:
246,191,70964,2,0,L|258:272,1,48.9999985046387,8|0,1:2|0:0,0:0:0:0:
375,322,71212,1,2,1:2:0:0:
444,279,71336,2,0,L|456:360,2,48.9999985046387,8|0|0,3:2|3:2|3:2,0:0:0:0:
508,108,71709,1,2,1:2:0:0:
259,41,71957,6,0,B|305:68|350:24|350:24|394:-15|451:11,1,195.999994018555,0|0,1:2|3:2,0:0:0:0:
216,108,72578,1,0,3:2:0:0:
221,120,72702,1,2,1:2:0:0:
0,50,72951,2,0,L|61:40,1,48.9999985046387,8|0,1:2|0:0,0:0:0:0:
134,193,73199,1,0,1:2:0:0:
76,239,73323,2,0,L|15:229,2,48.9999985046387,8|0|0,3:2|3:2|3:2,0:0:0:0:
229,363,73696,1,2,1:2:0:0:
158,384,73820,1,0,3:0:0:0:
237,371,73944,5,2,1:2:0:0:
293,153,74191,1,2,1:2:0:0:
302,165,74439,1,0,3:2:0:0:
374,177,74562,1,0,3:2:0:0:
446,188,74686,1,2,1:2:0:0:
512,369,74934,2,0,L|463:374,1,48.9999985046387,8|0,1:2|0:0,0:0:0:0:
340,302,75181,1,2,1:2:0:0:
266,310,75305,2,0,L|217:315,2,48.9999985046387,8|0|0,3:2|3:2|3:2,0:0:0:0:
106,384,75676,6,0,P|136:323|109:276,1,97.9999970092774,2|0,1:2|1:2,0:0:0:0:
0,169,76171,2,0,P|37:225|91:225,1,97.9999970092774,2|0,3:2|3:2,0:0:0:0:
239,184,76666,2,0,P|171:187|144:235,1,97.9999970092774,2|8,1:2|1:2,0:0:0:0:
53,40,77038,1,0,3:0:0:0:
125,55,77161,1,0,1:2:0:0:
183,10,77285,2,0,L|174:58,2,48.9999985046387,8|0|0,0:2|3:2|3:2,0:0:0:0:
377,72,77656,2,0,P|343:71|289:92,1,62.9999980773926,2|0,1:2|0:0,0:0:0:0:
286,246,77904,6,0,P|261:150|340:90,1,210,2|0,1:2|3:2,0:0:0:0:
364,273,78399,2,0,P|443:213|418:117,1,210,2|0,3:2|0:0,0:0:0:0:
172,161,78894,2,0,P|234:86|350:96,1,210,10|8,1:2|3:2,0:0:0:0:
505,276,79389,2,0,P|502:178|404:115,1,210,2|0,3:2|0:0,0:0:0:0:
254,374,79884,6,0,B|321:361|321:361|475:333|392:349,1,140,2|2,1:2|3:2,0:0:0:0:
180,313,80255,1,2,3:2:0:0:
162,310,80379,1,0,3:2:0:0:
283,186,80627,1,2,1:2:0:0:
76,297,80874,2,0,L|91:358,1,48.9999985046387,8|0,1:2|0:0,0:0:0:0:
161,186,81122,1,0,1:2:0:0:
103,140,81245,2,0,L|118:201,2,48.9999985046387,8|0|0,3:2|3:2|3:2,0:0:0:0:
0,21,81617,1,2,1:2:0:0:
69,44,81741,1,0,3:2:0:0:
139,66,81864,6,0,P|197:63|221:44,1,70,2|0,1:2|0:0,0:0:0:0:
379,0,82112,1,2,1:2:0:0:
394,9,82361,1,0,3:2:0:0:
376,80,82486,1,0,3:2:0:0:
357,151,82610,1,2,1:2:0:0:
505,280,82859,2,0,L|494:214,1,48.9999985046387,8|0,1:2|0:0,0:0:0:0:
366,353,83108,1,2,1:2:0:0:
288,335,83233,2,0,L|296:383,2,48.9999985046387,8|0|0,3:2|3:2|3:2,0:0:0:0:
151,364,83606,1,2,1:2:0:0:
119,372,83855,5,0,1:2:0:0:
72,239,84104,1,2,3:2:0:0:
0,209,84353,1,0,3:2:0:0:
126,129,84602,1,2,1:2:0:0:
41,0,84851,2,0,L|84:66,1,48.9999985046387,8|0,1:2|0:0,0:0:0:0:
205,145,85100,1,0,1:2:0:0:
269,110,85224,2,0,L|226:176,2,48.9999985046387,8|0|0,3:2|3:2|3:2,0:0:0:0:
144,269,85598,1,6,1:2:0:0:
386,326,85847,6,0,P|354:330|323:337,1,62.9999980773926,6|0,1:2|0:0,0:0:0:0:
511,214,86093,2,0,P|429:243|421:365,1,188.999994232178,2|0,3:2|3:2,0:0:0:0:
352,45,86586,2,0,B|300:29|219:9,1,125.999996154785,2|8,1:2|1:2,0:0:0:0:
26,187,87079,1,2,1:2:0:0:
100,179,87202,1,8,3:2:0:0:
175,169,87326,1,0,3:2:0:0:
166,154,87572,2,0,P|154:177|129:245,1,62.9999980773926,2|0,1:2|0:0,0:0:0:0:
83,368,87819,5,0,1:2:0:0:
325,253,88066,2,0,P|391:258|423:317,2,140,2|2|2,3:2|3:2|1:2,0:0:0:0:
512,102,88810,2,0,L|422:114,1,62.9999980773926,8|0,1:2|0:0,0:0:0:0:
317,55,89058,1,0,1:2:0:0:
371,2,89182,2,0,L|308:10,2,62.9999980773926,8|0|0,3:2|3:2|3:2,0:0:0:0:
196,24,89554,1,6,1:2:0:0:
0,215,89802,6,0,L|32:118,1,77.0000023498536,6|0,1:2|0:0,0:0:0:0:
104,384,90050,2,0,L|26:149,1,231.000007049561,6|0,1:2|3:2,0:0:0:0:
337,130,90546,2,0,B|290:195|290:195|323:292,1,154.000004699707,2|8,1:2|1:2,0:0:0:0:
145,21,91042,2,0,P|114:-1|76:0,2,77.0000023498536,2|8|0,1:2|3:2|3:2,0:0:0:0:
175,94,91414,1,0,3:2:0:0:
244,122,91538,1,2,1:2:0:0:
170,134,91661,1,0,3:2:0:0:
97,147,91785,5,0,1:2:0:0:
238,383,92033,2,0,P|194:312|118:316,1,154.000004699707,2|0,3:2|3:2,0:0:0:0:
54,327,92407,1,0,3:2:0:0:
2,272,92531,1,2,1:2:0:0:
221,236,92780,2,0,L|344:216,1,62.9999980773926,8|0,1:2|0:0,0:0:0:0:
369,359,93029,1,0,1:2:0:0:
431,315,93154,2,0,L|493:304,2,62.9999980773926,8|0|0,3:2|3:2|3:2,0:0:0:0:
354,189,93527,2,0,P|341:160|345:129,1,62.9999980773926,6|0,1:2|0:0,0:0:0:0:
511,36,93776,6,0,P|440:67|336:119,1,188.999994232178,6|0,1:2|3:2,0:0:0:0:
255,0,94270,2,0,P|168:38|84:80,1,188.999994232178,2|0,3:2|0:0,0:0:0:0:
16,131,94764,2,0,P|100:88|186:50,1,188.999994232178,10|8,1:2|3:2,0:0:0:0:
272,166,95258,2,0,P|356:123|442:85,1,188.999994232178,2|0,3:2|0:0,0:0:0:0:
421,384,95752,6,0,P|421:317|485:277,1,125.999996154785,2|0,1:2|3:2,0:0:0:0:
263,179,96123,2,0,P|282:203|286:234,2,62.9999980773926,2|0|0,3:2|3:2|3:2,0:0:0:0:
122,106,96494,1,2,1:2:0:0:
0,297,96741,2,0,L|85:283,1,62.9999980773926,8|0,1:2|0:0,0:0:0:0:
188,322,96988,1,0,1:2:0:0:
145,383,97112,2,0,L|230:369,2,62.9999980773926,8|0|0,3:2|3:2|3:2,0:0:0:0:
342,353,97482,1,6,1:2:0:0:
512,131,97729,6,0,P|506:162|497:193,1,62.9999980773926,6|0,1:2|0:0,0:0:0:0:
385,10,97978,2,0,P|410:95|498:117,1,188.999994232178,6|0,1:2|3:2,0:0:0:0:
282,268,98477,2,0,P|272:205|259:144,1,125.999996154785,2|8,1:2|1:2,0:0:0:0:
116,4,98975,1,2,1:2:0:0:
87,73,99100,1,8,3:2:0:0:
58,143,99225,1,0,3:2:0:0:
68,154,99474,2,0,P|25:161|-18:172,1,70,2|0,1:2|0:0,0:0:0:0:
252,278,99724,6,0,P|266:343|329:368,1,140,0|2,1:2|3:2,0:0:0:0:
427,345,100095,1,0,3:2:0:0:
437,268,100219,1,0,3:2:0:0:
512,280,100343,1,0,3:2:0:0:
502,356,100467,1,2,1:2:0:0:
396,22,100715,1,12,1:2:0:0:
384,34,100963,6,0,L|331:34,1,52.4999983978272,2|0,0:0|0:0,0:0:0:0:
202,354,101707,6,0,P|208:316|216:278,1,77.0000023498536,6|0,1:2|0:0,0:0:0:0:
22,235,101955,2,0,P|30:273|36:311,1,77.0000023498536,2|0,3:2|3:2,0:0:0:0:
215,364,102203,2,0,P|221:326|229:288,1,77.0000023498536,2|0,3:2|3:2,0:0:0:0:
8,244,102452,2,0,P|16:281|22:319,1,77.0000023498536,2|0,1:2|3:2,0:0:0:0:
272,128,102700,6,0,P|305:120|353:113,1,77.0000023498536,10|0,1:2|0:0,0:0:0:0:
426,200,102948,2,0,P|464:206|502:215,1,77.0000023498536,2|0,1:2|3:2,0:0:0:0:
511,230,103197,2,0,P|478:222|430:215,1,77.0000023498536,2|0,3:2|3:2,0:0:0:0:
339,130,103445,2,0,P|300:135|263:144,1,77.0000023498536,2|0,1:2|3:2,0:0:0:0:
22,248,103693,6,0,P|14:167|76:128,1,154.000004699707,2|0,1:2|3:2,0:0:0:0:
215,52,104063,1,0,3:2:0:0:
261,114,104187,2,0,P|178:90|88:58,1,154.000004699707,2|0,3:2|1:2,0:0:0:0:
389,54,104557,1,0,3:2:0:0:
455,16,104681,6,0,B|414:79|414:79|429:161,1,154.000004699707,10|0,1:2|1:2,0:0:0:0:
448,256,105052,1,0,3:2:0:0:
505,306,105175,1,2,1:2:0:0:
436,270,105299,1,0,3:2:0:0:
360,284,105422,1,0,3:2:0:0:
310,342,105546,1,0,3:2:0:0:
234,358,105669,6,0,P|222:319|204:271,1,77.0000023498536,2|0,1:2|0:0,0:0:0:0:
26,283,105917,2,0,P|38:244|56:196,1,77.0000023498536,2|0,3:2|3:2,0:0:0:0:
191,277,106164,2,0,P|204:313|215:350,1,77.0000023498536,2|0,3:2|3:2,0:0:0:0:
38,198,106411,2,0,P|24:234|13:271,1,77.0000023498536,2|0,1:2|3:2,0:0:0:0:
276,0,106658,6,0,B|228:60|228:60|41:86,1,231.000007049561,10|0,1:2|3:2,0:0:0:0:
0,109,107152,2,0,L|212:80,1,154.000004699707,2|0,3:2|1:2,0:0:0:0:
340,192,107523,1,0,3:2:0:0:
281,242,107646,6,0,P|247:228|207:216,1,77.0000023498536,2|0,1:2|0:0,0:0:0:0:
427,308,107894,2,0,P|461:294|501:282,1,77.0000023498536,2|0,3:2|3:2,0:0:0:0:
270,254,108143,2,0,P|236:240|196:228,1,77.0000023498536,2|0,3:2|3:2,0:0:0:0:
439,320,108392,2,0,P|473:306|513:294,1,77.0000023498536,2|0,1:2|3:2,0:0:0:0:
503,64,108641,5,10,1:2:0:0:
489,72,108890,1,0,1:2:0:0:
456,0,109015,1,0,3:2:0:0:
395,47,109139,1,2,1:2:0:0:
325,13,109264,1,0,3:2:0:0:
248,25,109388,1,0,3:2:0:0:
200,84,109513,1,0,3:2:0:0:
200,161,109637,6,0,P|192:202|174:262,1,77.0000023498536,2|0,1:2|0:0,0:0:0:0:
195,256,109886,2,0,P|204:218|211:180,1,77.0000023498536,2|0,3:2|3:2,0:0:0:0:
13,94,110135,2,0,P|20:135|38:195,1,77.0000023498536,2|0,3:2|3:2,0:0:0:0:
16,188,110384,2,0,P|6:150|-1:112,1,77.0000023498536,2|0,1:2|3:2,0:0:0:0:
0,384,110633,6,0,B|48:327|48:327|131:317,1,154.000004699707,10|0,1:2|1:2,0:0:0:0:
244,319,111006,1,0,3:2:0:0:
286,384,111131,1,2,3:2:0:0:
263,310,111255,1,0,3:2:0:0:
320,258,111380,1,2,1:2:0:0:
394,277,111504,1,0,3:2:0:0:
467,254,111629,6,0,P|466:208|433:164,1,77.0000023498536,2|0,1:2|0:0,0:0:0:0:
502,214,111877,2,0,B|486:171|443:162,1,77.0000023498536,2|0,3:2|3:2,0:0:0:0:
265,159,112125,2,0,P|265:122|310:76,1,77.0000023498536,2|0,3:2|3:2,0:0:0:0:
217,52,112373,2,0,P|240:22|295:10,1,77.0000023498536,2|0,1:2|3:2,0:0:0:0:
495,0,112621,6,0,P|457:80|417:176,2,167.999994873047,10|0|2,1:2|1:2|1:2,0:0:0:0:
249,384,113365,1,0,3:2:0:0:
175,361,113490,1,0,3:2:0:0:
100,338,113614,6,0,P|82:295|107:251,1,77.0000023498536,2|0,1:2|0:0,0:0:0:0:
237,168,113861,2,0,P|255:211|230:255,1,77.0000023498536,2|0,3:2|3:2,0:0:0:0:
0,126,114109,5,6,3:2:0:0:
55,110,114232,1,0,3:2:0:0:
129,156,114356,1,2,1:2:0:0:
373,27,114604,5,14,1:2:0:0:
307,7,114727,1,0,3:0:0:0:
218,63,114851,1,2,1:2:0:0:
30,202,115099,5,6,3:2:0:0:
113,177,115222,1,0,3:2:0:0:
227,248,115346,1,2,1:2:0:0:
394,20,115594,6,0,B|318:143|244:261,1,251.999992309571,0|0,1:2|3:2,0:0:0:0:
173,306,116089,1,2,3:2:0:0:
228,359,116213,1,0,3:2:0:0:
299,331,116336,1,2,1:2:0:0:
354,384,116460,1,0,3:2:0:0:
400,297,116584,6,0,B|368:211|368:211|416:134,1,181.999991668702,14|0,1:2|1:2,0:0:0:0:
443,1,116955,1,0,3:2:0:0:
512,36,117079,2,0,P|479:44|420:64,1,77.0000023498536,2|0,1:2|3:2,0:0:0:0:
217,1,117326,2,0,P|254:10|290:22,1,77.0000023498536,2|0,3:2|3:2,0:0:0:0:
381,298,117574,6,0,P|326:142|284:33,1,272.999987503052,6|0,1:2|3:2,0:0:0:0:
85,23,118071,2,0,P|123:64|99:117,1,83.9999974365235,2|0,3:2|3:2,0:0:0:0:
2,264,118320,2,0,P|41:174|133:178,2,167.999994873047,2|8|0,1:2|1:2|1:2,0:0:0:0:
76,249,118943,1,0,3:2:0:0:
125,305,119067,1,0,3:2:0:0:
199,290,119192,1,0,3:2:0:0:
248,346,119316,2,0,P|305:337|341:329,1,77.0000023498536,2|0,1:2|3:2,0:0:0:0:
505,160,119565,6,0,B|442:140|405:195|405:195|368:254|299:231,1,231.000007049561,2|0,1:2|3:2,0:0:0:0:
232,204,120060,2,0,P|273:231|306:260,1,77.0000023498536,2|0,3:2|3:2,0:0:0:0:
407,302,120307,1,2,1:2:0:0:
465,252,120431,1,0,3:2:0:0:
478,328,120555,1,8,1:2:0:0:
486,52,120802,1,0,1:2:0:0:
410,64,120926,1,0,3:2:0:0:
349,15,121050,1,0,1:2:0:0:
396,74,121173,1,0,3:2:0:0:
351,136,121297,1,2,3:2:0:0:
263,110,121421,1,0,3:2:0:0:
210,183,121545,5,2,1:2:0:0:
25,0,121792,2,0,P|92:56|74:124,2,154.000004699707,2|0|2,3:2|3:2|1:2,0:0:0:0:
74,233,122411,1,0,3:2:0:0:
0,254,122535,2,0,P|28:193|96:72,1,154.000004699707,8|0,1:2|1:2,0:0:0:0:
172,355,122906,1,0,3:2:0:0:
218,382,123030,2,0,P|208:340|200:291,1,77.0000023498536,2|0,3:2|3:2,0:0:0:0:
248,141,123277,6,0,B|231:96|340:117|369:168,1,154.000004699707,2|0,1:2|1:2,0:0:0:0:
455,339,123649,1,0,3:2:0:0:
382,364,123772,2,0,B|426:293|379:292|528:160,1,231.000007049561,2|0,3:2|3:2,0:0:0:0:
387,0,124267,2,0,B|406:66|481:10|424:195,2,154.000004699707,2|8|2,1:2|1:2|1:2,0:0:0:0:
270,28,124886,1,0,3:2:0:0:
229,92,125010,2,0,P|271:83|325:78,1,77.0000023498536,2|0,1:2|3:2,0:0:0:0:
512,275,125258,6,0,P|458:215|381:233,2,167.999994873047,2|0|0,3:2|1:2|3:2,0:0:0:0:
396,314,125876,1,0,3:2:0:0:
329,351,126000,2,0,P|383:362|440:381,1,77.0000023498536,2|0,3:2|3:2,0:0:0:0:
134,233,126248,2,0,P|149:300|164:384,2,154.000004699707,2|8|0,1:2|1:2|1:2,0:0:0:0:
60,103,126866,1,0,3:2:0:0:
0,150,126990,1,2,3:2:0:0:
285,39,127238,6,0,P|206:17|98:-5,1,167.999994873047,2|0,1:2|1:2,0:0:0:0:
318,193,127609,1,0,3:2:0:0:
374,142,127733,2,0,P|445:123|509:191,1,167.999994873047,2|0,3:2|3:2,0:0:0:0:
461,323,128104,1,0,3:2:0:0:
510,379,128228,1,2,1:2:0:0:
447,333,128352,1,0,3:2:0:0:
373,354,128475,6,0,L|338:358,1,35,0|0,1:2|3:2,0:0:0:0:
184,258,128724,2,0,L|219:254,1,35,0|0,3:2|3:2,0:0:0:0:
238,371,128974,2,0,L|203:375,1,35,0|0,3:2|3:2,0:0:0:0:
319,241,129223,2,0,L|354:237,1,35,0|0,3:2|3:2,0:0:0:0:
21,150,129473,6,0,L|122:162,1,56,0|0,3:2|3:2,0:0:0:0:
262,28,129722,2,0,L|206:21,1,56,0|0,3:2|3:2,0:0:0:0:
190,172,129972,2,0,L|291:184,1,56,0|0,3:2|3:2,0:0:0:0:
93,6,130222,2,0,L|37:0,1,56,0|0,3:2|3:2,0:0:0:0:
392,47,130471,5,0,1:2:0:0:
402,123,130594,1,0,3:2:0:0:
336,209,130718,1,0,1:2:0:0:
346,285,130841,1,0,3:2:0:0:
412,199,130965,5,0,1:2:0:0:
488,189,131089,1,0,3:2:0:0:
326,133,131212,1,0,1:2:0:0:
250,143,131336,1,0,3:2:0:0:
229,128,132449,6,0,P|282:266|323:388,1,272.999987503052,4|0,1:2|3:2,0:0:0:0:
512,330,132944,2,0,P|476:350|462:383,1,77.0000023498536,2|0,3:2|3:2,0:0:0:0:
367,132,133191,1,2,1:2:0:0:
440,154,133315,1,0,3:2:0:0:
512,73,133438,2,0,P|476:125|416:232,1,154.000004699707,8|0,1:2|1:2,0:0:0:0:
324,63,133809,1,0,3:2:0:0:
253,30,133933,2,0,P|288:35|336:47,1,77.0000023498536,2|0,3:2|3:2,0:0:0:0:
186,232,134180,6,0,P|137:287|61:271,2,154.000004699707,2|0|0,1:2|1:2|3:2,0:0:0:0:
75,117,134800,1,0,3:2:0:0:
0,136,134924,1,2,3:2:0:0:
257,277,135172,2,0,P|306:332|382:316,2,154.000004699707,2|8|0,1:2|1:2|1:2,0:0:0:0:
371,166,135792,1,0,3:2:0:0:
443,186,135916,2,0,P|415:170|373:151,1,77.0000023498536,0|0,1:2|3:2,0:0:0:0:
194,125,136164,2,0,P|231:115|267:102,1,77.0000023498536,0|0,3:2|3:2,0:0:0:0:
483,0,136413,6,0,P|379:108|332:255,2,308.000009399414,2|0|10,1:2|3:2|1:2,0:0:0:0:
152,64,137653,1,0,1:2:0:0:
180,135,137777,1,0,3:2:0:0:
103,124,137901,1,0,3:2:0:0:
304,331,138150,6,0,P|375:326|412:266,1,140,2|0,1:2|1:2,0:0:0:0:
198,254,138646,1,2,3:2:0:0:
150,315,138770,1,2,3:2:0:0:
159,373,138894,1,2,3:2:0:0:
1,258,139142,1,0,1:2:0:0:
194,79,139390,2,0,L|263:87,1,70,8|0,1:2|0:0,0:0:0:0:
81,22,139638,1,0,1:2:0:0:
183,220,139887,2,0,P|206:194|215:161,1,70,2|0,1:2|3:2,0:0:0:0:
101,98,140135,2,0,P|119:142|137:157,1,70,2|0,3:2|3:2,0:0:0:0:
318,31,140383,5,6,1:2:0:0:
333,40,140631,2,0,P|392:19|453:1,2,125.999996154785,2|0|0,3:2|3:2|1:2,0:0:0:0:
449,193,141375,2,0,L|521:198,1,62.9999980773926,8|0,1:2|0:0,0:0:0:0:
356,266,141624,2,0,L|512:277,1,112,2|0,1:2|3:2,0:0:0:0:
246,335,142120,6,0,P|212:283|230:220,2,112,2|0|0,1:2|1:2|0:0,0:0:0:0:
171,375,142740,1,0,3:2:0:0:
115,384,142864,1,0,3:2:0:0:
14,274,143112,1,0,3:2:0:0:
47,268,143236,1,0,3:2:0:0:
76,151,143485,1,0,3:2:0:0:
57,155,143609,1,0,3:2:0:0:
2,83,143857,1,0,3:2:0:0:
10,82,143981,1,0,3:2:0:0:
17,81,144105,1,0,3:2:0:0:
24,80,144229,1,0,3:2:0:0:
31,79,144353,5,0,3:2:0:0:
389,384,152168,5,2,0:2:0:0:
452,339,152420,2,0,L|527:346,1,52.5000020027161,2|2,0:2|0:2,0:0:0:0:
512,265,152924,2,0,L|459:260,1,52.5000020027161,2|2,0:2|0:2,0:0:0:0:
403,205,153428,1,2,0:2:0:0:
448,54,153932,1,2,0:2:0:0:
331,16,154184,2,0,L|382:8,2,52.5000020027161,2|0|0,0:2|0:0|0:0,0:0:0:0:
291,84,154941,1,2,0:2:0:0:
214,67,155193,1,2,0:2:0:0:
319,320,156201,5,2,0:2:0:0:
258,269,156453,1,2,0:2:0:0:
182,292,156705,1,2,0:2:0:0:
186,305,157210,1,2,0:2:0:0:
130,353,157714,1,2,0:2:0:0:
57,340,158218,1,2,0:2:0:0:
20,275,158722,1,2,0:2:0:0:
46,206,159226,1,2,0:2:0:0:
0,22,159983,5,2,0:2:0:0:
75,45,160235,1,2,0:2:0:0:
148,183,160991,1,2,0:2:0:0:
73,160,161243,1,2,0:2:0:0:
226,0,162000,5,2,0:2:0:0:
301,23,162252,1,2,0:2:0:0:
402,143,163008,1,2,0:2:0:0:
327,166,163260,1,2,0:2:0:0:
130,310,164016,5,2,0:2:0:0:
205,287,164268,1,2,0:2:0:0:
254,136,165025,1,2,0:2:0:0:
231,211,165277,1,2,0:2:0:0:
368,384,166033,5,2,0:2:0:0:
443,361,166285,1,2,0:2:0:0:
492,210,167042,1,2,0:2:0:0:
469,285,167294,1,2,0:2:0:0:
316,96,168050,5,2,0:2:0:0:
392,86,168302,1,2,0:2:0:0:
203,76,168995,1,2,0:2:0:0:
261,0,169310,1,2,0:2:0:0:
111,140,170067,1,2,0:2:0:0:
99,63,170319,1,2,0:2:0:0:
123,218,171075,1,2,0:2:0:0:
99,63,171579,1,2,0:2:0:0:
0,359,172336,5,2,0:2:0:0:
68,319,172588,1,2,0:2:0:0:
68,319,172840,2,0,L|161:330,1,78.7500030040742,2|0,0:2|0:0,0:0:0:0:
159,337,173344,1,2,0:2:0:0:
215,290,173848,1,2,0:2:0:0:
290,320,174353,1,2,0:2:0:0:
357,263,174857,1,2,0:2:0:0:
437,194,175361,1,2,0:2:0:0:
512,367,176117,5,2,0:2:0:0:
435,350,176369,1,2,0:2:0:0:
348,184,177126,1,2,0:2:0:0:
425,201,177378,1,2,0:2:0:0:
435,189,178134,5,2,0:2:0:0:
358,172,178386,1,2,0:2:0:0:
271,6,179142,1,2,0:2:0:0:
348,23,179395,1,2,0:2:0:0:
158,226,180151,5,2,0:2:0:0:
81,245,180403,1,2,0:2:0:0:
352,156,181159,1,2,0:2:0:0:
429,138,181411,1,2,0:2:0:0:
200,103,182168,5,2,0:2:0:0:
151,42,182420,1,2,0:2:0:0:
310,279,183176,1,2,0:2:0:0:
359,340,183428,1,2,0:2:0:0:
256,192,183680,12,0,185673,0:0:0:0:
54,0,186236,6,0,L|64:46,1,41.9999987182618,2|0,0:2|0:0,0:0:0:0:
54,56,186940,6,0,P|202:93|382:151,1,293.999991027832,6|0,1:2|3:2,0:0:0:0:
477,237,187431,2,0,P|437:276|387:268,1,97.9999970092774,2|0,3:2|3:2,0:0:0:0:
296,39,187677,2,0,P|336:0|386:8,1,97.9999970092774,2|0,1:2|3:2,0:0:0:0:
40,271,187923,6,0,P|50:223|63:175,1,97.9999970092774,10|0,1:2|0:0,0:0:0:0:
230,101,188169,2,0,P|215:54|198:8,1,97.9999970092774,2|0,1:2|3:2,0:0:0:0:
188,26,188415,2,0,P|204:72|219:118,1,97.9999970092774,2|0,3:2|3:2,0:0:0:0:
51,161,188661,2,0,P|38:208|27:256,1,97.9999970092774,2|0,1:2|3:2,0:0:0:0:
280,358,188907,6,0,B|332:388|376:351|376:351|427:307|481:340,1,195.999994018555,2|0,1:2|3:2,0:0:0:0:
470,346,189276,1,0,3:2:0:0:
423,222,189399,2,0,P|423:126|534:65,1,195.999994018555,2|0,3:2|1:2,0:0:0:0:
511,78,189767,1,0,3:2:0:0:
343,0,189890,6,0,P|334:151|318:310,1,293.999991027832,10|0,1:2|3:2,0:0:0:0:
187,289,190382,1,2,1:2:0:0:
148,370,190505,1,0,3:2:0:0:
49,267,190628,1,0,3:2:0:0:
62,353,190751,1,0,3:2:0:0:
126,227,190874,6,0,P|170:189|230:213,1,97.9999970092774,2|0,1:2|0:0,0:0:0:0:
430,123,191120,2,0,P|397:88|349:89,1,97.9999970092774,2|0,3:2|3:2,0:0:0:0:
201,177,191366,2,0,P|153:176|120:210,1,97.9999970092774,2|0,3:2|3:2,0:0:0:0:
356,75,191612,2,0,P|403:74|436:108,1,97.9999970092774,2|0,1:2|3:2,0:0:0:0:
61,0,191858,6,0,B|94:92|94:92|-3:268,1,293.999991027832,10|0,1:2|3:2,0:0:0:0:
256,325,192349,2,0,L|356:145,1,195.999994018555,2|0,3:2|1:2,0:0:0:0:
365,164,192718,1,0,3:2:0:0:
211,237,192841,6,0,P|164:242|114:250,1,97.9999970092774,2|0,1:2|0:0,0:0:0:0:
403,345,193087,2,0,P|451:350|500:358,1,97.9999970092774,2|0,3:2|3:2,0:0:0:0:
190,255,193333,2,0,P|143:260|93:268,1,97.9999970092774,2|0,3:2|3:2,0:0:0:0:
415,362,193579,2,0,P|463:367|512:375,1,97.9999970092774,2|0,1:2|3:2,0:0:0:0:
270,49,193825,5,10,1:2:0:0:
259,62,194071,1,0,1:2:0:0:
184,85,194194,1,0,3:2:0:0:
40,12,194317,1,2,1:2:0:0:
97,65,194440,1,0,3:2:0:0:
123,150,194562,1,0,3:2:0:0:
106,226,194685,1,0,3:2:0:0:
0,261,194808,6,0,L|102:243,1,97.9999970092774,2|0,1:2|0:0,0:0:0:0:
183,279,195054,2,0,L|80:261,1,97.9999970092774,2|0,3:2|3:2,0:0:0:0:
396,31,195300,2,0,L|329:110,1,97.9999970092774,2|0,3:2|3:2,0:0:0:0:
320,199,195546,2,0,L|355:101,1,97.9999970092774,2|0,1:2|3:2,0:0:0:0:
335,384,195792,6,0,L|221:186,1,195.999994018555,10|0,1:2|1:2,0:0:0:0:
227,75,196161,1,0,3:2:0:0:
87,100,196284,1,2,3:2:0:0:
166,137,196407,1,0,3:2:0:0:
185,1,196530,1,2,1:2:0:0:
100,16,196653,1,0,3:2:0:0:
306,112,196776,6,0,P|356:93|378:28,1,97.9999970092774,2|0,1:2|0:0,0:0:0:0:
438,107,197021,2,0,P|460:58|430:-3,1,97.9999970092774,2|0,3:2|3:2,0:0:0:0:
319,337,197267,2,0,P|268:318|246:253,1,97.9999970092774,2|0,3:2|3:2,0:0:0:0:
161,316,197513,2,0,P|146:263|187:207,1,97.9999970092774,2|0,1:2|3:2,0:0:0:0:
512,280,197759,6,0,P|417:315|298:364,2,210.000008010865,10|0|2,1:2|1:2|1:2,0:0:0:0:
53,322,198497,1,0,3:2:0:0:
100,383,198620,1,0,3:2:0:0:
3,260,198743,6,0,P|3:212|71:162,1,97.9999970092774,2|0,1:2|0:0,0:0:0:0:
181,102,198989,2,0,P|210:64|211:16,1,97.9999970092774,2|0,3:2|3:2,0:0:0:0:
0,37,199235,5,6,3:2:0:0:
78,28,199358,1,0,3:2:0:0:
162,111,199480,1,2,1:2:0:0:
512,37,199726,5,14,1:2:0:0:
434,28,199849,1,0,3:0:0:0:
350,111,199972,1,2,1:2:0:0:
153,374,200218,5,6,3:2:0:0:
256,315,200341,1,0,3:2:0:0:
358,374,200464,1,2,1:2:0:0:
256,0,200710,6,0,L|256:354,1,315.000012016297,0|0,1:2|3:2,0:0:0:0:
256,315,201202,2,0,P|292:282|340:283,1,97.9999970092774,2|0,3:2|3:2,0:0:0:0:
489,137,201448,2,0,P|454:169|406:168,1,97.9999970092774,2|0,1:2|3:2,0:0:0:0:
177,102,201694,6,0,B|252:54|332:131|332:131|418:222|488:162,1,346.500003304482,14|0,1:2|3:2,0:0:0:0:
512,278,202185,1,2,1:2:0:0:
484,350,202308,1,0,3:2:0:0:
418,201,202431,1,2,3:2:0:0:
362,344,202554,1,0,3:2:0:0:
245,212,202677,5,6,1:2:0:0:
245,212,203169,2,0,P|187:216|155:155,1,105.000004005432,2|0,3:2|3:2,0:0:0:0:
0,82,203415,2,0,P|96:39|194:2,2,210.000008010865,2|8|0,1:2|1:2|1:2,0:0:0:0:
41,217,204030,1,0,3:2:0:0:
91,274,204153,1,0,3:2:0:0:
27,228,204276,1,0,3:2:0:0:
169,259,204399,2,0,P|216:249|245:210,1,97.9999970092774,2|0,1:2|3:2,0:0:0:0:
412,86,204644,6,0,B|335:127|275:61|275:61|219:0|142:38,1,293.999991027832,2|0,1:2|3:2,0:0:0:0:
66,77,205136,2,0,P|129:57|169:47,1,97.9999970092774,2|0,3:2|3:2,0:0:0:0:
322,219,205382,1,2,1:2:0:0:
415,205,205505,1,0,3:2:0:0:
512,192,205628,5,8,1:2:0:0:
506,207,205874,2,0,P|503:254|468:287,1,97.9999970092774,0|0,1:2|3:2,0:0:0:0:
258,139,206120,2,0,P|302:172|302:234,1,97.9999970092774,0|0,1:2|3:2,0:0:0:0:
76,318,206366,2,0,P|127:297|181:328,1,97.9999970092774,2|0,3:2|3:2,0:0:0:0:
324,364,206612,5,2,1:2:0:0:
319,378,206858,2,0,P|448:307|533:267,2,195.999994018555,2|0|2,3:2|3:2|1:2,0:0:0:0:
372,203,207472,1,0,3:2:0:0:
331,54,207595,2,0,P|411:205|514:188,1,293.999991027832,8|0,1:2|3:2,0:0:0:0:
512,176,208087,1,2,3:2:0:0:
246,0,208333,6,0,B|262:-6|268:102|183:18|239:189,1,195.999994018555,2|0,1:2|1:2,0:0:0:0:
307,266,208702,1,0,3:2:0:0:
124,320,208825,2,0,B|219:334|253:305|95:205|240:271|326:131|303:115,1,293.999991027832,2|0,3:2|3:2,0:0:0:0:
168,25,209317,2,0,B|69:-18|78:20|28:120|-13:41,2,195.999994018555,2|8|2,1:2|1:2|1:2,0:0:0:0:
99,209,209931,1,0,3:2:0:0:
0,185,210054,2,0,P|46:201|90:224,1,97.9999970092774,2|0,1:2|3:2,0:0:0:0:
356,287,210300,6,0,P|258:292|220:397,2,210.000008010865,2|0|0,3:2|1:2|3:2,0:0:0:0:
163,142,210915,1,0,3:2:0:0:
200,231,211038,2,0,P|190:178|179:135,1,97.9999970092774,2|0,3:2|3:2,0:0:0:0:
421,0,211284,2,0,P|439:91|463:191,2,195.999994018555,2|8|0,1:2|1:2|1:2,0:0:0:0:
140,384,212021,2,0,P|166:343|212:330,1,97.9999970092774,2|0,3:2|3:2,0:0:0:0:
456,345,212267,6,0,P|331:328|170:304,1,245.000002336502,2|0,1:2|1:2,0:0:0:0:
126,251,212636,1,0,3:2:0:0:
1,309,212759,2,0,P|100:263|71:103,1,245.000002336502,2|0,3:2|3:2,0:0:0:0:
42,33,213128,1,0,3:2:0:0:
124,58,213251,1,2,1:2:0:0:
191,3,213374,1,0,3:2:0:0:
305,47,213497,5,0,1:2:0:0:
314,67,213620,1,0,3:2:0:0:
254,122,213743,1,0,1:2:0:0:
273,136,213866,1,0,3:2:0:0:
267,223,213989,1,0,1:2:0:0:
289,225,214112,1,0,3:2:0:0:
348,297,214235,1,0,1:2:0:0:
369,288,214358,1,0,3:2:0:0:
512,268,214480,5,0,1:2:0:0:
497,306,214603,1,0,3:2:0:0:
408,226,214726,1,0,1:2:0:0:
416,268,214849,1,0,3:2:0:0:
279,248,214972,1,0,1:2:0:0:
307,281,215095,1,0,3:2:0:0:
169,351,215218,1,0,1:2:0:0:
208,365,215341,1,0,3:2:0:0:
100,165,215464,5,0,1:2:0:0:
26,159,215587,1,0,3:2:0:0:
168,68,215710,1,0,1:2:0:0:
136,0,215833,1,0,3:2:0:0:
286,79,215956,1,0,1:2:0:0:
328,17,216079,1,0,3:2:0:0:
336,186,216202,1,0,1:2:0:0:
410,191,216325,1,0,3:2:0:0:
218,175,216448,5,0,1:2:0:0:
307,384,217431,6,0,L|187:28,1,357.000006809235,4|0,1:2|3:2,0:0:0:0:
23,0,217922,2,0,P|51:68|66:116,1,97.9999970092774,2|0,3:2|3:2,0:0:0:0:
259,0,218168,1,2,1:2:0:0:
192,45,218291,1,0,3:2:0:0:
346,17,218414,2,0,B|296:101|296:101|334:209,1,195.999994018555,8|0,1:2|1:2,0:0:0:0:
426,309,218783,1,0,3:2:0:0:
510,359,218906,2,0,P|463:342|416:329,1,97.9999970092774,2|0,3:2|3:2,0:0:0:0:
205,288,219152,6,0,P|149:376|52:352,2,195.999994018555,2|0|0,1:2|1:2|3:2,0:0:0:0:
106,164,219767,1,0,3:2:0:0:
0,212,219890,2,0,P|71:188|124:177,1,97.9999970092774,2|0,3:2|3:2,0:0:0:0:
289,288,220135,2,0,P|345:376|442:352,2,195.999994018555,2|8|0,1:2|1:2|1:2,0:0:0:0:
386,167,220750,1,0,3:2:0:0:
479,216,220873,2,0,P|435:180|372:200,1,97.9999970092774,2|0,1:2|3:2,0:0:0:0:
153,112,221119,2,0,P|196:147|259:127,1,97.9999970092774,2|0,3:2|3:2,0:0:0:0:
500,18,221365,6,0,P|368:87|214:177,1,293.999991027832,0|0,1:2|3:2,0:0:0:0:
219,61,221857,2,0,P|261:36|305:14,1,97.9999970092774,2|0,3:2|3:2,0:0:0:0:
196,267,222103,1,2,1:2:0:0:
130,222,222226,1,0,3:2:0:0:
0,319,222349,2,0,B|94:292|94:292|175:347,1,195.999994018555,8|0,1:2|1:2,0:0:0:0:
287,223,222717,1,0,3:2:0:0:
337,125,222840,2,0,P|300:163|305:218,1,97.9999970092774,2|0,3:2|3:2,0:0:0:0:
493,384,223086,6,0,P|453:279|407:168,2,195.999994018555,2|0|0,1:2|1:2|3:2,0:0:0:0:
368,288,223701,1,0,3:2:0:0:
270,338,223824,2,0,P|308:301|363:306,1,97.9999970092774,2|0,3:2|3:2,0:0:0:0:
241,79,224070,2,0,P|201:182|154:293,2,195.999994018555,2|8|0,1:2|1:2|1:2,0:0:0:0:
98,220,224685,1,0,3:2:0:0:
0,170,224808,6,0,P|38:206|93:201,1,97.9999970092774,6|0,1:2|3:2,0:0:0:0:
307,38,225053,2,0,P|273:3|225:2,1,97.9999970092774,6|0,1:2|3:2,0:0:0:0:
384,340,225299,6,0,P|231:233|256:56,1,357.000006809235,4|0,1:2|3:2,0:0:0:0:
458,0,225791,2,0,P|423:34|388:74,1,97.9999970092774,2|0,3:2|3:2,0:0:0:0:
357,229,226037,1,2,1:2:0:0:
295,181,226160,1,0,3:2:0:0:
173,287,226283,2,0,B|248:224|248:224|345:242,1,195.999994018555,8|0,1:2|1:2,0:0:0:0:
511,270,226652,1,0,3:2:0:0:
449,194,226775,2,0,P|475:236|506:302,1,97.9999970092774,2|0,3:2|3:2,0:0:0:0:
205,369,227021,6,0,P|112:352|89:262,2,195.999994018555,2|0|0,1:2|1:2|3:2,0:0:0:0:
185,173,227635,1,0,3:2:0:0:
251,82,227758,2,0,P|225:124|194:190,1,97.9999970092774,2|0,3:2|3:2,0:0:0:0:
396,289,228004,2,0,P|488:272|512:182,2,195.999994018555,2|8|0,1:2|1:2|1:2,0:0:0:0:
309,139,228619,1,0,3:2:0:0:
373,69,228742,2,0,P|416:48|461:62,1,97.9999970092774,2|0,1:2|3:2,0:0:0:0:
245,209,228988,2,0,P|190:211|149:164,1,97.9999970092774,2|0,3:2|3:2,0:0:0:0:
0,51,229234,6,0,B|92:-21|177:36|184:80|190:128|305:169|379:73,2,420.000016021729,2|0|10,1:2|3:2|1:2,0:0:0:0:
112,384,230463,1,0,1:2:0:0:
184,322,230586,1,0,3:2:0:0:
276,343,230709,1,0,3:2:0:0:
0,137,230955,6,0,P|71:200|166:157,2,195.999994018555,2|0|2,1:2|1:2|3:2,0:0:0:0:
238,0,231570,1,0,3:2:0:0:
350,41,231693,2,0,P|261:24|221:20,1,97.9999970092774,2|0,3:2|3:2,0:0:0:0:
415,233,231939,2,0,P|464:240|512:250,1,97.9999970092774,2|0,1:2|3:2,0:0:0:0:
222,217,232185,5,10,1:2:0:0:
146,233,232308,1,2,3:2:0:0:
105,298,232431,1,2,1:2:0:0:
117,374,232553,1,2,3:2:0:0:
268,364,232676,5,6,1:2:0:0:
280,286,232799,1,2,3:2:0:0:
426,243,232922,1,6,1:2:0:0:
414,321,233045,1,2,3:2:0:0:
300,142,233168,5,6,1:2:0:0:
